osu file format v14

[General]
AudioFilename: audio.mp3
AudioLeadIn: 0
PreviewTime: 45940
Countdown: 0
SampleSet: Soft
StackLeniency: 0.6
Mode: 0
LetterboxInBreaks: 0
WidescreenStoryboard: 0

[Editor]
DistanceSpacing: 0.5
BeatDivisor: 4
GridSize: 8
TimelineZoom: 1.9

[Metadata]
Title:Ghost
TitleUnicode:Ghost
Artist:Delta Heavy
ArtistUnicode:Delta Heavy
Creator:MashaSG
Version:Slayed's Insane
Source:
Tags:paradise lost dnb drum'n'bass drum and bass clippy midtempo electro house electronica cutted version DELTΔ HEΔVY Danii Shadren Slayed
BeatmapID:1219236
BeatmapSetID:558303

[Difficulty]
HPDrainRate:6
CircleSize:3.8
OverallDifficulty:7.5
ApproachRate:9
SliderMultiplier:1.6
SliderTickRate:1

[Events]
//Background and Video events
0,0,"Clippy4Ever.jpg",0,0
//Break Periods
//Storyboard Layer 0 (Background)
//Storyboard Layer 1 (Fail)
//Storyboard Layer 2 (Pass)
//Storyboard Layer 3 (Foreground)
//Storyboard Sound Samples

[TimingPoints]
23872,344.827586206897,4,2,11,30,1,0
23872,-133.333333333333,4,2,11,30,0,0
34906,-100,4,2,1,30,0,0
45251,-133.333333333333,4,2,1,10,0,0
45940,-100,4,1,1,60,0,1
55940,-76.9230769230769,4,1,1,60,0,1
56285,-100,4,1,1,60,0,1
56630,-76.9230769230769,4,1,1,60,0,1
56889,-76.9230769230769,4,1,1,60,0,0
56975,-100,4,1,1,60,0,1
66630,-50,4,2,1,30,0,1
67665,-74.0740740740741,4,2,1,50,0,0
68009,-100,4,1,1,70,0,0
79044,-100,4,2,1,25,0,0
84561,-100,4,2,1,35,0,0
88699,-133.333333333333,4,2,11,60,0,0

[Colours]
Combo1 : 0,255,255
Combo2 : 0,64,128
Combo3 : 255,255,128

[HitObjects]
313,184,23872,6,0,P|372:172|391:318,2,240.000009155274,0|0|0,3:0|3:0|3:0,0:0:0:0:
312,184,25940,2,0,P|306:152|296:103,1,60.0000022888184,0|0,3:0|0:0,0:0:0:0:
252,264,26285,2,0,P|284:273|319:287,1,60.0000022888184,0|0,0:0|0:0,0:0:0:0:
215,172,26630,6,0,B|104:203|104:88|-14:124,2,240.000009155274,0|0|0,3:0|3:0|3:0,0:0:0:0:
215,172,28699,2,0,P|203:218|192:257,1,60.0000022888184,0|0,3:0|0:0,0:0:0:0:
120,98,29044,2,0,P|127:135|134:176,1,60.0000022888184,0|0,0:0|0:0,0:0:0:0:
216,82,29389,6,0,B|313:93|313:93|334:88|334:88|352:98|352:98|464:112,2,240.000009155274,0|0|0,3:0|3:0|3:0,0:0:0:0:
57,288,31458,2,0,P|45:203|28:106,1,180.000006866455,0|0,3:0|0:0,0:0:0:0:
111,30,32147,6,0,P|154:24|189:146,1,180.000006866455,0|0,3:0|0:0,0:0:0:0:
161,228,32837,2,0,B|272:245|224:175|351:197,1,180.000006866455,0|0,3:0|0:0,0:0:0:0:
410,264,33527,1,0,3:0:0:0:
410,264,33871,2,0,P|416:207|429:125,1,120.000004577637,0|0,0:0|3:0,0:0:0:0:
327,171,34389,2,0,P|320:111|311:52,1,120.000004577637,0|0,0:0|0:0,0:0:0:0:
155,117,34906,6,0,P|195:121|242:132,1,80,8|0,0:0|0:0,0:0:0:0:
295,14,35251,2,0,P|256:24|216:30,1,80,8|0,0:0|0:0,0:0:0:0:
327,171,35596,2,0,P|336:128|340:81,1,80,8|0,0:0|0:0,0:0:0:0:
228,178,35940,2,0,P|232:219|239:257,1,80,8|0,0:0|0:0,0:0:0:0:
330,319,36285,5,8,0:0:0:0:
330,319,36458,1,0,0:0:0:0:
454,258,36630,1,8,0:0:0:0:
454,258,36803,1,0,0:0:0:0:
317,151,36975,1,8,0:0:0:0:
317,151,37147,1,0,0:0:0:0:
416,339,37320,1,8,0:0:0:0:
416,339,37492,1,0,0:0:0:0:
483,173,37665,6,0,P|472:124|454:85,1,80,8|0,0:0|0:0,0:0:0:0:
396,312,38009,2,0,P|461:329|490:340,1,80,8|0,0:0|0:0,0:0:0:0:
301,204,38354,2,0,P|363:179|393:171,1,80,8|0,0:0|0:0,0:0:0:0:
282,313,38699,1,8,0:0:0:0:
282,313,38872,1,0,0:0:0:0:
190,202,39044,6,0,P|185:160|181:112,1,80,8|0,0:0|0:0,0:0:0:0:
294,19,39389,2,0,P|290:58|285:98,1,80,8|0,0:0|0:0,0:0:0:0:
187,31,39734,1,8,0:0:0:0:
187,31,39906,1,0,0:0:0:0:
384,115,40078,1,8,0:0:0:0:
384,115,40251,1,0,0:0:0:0:
190,202,40423,5,8,0:0:0:0:
282,313,40596,1,8,0:0:0:0:
344,213,40768,1,8,0:0:0:0:
164,290,40940,1,8,0:0:0:0:
384,353,41113,5,8,0:0:0:0:
214,224,41285,1,8,0:0:0:0:
367,196,41458,1,8,0:0:0:0:
262,341,41630,1,8,0:0:0:0:
447,266,41803,6,0,P|487:253|536:244,1,80,8|8,0:0|0:0,0:0:0:0:
352,99,42147,2,0,P|393:112|441:121,1,80,8|8,0:0|0:0,0:0:0:0:
294,223,42492,1,8,0:0:0:0:
294,223,42665,1,8,0:0:0:0:
258,53,42837,1,8,0:0:0:0:
258,53,43009,1,8,0:0:0:0:
141,180,43182,6,0,P|133:236|136:272,1,80,8|8,0:0|0:0,0:0:0:0:
345,138,43527,2,0,P|345:98|338:58,1,80,8|8,0:0|0:0,0:0:0:0:
253,226,43872,1,8,0:0:0:0:
454,167,44044,1,8,0:0:0:0:
245,78,44216,1,8,0:0:0:0:
359,160,44389,1,8,0:0:0:0:
144,79,44561,5,8,0:0:0:0:
180,287,44734,1,8,0:0:0:0:
41,193,44906,5,8,0:0:0:0:
234,154,45078,1,8,0:0:0:0:
411,228,45251,6,0,B|446:135|396:87|396:87|390:118|411:146,1,210.000008010865,8|0,0:0|0:0,0:0:0:0:
397,154,45940,6,0,P|366:148|309:144,1,80,8|0,0:0|0:0,0:0:0:0:
482,69,46285,2,0,P|499:125|487:241,1,160,8|0,0:0|0:0,0:0:0:0:
319,194,46803,1,2,0:0:0:0:
407,74,46975,2,0,P|401:118|397:154,1,80,2|2,0:0|0:0,0:0:0:0:
244,99,47320,6,0,P|312:86|338:76,1,80,8|0,0:0|0:0,0:0:0:0:
155,223,47665,2,0,P|64:205|-22:203,1,160,8|0,0:0|0:0,0:0:0:0:
146,57,48182,1,2,0:0:0:0:
76,122,48354,1,2,0:0:0:0:
57,30,48527,1,2,0:0:0:0:
189,142,48699,6,0,P|176:174|166:222,1,80,8|0,0:0|0:0,0:0:0:0:
381,272,49044,2,0,P|361:221|246:235,1,160,8|0,0:0|0:0,0:0:0:0:
139,335,49561,1,2,0:0:0:0:
232,361,49734,2,0,P|227:323|217:282,1,80,2|2,0:0|0:0,0:0:0:0:
96,128,50078,5,0,0:0:0:0:
237,207,50251,1,8,0:0:0:0:
75,274,50423,2,0,P|40:259|-11:242,2,80,8|0|0,0:0|0:0|0:0,0:0:0:0:
222,102,50940,1,2,0:0:0:0:
142,219,51113,1,2,0:0:0:0:
58,114,51285,1,2,0:0:0:0:
237,207,51458,6,0,P|233:167|221:104,1,80,8|0,0:0|0:0,0:0:0:0:
359,225,51803,2,0,P|350:284|339:401,1,160,8|0,0:0|0:0,0:0:0:0:
435,300,52320,1,2,0:0:0:0:
259,337,52492,2,0,P|221:321|167:307,1,80,2|2,0:0|0:0,0:0:0:0:
49,203,52837,5,8,0:0:0:0:
230,240,53009,1,0,0:0:0:0:
96,370,53182,2,0,P|89:325|80:277,2,80,8|0|0,0:0|0:0|0:0,0:0:0:0:
0,324,53699,1,2,0:0:0:0:
143,224,53872,1,2,0:0:0:0:
0,137,54044,1,2,0:0:0:0:
166,314,54216,6,0,P|244:300|324:291,1,160,8|8,0:0|0:0,0:0:0:0:
271,178,54734,1,0,0:0:0:0:
512,210,54906,2,0,P|456:241|359:206,1,160,0|2,0:0|0:0,0:0:0:0:
512,126,55423,1,2,0:0:0:0:
415,72,55596,6,0,P|431:131|436:181,1,80,0|8,0:0|0:0,0:0:0:0:
296,74,55940,2,0,B|261:82|238:103|238:103|204:77|204:77|153:112|89:84,1,207.999990478516,8|0,0:0|0:0,0:0:0:0:
0,52,56458,1,0,0:0:0:0:
182,255,56630,2,0,B|232:251|232:251|251:234|251:234|301:231|349:264,1,155.999992858887,8|0,0:0|0:0,0:0:0:0:
403,310,56975,6,0,P|409:268|418:216,1,80,8|0,0:0|0:0,0:0:0:0:
261,368,57320,2,0,P|187:337|108:368,1,160,8|0,0:0|0:0,0:0:0:0:
17,208,57837,1,2,0:0:0:0:
106,268,58009,1,2,0:0:0:0:
9,308,58182,1,2,0:0:0:0:
161,179,58354,5,8,0:0:0:0:
0,114,58527,1,0,0:0:0:0:
130,26,58699,2,0,P|123:64|117:118,2,80,8|0|0,0:0|0:0|0:0,0:0:0:0:
38,185,59216,1,2,0:0:0:0:
222,98,59389,1,2,0:0:0:0:
36,14,59561,1,2,0:0:0:0:
161,179,59734,6,0,P|203:174|259:168,1,80,8|0,0:0|0:0,0:0:0:0:
27,341,60078,2,0,P|17:261|37:184,1,160,8|0,0:0|0:0,0:0:0:0:
200,273,60596,1,2,0:0:0:0:
118,337,60768,2,0,P|110:295|104:258,1,80,2|2,0:0|0:0,0:0:0:0:
136,48,61113,5,0,0:0:0:0:
16,136,61285,1,8,0:0:0:0:
191,190,61458,2,0,P|230:181|273:174,2,80,8|0|0,0:0|0:0|0:0,0:0:0:0:
229,80,61975,1,2,0:0:0:0:
98,146,62147,1,2,0:0:0:0:
266,264,62320,1,2,0:0:0:0:
388,159,62492,6,0,P|379:108|363:65,1,80,8|0,0:0|0:0,0:0:0:0:
266,264,62837,2,0,P|341:278|439:308,1,160,8|0,0:0|0:0,0:0:0:0:
485,133,63354,1,2,0:0:0:0:
383,193,63527,1,2,0:0:0:0:
501,247,63699,1,2,0:0:0:0:
307,119,63872,6,0,P|268:106|221:99,1,80,8|0,0:0|0:0,0:0:0:0:
450,28,64216,2,0,P|483:68|443:189,1,160,8|0,0:0|0:0,0:0:0:0:
307,119,64734,1,2,0:0:0:0:
386,220,64906,2,0,P|390:178|397:123,1,80,2|2,0:0|0:0,0:0:0:0:
288,277,65251,6,0,P|236:288|158:204,1,160,8|8,0:0|0:0,0:0:0:0:
221,137,65768,1,0,0:0:0:0:
79,268,65940,2,0,P|67:189|55:109,1,160,0|2,0:0|0:0,0:0:0:0:
159,182,66458,1,2,0:0:0:0:
157,351,66630,5,8,0:0:0:0:
53,170,66803,1,8,0:0:0:0:
209,260,66975,1,8,0:0:0:0:
52,350,67147,1,8,0:0:0:0:
159,182,67320,1,8,0:0:0:0:
0,260,67492,1,8,0:0:0:0:
258,335,67665,6,0,B|321:320|321:320|337:309|337:309|358:310|358:310|414:296,1,162.000000617981,8|0,0:0|0:0,0:0:0:0:
478,228,68009,6,0,P|426:254|332:183,1,160,8|8,0:0|0:0,0:0:0:0:
282,118,68527,1,0,0:0:0:0:
383,55,68699,2,0,P|377:96|371:158,1,80,0|8,0:0|0:0,0:0:0:0:
215,199,69044,2,0,P|209:156|203:119,1,80,8|0,0:0|0:0,0:0:0:0:
339,261,69389,6,0,P|299:271|242:289,1,80,8|0,0:0|0:0,0:0:0:0:
136,184,69734,2,0,P|175:192|214:198,1,80,8|0,0:0|0:0,0:0:0:0:
184,358,70078,2,0,P|177:313|170:266,1,80,0|8,0:0|0:0,0:0:0:0:
310,108,70423,2,0,P|304:147|297:187,1,80,8|0,0:0|0:0,0:0:0:0:
165,99,70768,6,0,P|92:88|47:168,2,160,8|8|0,0:0|0:0|0:0,0:0:0:0:
275,169,71630,1,8,0:0:0:0:
232,12,71803,2,0,P|237:57|244:98,1,80,8|0,0:0|0:0,0:0:0:0:
344,235,72147,5,0,0:0:0:0:
183,183,72320,1,8,0:0:0:0:
361,124,72492,1,8,0:0:0:0:
269,200,72665,1,0,0:0:0:0:
423,263,72837,2,0,P|464:253|516:245,1,80,0|8,0:0|0:0,0:0:0:0:
271,331,73182,2,0,P|310:344|358:366,1,80,8|0,0:0|0:0,0:0:0:0:
244,228,73527,6,0,P|188:268|83:237,1,160,8|8,0:0|0:0,0:0:0:0:
173,136,74044,1,0,0:0:0:0:
79,70,74216,2,0,P|71:117|65:167,1,80,0|8,0:0|0:0,0:0:0:0:
254,57,74561,2,0,P|203:39|166:23,1,80,8|0,0:0|0:0,0:0:0:0:
292,153,74906,5,8,0:0:0:0:
292,153,75078,1,0,0:0:0:0:
426,75,75251,2,0,P|416:25|404:-8,1,80,8|0,0:0|0:0,0:0:0:0:
351,210,75596,2,0,P|409:161|494:203,1,160,0|8,0:0|0:0,0:0:0:0:
426,277,76113,1,0,0:0:0:0:
267,304,76285,6,0,P|162:286|86:280,1,160,8|8,0:0|0:0,0:0:0:0:
101,131,76803,1,0,0:0:0:0:
189,195,76975,2,0,P|236:191|279:85,1,160,0|8,0:0|0:0,0:0:0:0:
351,210,77492,1,0,0:0:0:0:
267,304,77665,6,0,P|231:296|172:288,1,80,0|8,0:0|0:0,0:0:0:0:
38,180,78009,1,8,0:0:0:0:
129,234,78182,1,0,0:0:0:0:
59,347,78354,2,0,P|50:305|42:261,1,80,0|8,0:0|0:0,0:0:0:0:
234,175,78699,2,0,P|227:222|221:257,1,80,8|0,0:0|0:0,0:0:0:0:
84,91,79044,5,8,0:0:0:0:
160,36,79389,1,8,0:0:0:0:
149,24,79734,1,8,0:0:0:0:
112,207,80078,1,8,0:0:0:0:
99,196,80423,5,8,0:0:0:0:
358,99,80768,1,8,0:0:0:0:
354,114,81113,1,8,0:0:0:0:
38,29,81458,1,8,0:0:0:0:
32,44,81803,5,8,0:0:0:0:
386,14,82147,1,8,0:0:0:0:
396,25,82492,1,8,0:0:0:0:
117,292,82837,1,8,0:0:0:0:
105,280,83182,5,8,0:0:0:0:
509,358,83527,1,8,0:0:0:0:
497,347,83872,1,8,0:0:0:0:
200,29,84216,1,8,0:0:0:0:
256,233,84561,5,8,0:0:0:0:
256,233,84734,1,8,0:0:0:0:
241,338,84906,1,8,0:0:0:0:
241,338,85078,1,8,0:0:0:0:
142,191,85251,1,8,0:0:0:0:
142,191,85423,1,8,0:0:0:0:
347,173,85596,1,8,0:0:0:0:
347,173,85768,1,8,0:0:0:0:
164,288,85940,6,0,P|89:278|51:275,1,80,8|8,0:0|0:0,0:0:0:0:
347,173,86285,2,0,P|385:179|426:183,1,80,8|8,0:0|0:0,0:0:0:0:
222,110,86630,1,8,0:0:0:0:
324,277,86803,1,8,0:0:0:0:
142,191,86975,1,8,0:0:0:0:
331,90,87147,1,8,0:0:0:0:
237,221,87320,5,8,0:0:0:0:
237,221,87492,1,8,0:0:0:0:
124,52,87665,1,8,0:0:0:0:
124,52,87837,1,8,0:0:0:0:
35,178,88009,1,8,0:0:0:0:
222,110,88182,1,8,0:0:0:0:
33,36,88354,1,8,0:0:0:0:
142,191,88527,1,8,0:0:0:0:
222,110,88699,6,0,B|295:102|295:102|316:117|316:117|397:106,2,180.000006866455
