osu file format v14

[General]
AudioFilename: audio.mp3
AudioLeadIn: 0
PreviewTime: 45940
Countdown: 0
SampleSet: Soft
StackLeniency: 0.7
Mode: 0
LetterboxInBreaks: 0
WidescreenStoryboard: 0

[Editor]
DistanceSpacing: 1.7
BeatDivisor: 4
GridSize: 8
TimelineZoom: 1.6

[Metadata]
Title:Ghost
TitleUnicode:Ghost
Artist:Delta Heavy
ArtistUnicode:Delta Heavy
Creator:MashaSG
Version:Danii's Hard
Source:
Tags:paradise lost dnb drum'n'bass drum and bass clippy midtempo electro house electronica cutted version DELTΔ HEΔVY Danii Shadren Slayed
BeatmapID:1181039
BeatmapSetID:558303

[Difficulty]
HPDrainRate:5
CircleSize:4
OverallDifficulty:6
ApproachRate:7.5
SliderMultiplier:1.3
SliderTickRate:1

[Events]
//Background and Video events
0,0,"Clippy4Ever.jpg",0,0
//Break Periods
//Storyboard Layer 0 (Background)
//Storyboard Layer 1 (Fail)
//Storyboard Layer 2 (Pass)
//Storyboard Layer 3 (Foreground)
//Storyboard Sound Samples

[TimingPoints]
23872,344.827586206897,4,2,11,30,1,0
23872,-133.333333333333,4,2,11,30,0,0
34388,-166.666666666667,4,2,11,30,0,0
34820,-166.666666666667,4,2,11,10,0,0
34906,-111.111111111111,4,2,1,30,0,0
40423,-99.9999999999999,4,2,1,30,0,0
45251,-133.333333333333,4,2,1,10,0,0
45940,-86.9565217391304,4,1,1,60,0,1
56889,-86.9565217391304,4,1,1,60,0,0
56975,-83.3333333333333,4,1,1,60,0,1
66630,-80,4,2,1,30,0,1
67665,-80,4,2,1,50,0,1
68009,-100,4,1,1,70,0,0
79044,-133.333333333333,4,2,1,25,0,0
84561,-100,4,2,1,35,0,0
87320,-90.9090909090909,4,2,1,35,0,0
88699,-200,4,2,1,5,0,0

[Colours]
Combo1 : 0,255,255
Combo2 : 0,64,128
Combo3 : 255,255,128

[HitObjects]
262,198,23872,6,0,P|334:187|290:262,2,195.00000743866,0|0|0,3:0|3:0|3:0,0:0:0:0:
262,198,25941,6,0,L|204:178,1,48.750001859665,0|0,3:0|0:0,0:0:0:0:
139,234,26286,2,0,L|81:214,1,48.750001859665
92,125,26631,6,0,B|27:102|27:102|69:81,1,97.50000371933,0|0,3:0|0:0,0:0:0:0:
136,45,27148,1,0,0:0:0:0:
214,96,27321,2,0,P|248:111|227:27,1,195.00000743866,0|0,3:0|3:0,0:0:0:0:
230,26,28700,6,0,L|210:77,1,48.750001859665,0|0,3:0|0:0,0:0:0:0:
129,112,29045,2,0,L|109:163,1,48.750001859665,0|0,0:0|0:0,0:0:0:0:
158,243,29390,6,0,B|128:321|128:321|198:302|249:322,2,195.00000743866,0|0|0,3:0|3:0|3:0,0:0:0:0:
158,243,31459,6,0,P|151:202|168:132,1,97.50000371933,0|0,3:0|0:0,0:0:0:0:
211,78,31976,1,0,0:0:0:0:
291,126,32148,6,0,B|363:116|363:116|342:95,1,97.50000371933,0|0,3:0|0:0,0:0:0:0:
286,28,32666,1,0,0:0:0:0:
211,78,32838,1,0,3:0:0:0:
211,78,33010,2,0,P|185:68|147:70,2,48.750001859665
165,165,33528,6,0,P|173:175|91:179,1,195.00000743866,0|0,3:0|3:0,0:0:0:0:
75,83,34389,2,0,B|170:59|174:61|172:58|176:60,1,97.4999970245362
191,72,34907,6,0,P|241:54|317:66,2,116.999996429443,8|8|8,0:0|0:0|0:0,0:0:0:0:
140,154,35769,1,0,0:0:0:0:
218,210,35941,2,0,P|262:216|301:203,1,58.4999982147217,8|0,0:0|0:0,0:0:0:0:
335,300,36285,6,0,P|364:297|392:303,2,58.4999982147217,8|0|8,0:0|0:0|0:0,0:0:0:0:
251,346,36804,1,0,0:0:0:0:
167,294,36976,2,0,P|120:299|41:261,1,116.999996429443,8|8,0:0|0:0,0:0:0:0:
23,178,37493,1,0,0:0:0:0:
114,130,37666,6,0,L|137:62,1,58.4999982147217,8|0,0:0|0:0,0:0:0:0:
242,69,38010,2,0,L|219:137,1,58.4999982147217,8|0,0:0|0:0,0:0:0:0:
287,223,38355,2,0,L|310:155,1,58.4999982147217,8|0,0:0|0:0,0:0:0:0:
401,129,38698,1,8,0:0:0:0:
401,129,38872,1,0,0:0:0:0:
451,252,39045,6,0,L|413:371,2,116.999996429443,8|8|8,0:0|0:0|0:0,0:0:0:0:
401,129,39906,2,0,L|425:54,2,58.4999982147217,0|8|0,0:0|0:0|0:0,0:0:0:0:
331,276,40423,5,8,0:0:0:0:
331,276,40596,1,8,0:0:0:0:
264,170,40768,1,8,0:0:0:0:
264,170,40940,1,8,0:0:0:0:
360,199,41113,1,8,0:0:0:0:
215,237,41285,2,0,P|188:211|181:164,2,65,8|8|8,0:0|0:0|0:0,0:0:0:0:
360,199,41804,5,8,0:0:0:0:
360,199,41976,1,8,0:0:0:0:
340,303,42147,2,0,L|274:335,1,65,8|8,0:0|0:0,0:0:0:0:
176,311,42493,1,8,0:0:0:0:
176,311,42665,2,0,L|110:279,2,65,8|8|8,0:0|0:0|0:0,0:0:0:0:
251,220,43183,6,0,L|303:150,1,65,8|8,0:0|0:0,0:0:0:0:
250,72,43527,2,0,L|198:142,1,65,8|8,0:0|0:0,0:0:0:0:
112,137,43872,1,8,0:0:0:0:
112,137,44044,2,0,L|73:84,2,65,8|8|8,0:0|0:0|0:0,0:0:0:0:
96,267,44562,5,8,0:0:0:0:
163,336,44735,1,8,0:0:0:0:
230,268,44907,1,8,0:0:0:0:
306,325,45079,1,8,0:0:0:0:
359,251,45252,2,0,B|351:154|426:198|423:93,1,170.625006508827,8|0,0:0|0:0,0:0:0:0:
375,45,45941,6,0,P|358:78|353:117,1,74.7500014257431,8|0,0:0|0:0,0:0:0:0:
252,194,46285,2,0,P|247:157|231:124,1,74.7500014257431,8|0,0:0|0:0,0:0:0:0:
120,62,46631,1,0,0:0:0:0:
120,62,46804,2,0,P|81:53|43:58,2,74.7500014257431,2|2|2,0:0|0:0|0:0,0:0:0:0:
231,124,47320,6,0,P|304:119|391:166,2,149.500002851486,8|8|0,0:0|0:0|0:0,0:0:0:0:
210,235,48183,1,2,0:0:0:0:
210,235,48355,2,0,P|155:246|117:233,1,74.7500014257431,2|2,0:0|0:0,0:0:0:0:
118,128,48700,6,0,L|135:29,1,74.7500014257431,8|0,0:0|0:0,0:0:0:0:
231,124,49045,2,0,L|220:35,2,74.7500014257431,8|0|0,0:0|0:0|0:0,0:0:0:0:
352,102,49562,1,2,0:0:0:0:
352,102,49735,2,0,P|390:97|423:113,1,74.7500014257431,2|2,0:0|0:0,0:0:0:0:
458,242,50079,5,0,0:0:0:0:
414,357,50252,1,8,0:0:0:0:
414,357,50424,2,0,P|359:321|343:238,1,149.500002851486,8|0,0:0|0:0,0:0:0:0:
276,141,50941,1,2,0:0:0:0:
276,141,51113,2,0,P|232:130|182:147,1,74.7500014257431,2|2,0:0|0:0,0:0:0:0:
71,174,51458,6,0,P|43:210|39:262,1,74.7500014257431,8|0,0:0|0:0,0:0:0:0:
94,345,51804,2,0,B|143:368|184:336|184:336|204:259,1,149.500002851486,8|0,0:0|0:0,0:0:0:0:
310,238,52321,2,0,L|287:325,2,74.7500014257431,2|2|2,0:0|0:0|0:0,0:0:0:0:
424,169,52838,6,0,L|450:78,1,74.7500014257431,8|0,0:0|0:0,0:0:0:0:
346,15,53183,2,0,L|326:87,1,74.7500014257431,8|0,0:0|0:0,0:0:0:0:
217,138,53528,1,0,0:0:0:0:
217,138,53700,2,0,L|121:149,2,74.7500014257431,2|2|2,0:0|0:0|0:0,0:0:0:0:
286,237,54217,6,0,B|439:270,2,149.500002851486,8|8|0,0:0|0:0|0:0,0:0:0:0:
187,291,55079,2,0,L|159:365,2,74.7500014257431,2|2|2,0:0|0:0|0:0,0:0:0:0:
177,179,55597,5,0,0:0:0:0:
177,179,55769,1,8,0:0:0:0:
238,81,55941,2,0,L|384:31,1,149.500002851486,8|0,0:0|0:0,0:0:0:0:
466,127,56459,1,8,0:0:0:0:
347,172,56631,2,0,L|231:212,1,112.125002138615,8|0,0:0|0:0,0:0:0:0:
177,179,56976,6,0,P|86:167|30:109,2,155.999995239258,8|8|0,0:0|0:0|0:0,0:0:0:0:
276,95,57838,1,2,0:0:0:0:
276,95,58010,2,0,P|280:42|248:-3,1,77.999997619629,2|2,0:0|0:0,0:0:0:0:
141,45,58354,6,0,P|99:33|40:44,1,77.999997619629,8|0,0:0|0:0,0:0:0:0:
28,151,58699,2,0,P|106:183|206:168,1,155.999995239258,8|0,0:0|0:0,0:0:0:0:
301,200,59217,2,0,P|293:241|271:274,2,77.999997619629,2|2|2,0:0|0:0|0:0,0:0:0:0:
422,164,59734,6,0,P|420:243|380:326,2,155.999995239258,8|8|0,0:0|0:0|0:0,0:0:0:0:
412,46,60597,2,0,P|468:50|502:37,2,77.999997619629,2|2|2,0:0|0:0|0:0,0:0:0:0:
279,25,61114,5,0,0:0:0:0:
177,69,61286,1,8,0:0:0:0:
177,69,61459,2,0,P|122:112|179:137,1,155.999995239258,8|0,0:0|0:0,0:0:0:0:
281,207,61976,2,0,P|325:192|377:207,2,77.999997619629,2|2|2,0:0|0:0|0:0,0:0:0:0:
212,330,62493,6,0,L|125:348,1,77.999997619629,8|0,0:0|0:0,0:0:0:0:
60,264,62838,2,0,L|6:104,1,155.999995239258,8|0,0:0|0:0,0:0:0:0:
129,91,63355,2,0,L|154:3,2,77.999997619629,2|2|2,0:0|0:0|0:0,0:0:0:0:
183,221,63872,6,0,P|240:226|288:207,1,77.999997619629,8|0,0:0|0:0,0:0:0:0:
360,147,64216,2,0,P|417:142|465:161,1,77.999997619629,8|0,0:0|0:0,0:0:0:0:
417,276,64562,1,0,0:0:0:0:
417,276,64735,2,0,L|431:379,2,77.999997619629,2|2|2,0:0|0:0|0:0,0:0:0:0:
360,147,65252,6,0,P|429:144|506:196,2,155.999995239258,8|8|0,0:0|0:0|0:0,0:0:0:0:
265,221,66114,2,0,P|223:219|165:194,2,77.999997619629,2|2|2,0:0|0:0|0:0,0:0:0:0:
379,284,66631,6,0,L|416:379,1,81.25,8|8,0:0|0:0,0:0:0:0:
479,255,66976,2,0,L|449:179,1,81.25,8|8,0:0|0:0,0:0:0:0:
334,139,67321,1,8,0:0:0:0:
265,221,67493,1,8,0:0:0:0:
184,94,67666,1,12,0:0:0:0:
174,77,68010,6,0,B|130:70|130:70|100:88|100:88|42:78,1,130,8|8,0:0|0:0,0:0:0:0:
23,185,68528,1,0,0:0:0:0:
97,270,68700,1,0,0:0:0:0:
97,270,68873,2,0,L|86:334,2,65,8|8|0,0:0|0:0|0:0,0:0:0:0:
208,227,69390,6,0,P|252:211|298:211,1,65,8|0,0:0|0:0,0:0:0:0:
355,273,69734,2,0,P|387:267|416:255,1,65,8|0,0:0|0:0,0:0:0:0:
460,158,70079,1,0,0:0:0:0:
460,158,70252,2,0,P|471:119|465:73,2,65,8|8|0,0:0|0:0|0:0,0:0:0:0:
352,108,70769,6,0,P|306:90|207:102,1,130,8|8,0:0|0:0,0:0:0:0:
147,168,71286,1,0,0:0:0:0:
85,88,71459,1,0,0:0:0:0:
85,88,71631,2,0,P|37:74|0:81,2,65,8|8|0,0:0|0:0|0:0,0:0:0:0:
147,168,72148,5,0,0:0:0:0:
121,283,72321,1,8,0:0:0:0:
121,283,72493,2,0,L|213:272,1,65,8|0,0:0|0:0,0:0:0:0:
288,233,72838,1,0,0:0:0:0:
247,127,73010,2,0,L|239:52,2,65,8|8|0,0:0|0:0|0:0,0:0:0:0:
364,158,73528,6,0,P|423:156|493:207,1,130,8|8,0:0|0:0,0:0:0:0:
475,310,74045,1,0,0:0:0:0:
475,310,74217,1,0,0:0:0:0:
368,342,74390,1,8,0:0:0:0:
368,342,74562,2,0,L|290:295,1,65,8|0,0:0|0:0,0:0:0:0:
203,325,74907,6,0,L|125:278,1,65,8|0,0:0|0:0,0:0:0:0:
152,186,75252,2,0,L|230:233,1,65,8|0,0:0|0:0,0:0:0:0:
294,154,75597,1,0,0:0:0:0:
294,154,75768,2,0,L|372:201,2,65,8|8|0,0:0|0:0|0:0,0:0:0:0:
198,93,76286,6,0,P|137:69|52:75,2,130,8|8|0,0:0|0:0|0:0,0:0:0:0:
224,194,77148,2,0,P|236:226|238:282,2,65,8|8|0,0:0|0:0|0:0,0:0:0:0:
124,245,77666,5,0,0:0:0:0:
124,245,77838,2,0,L|54:197,1,65,8|8,0:0|0:0,0:0:0:0:
153,148,78183,2,0,B|147:73|147:73|172:12,1,130,0|8,0:0|0:0,0:0:0:0:
279,32,78700,1,8,0:0:0:0:
294,50,79045,6,0,P|356:52|395:71,2,97.50000371933,8|8|8,0:0|0:0|0:0,0:0:0:0:
211,87,79907,2,0,P|192:89|148:77,2,48.750001859665,0|8|0,0:0|0:0|0:0,0:0:0:0:
257,166,80424,6,0,B|322:179|322:179|356:212,1,97.50000371933,8|8,0:0|0:0,0:0:0:0:
400,89,81114,2,0,L|354:43,1,48.750001859665,8|0,0:0|0:0,0:0:0:0:
442,16,81459,2,0,L|476:50,1,48.750001859665,8|0,0:0|0:0,0:0:0:0:
476,149,81804,6,0,L|461:260,2,97.50000371933,8|8|8,0:0|0:0|0:0,0:0:0:0:
478,56,82666,1,0,0:0:0:0:
478,56,82838,2,0,P|448:46|424:21,1,48.750001859665,8|0,0:0|0:0,0:0:0:0:
352,78,83183,6,0,P|298:73|246:95,1,97.50000371933,8|8,0:0|0:0,0:0:0:0:
103,181,83872,1,8,0:0:0:0:
103,181,84045,2,0,P|97:149|100:115,2,48.750001859665,0|8|0,0:0|0:0|0:0,0:0:0:0:
118,278,84562,6,0,L|210:303,1,65,8|8,0:0|0:0,0:0:0:0:
266,352,84907,2,0,L|358:327,1,65,8|8,0:0|0:0,0:0:0:0:
386,242,85252,1,8,0:0:0:0:
386,242,85424,1,8,0:0:0:0:
482,299,85597,1,8,0:0:0:0:
482,299,85769,1,8,0:0:0:0:
471,188,85941,6,0,L|455:107,2,65,8|8|8,0:0|0:0|0:0,0:0:0:0:
386,242,86459,1,8,0:0:0:0:
315,182,86631,1,8,0:0:0:0:
315,182,86804,2,0,L|278:107,2,65,8|8|8,0:0|0:0|0:0,0:0:0:0:
235,253,87321,6,0,P|191:258|152:244,1,71.5000021820069,8|8,0:0|0:0,0:0:0:0:
75,164,87666,2,0,P|119:159|158:173,1,71.5000021820069,8|8,0:0|0:0,0:0:0:0:
189,68,88010,1,8,0:0:0:0:
276,112,88183,1,8,0:0:0:0:
348,45,88355,1,8,0:0:0:0:
425,94,88528,1,8,0:0:0:0:
477,26,88700,6,0,L|460:166,1,130,0|0,0:0|0:0,0:0:0:0:
