osu file format v14

[General]
AudioFilename: audio.mp3
AudioLeadIn: 0
PreviewTime: 45940
Countdown: 0
SampleSet: Normal
StackLeniency: 0.7
Mode: 0
LetterboxInBreaks: 0
WidescreenStoryboard: 0

[Editor]
Bookmarks: 99377,104894,106963
DistanceSpacing: 1.1
BeatDivisor: 4
GridSize: 8
TimelineZoom: 1.2

[Metadata]
Title:Ghost
TitleUnicode:Ghost
Artist:Delta Heavy
ArtistUnicode:Delta Heavy
Creator:MashaSG
Version:Shadren's Easy
Source:
Tags:paradise lost dnb drum'n'bass drum and bass clippy midtempo electro house electronica cutted version DELTΔ HEΔVY Danii Shadren Slayed
BeatmapID:1209849
BeatmapSetID:558303

[Difficulty]
HPDrainRate:2
CircleSize:2.7
OverallDifficulty:2
ApproachRate:3
SliderMultiplier:0.75
SliderTickRate:1

[Events]
//Background and Video events
0,0,"Clippy4Ever.jpg",0,0
//Break Periods
//Storyboard Layer 0 (Background)
//Storyboard Layer 1 (Fail)
//Storyboard Layer 2 (Pass)
//Storyboard Layer 3 (Foreground)
//Storyboard Sound Samples

[TimingPoints]
23872,344.827586206897,4,2,11,30,1,0
34906,-100,4,2,1,30,0,0
45940,-100,4,1,1,60,0,1
56889,-100,4,1,1,60,0,0
56975,-100,4,1,1,60,0,1
66630,-100,4,2,1,30,0,1
67665,-100,4,2,1,50,0,1
68009,-100,4,1,1,70,0,0
79044,-100,4,2,1,25,0,0
84561,-100,4,2,1,35,0,0
88699,-100,4,2,1,5,0,0

[Colours]
Combo1 : 0,255,255
Combo2 : 0,64,128
Combo3 : 255,255,128

[HitObjects]
53,104,23871,6,0,P|122:79|202:76,1,150,0|0,3:0|3:0,0:0:0:0:
339,160,25251,2,0,B|344:210|344:210|331:311,1,150,0|0,3:0|3:0,0:0:0:0:
189,224,26630,6,0,B|184:174|184:174|197:73,1,150,0|0,3:0|3:0,0:0:0:0:
358,39,28009,2,0,P|375:111|372:192,1,150,0|0,3:0|3:0,0:0:0:0:
233,279,29389,6,0,B|210:288|156:277|156:277|102:259|66:274,1,150,0|0,3:0|3:0,0:0:0:0:
154,118,30768,2,0,B|210:109|210:109|317:119,1,150,0|0,3:0|3:0,0:0:0:0:
334,279,32147,6,0,L|488:265,1,150,0|0,3:0|3:0,0:0:0:0:
389,129,33527,2,0,L|235:115,1,150,0|0,3:0|3:0,0:0:0:0:
74,116,34906,6,0,P|66:192|71:275,1,150,8|8,0:0|0:0,0:0:0:0:
139,309,35940,1,8,0:0:0:0:
215,276,36285,2,0,L|290:269,1,75,8|8,0:0|0:0,0:0:0:0:
367,297,36975,2,0,L|447:303,1,75,8|8,0:0|0:0,0:0:0:0:
501,245,37665,6,0,B|499:169|495:89|495:90,1,150,8|8,0:0|0:0,0:0:0:0:
423,54,38699,1,8,0:0:0:0:
340,45,39044,2,0,P|299:53|257:69,1,75,8|8,0:0|0:0,0:0:0:0:
192,98,39734,2,0,P|149:97|109:90,1,75,8|8,0:0|0:0,0:0:0:0:
256,192,40423,12,8,44561,0:0:0:0:
47,81,45940,6,0,P|121:60|203:63,1,150,8|0,0:0|0:0,0:0:0:0:
268,96,46975,1,2,0:0:0:0:
325,154,47320,2,0,B|331:204|331:204|319:309,1,150,8|0,0:0|0:0,0:0:0:0:
239,322,48354,1,2,0:0:0:0:
161,294,48699,6,0,L|68:301,2,75,8|8|0,0:0|0:0|0:0,0:0:0:0:
217,233,49734,1,2,0:0:0:0:
279,180,50078,2,0,P|314:188|359:206,1,75,0|8,0:0|0:0,0:0:0:0:
432,187,50768,2,0,P|442:151|461:111,1,75,0|2,0:0|0:0,0:0:0:0:
411,48,51458,6,0,B|357:39|357:39|248:47,2,150,8|0|8,0:0|0:0|0:0,0:0:0:0:
464,113,53182,1,8,0:0:0:0:
412,177,53527,2,0,P|405:217|402:261,1,75,0|2,0:0|0:0,0:0:0:0:
339,305,54216,6,0,P|266:293|160:299,1,150,8|0,0:0|0:0,0:0:0:0:
116,257,55251,2,0,L|109:173,1,75,2|0,0:0|0:0,0:0:0:0:
171,127,55940,2,0,L|175:44,1,75,8|0,0:0|0:0,0:0:0:0:
253,26,56630,1,8,0:0:0:0:
319,74,56975,6,0,P|392:72|475:62,1,150,8|0,0:0|0:0,0:0:0:0:
507,135,58009,1,2,0:0:0:0:
461,203,58354,2,0,P|455:243|454:282,1,75,8|8,0:0|0:0,0:0:0:0:
376,306,59044,2,0,P|338:297|294:291,1,75,0|2,0:0|0:0,0:0:0:0:
225,323,59734,6,0,B|184:328|184:328|110:321|110:321|54:325,2,150,8|0|0,0:0|0:0|0:0,0:0:0:0:
239,241,61458,1,8,0:0:0:0:
298,183,61803,2,0,P|335:185|376:192,1,75,0|2,0:0|0:0,0:0:0:0:
444,151,62492,6,0,P|447:111|457:70,2,75,8|8|0,0:0|0:0|0:0,0:0:0:0:
458,232,63527,1,2,0:0:0:0:
418,304,63872,2,0,B|373:312|373:312|233:295,1,150,8|0,0:0|0:0,0:0:0:0:
188,281,64906,1,2,0:0:0:0:
144,210,65251,6,0,L|150:128,1,75,8|8,0:0|0:0,0:0:0:0:
231,132,65940,2,0,L|225:206,1,75,0|2,0:0|0:0,0:0:0:0:
308,202,66630,2,0,L|314:120,1,75,8|8,0:0|0:0,0:0:0:0:
396,126,67320,2,0,L|390:208,1,75,8|8,0:0|0:0,0:0:0:0:
353,274,68009,6,0,B|336:312|342:350|342:350|310:329|255:331,1,150,8|0,0:0|0:0,0:0:0:0:
190,338,69044,1,8,0:0:0:0:
133,278,69389,2,0,P|94:272|57:270,1,75,8|8,0:0|0:0,0:0:0:0:
20,196,70078,2,0,P|32:161|43:121,1,75,0|8,0:0|0:0,0:0:0:0:
112,80,70768,6,0,P|186:84|262:94,2,150,8|0|0,0:0|0:0|0:0,0:0:0:0:
42,124,72492,1,8,0:0:0:0:
58,204,72837,2,0,P|64:243|66:280,1,75,0|8,0:0|0:0,0:0:0:0:
122,339,73527,6,0,P|197:322|276:316,1,150,8|0,0:0|0:0,0:0:0:0:
350,330,74561,1,8,0:0:0:0:
414,278,74906,2,0,L|491:284,1,75,8|8,0:0|0:0,0:0:0:0:
507,203,75596,2,0,L|432:197,1,75,0|8,0:0|0:0,0:0:0:0:
363,150,76285,6,0,B|319:147|319:147|250:155|250:155|179:151,2,150,8|0|0,0:0|0:0|0:0,0:0:0:0:
432,197,78009,1,8,0:0:0:0:
378,260,78354,2,0,P|372:300|372:336,1,75,0|8,0:0|0:0,0:0:0:0:
292,357,79044,6,0,P|215:345|134:345,1,150,8|8,0:0|0:0,0:0:0:0:
61,357,80078,1,8,0:0:0:0:
22,284,80423,2,0,L|28:209,1,75,8|8,0:0|0:0,0:0:0:0:
88,153,81113,2,0,L|84:76,1,75,8|8,0:0|0:0,0:0:0:0:
158,42,81803,6,0,B|210:36|210:36|317:46,1,150,8|8,0:0|0:0,0:0:0:0:
383,77,82837,1,8,0:0:0:0:
448,127,83182,2,0,L|452:213,1,75,8|8,0:0|0:0,0:0:0:0:
396,263,83872,2,0,L|390:338,1,75,8|8,0:0|0:0,0:0:0:0:
256,192,84561,12,0,88699,0:0:0:0:
