osu file format v14

[General]
AudioFilename: audio.mp3
AudioLeadIn: 0
PreviewTime: 45940
Countdown: 0
SampleSet: Normal
StackLeniency: 0.7
Mode: 0
LetterboxInBreaks: 0
WidescreenStoryboard: 0

[Editor]
Bookmarks: 42320,99377,104894,106963
DistanceSpacing: 1.4
BeatDivisor: 4
GridSize: 4
TimelineZoom: 1.6

[Metadata]
Title:Ghost
TitleUnicode:Ghost
Artist:Delta Heavy
ArtistUnicode:Delta Heavy
Creator:MashaSG
Version:Normal
Source:
Tags:paradise lost dnb drum'n'bass drum and bass clippy midtempo electro house electronica cutted version DELTΔ HEΔVY Danii Shadren Slayed
BeatmapID:1210896
BeatmapSetID:558303

[Difficulty]
HPDrainRate:4
CircleSize:3.5
OverallDifficulty:4
ApproachRate:5
SliderMultiplier:1
SliderTickRate:1

[Events]
//Background and Video events
0,0,"Clippy4Ever.jpg",0,0
//Break Periods
//Storyboard Layer 0 (Background)
//Storyboard Layer 1 (Fail)
//Storyboard Layer 2 (Pass)
//Storyboard Layer 3 (Foreground)
//Storyboard Sound Samples

[TimingPoints]
23872,344.827586206897,4,2,11,30,1,0
34907,-100,4,2,1,30,0,0
45251,-100,4,2,1,10,0,0
45940,-100,4,1,1,60,0,1
56889,-100,4,1,1,60,0,0
56975,-100,4,1,1,60,0,1
66630,-100,4,2,1,30,0,1
67665,-100,4,2,1,50,0,1
68009,-100,4,1,1,70,0,0
79044,-100,4,2,1,25,0,0
84561,-100,4,2,1,35,0,0
88699,-100,4,2,1,5,0,0

[Colours]
Combo1 : 0,255,255
Combo2 : 0,64,128
Combo3 : 255,255,128

[HitObjects]
201,62,23871,6,0,P|101:58|-10:61,2,200,0|0|0,3:0|3:0|3:0,0:0:0:0:
413,173,25940,2,0,L|304:185,1,100,0|0,3:0|0:0,0:0:0:0:
235,275,26630,6,0,L|344:287,1,100,0|0,3:0|0:0,0:0:0:0:
450,255,27320,2,0,P|502:175|449:90,1,200,0|0,3:0|3:0,0:0:0:0:
241,149,28699,2,0,P|259:217|282:251,1,100
225,340,29389,6,0,P|125:342|25:338,2,200,0|0|0,3:0|3:0|3:0,0:0:0:0:
463,312,31458,2,0,L|448:202,1,100,0|0,3:0|0:0,0:0:0:0:
359,133,32147,6,0,L|345:232,1,100,0|0,3:0|0:0,0:0:0:0:
256,312,32837,2,0,L|241:202,1,100,0|0,3:0|0:0,0:0:0:0:
152,133,33527,2,0,L|121:333,1,200,0|0,3:0|3:0,0:0:0:0:
356,279,34906,6,0,P|426:286|464:271,1,100,8|8,0:0|0:0,0:0:0:0:
402,167,35596,2,0,P|332:160|294:175,1,100,8|8,0:0|0:0,0:0:0:0:
227,260,36285,1,8,0:0:0:0:
125,195,36630,1,8,0:0:0:0:
205,106,36975,2,0,L|326:83,1,100,8|8,0:0|0:0,0:0:0:0:
306,207,37665,6,0,L|404:225,1,100,8|8,0:0|0:0,0:0:0:0:
352,333,38354,2,0,P|299:348|247:324,1,100,8|8,0:0|0:0,0:0:0:0:
209,223,39044,2,0,P|162:208|115:223,1,100,8|8,0:0|0:0,0:0:0:0:
12,286,39734,2,0,L|0:180,1,100,8|8,0:0|0:0,0:0:0:0:
4,66,40423,6,0,B|54:56|54:56|110:67,1,100,8|8,0:0|0:0,0:0:0:0:
102,185,41113,2,0,B|150:194|150:194|200:184,1,100,8|8,0:0|0:0,0:0:0:0:
203,66,41803,2,0,B|253:56|253:56|309:67,1,100,8|8,0:0|0:0,0:0:0:0:
306,185,42492,2,0,B|354:194|354:194|404:184,1,100,8|8,0:0|0:0,0:0:0:0:
417,61,43182,6,0,L|446:14,2,50,8|8|8,0:0|0:0|0:0,0:0:0:0:
307,109,43872,2,0,L|257:104,2,50,8|8|8,0:0|0:0|0:0,0:0:0:0:
404,183,44562,2,0,L|425:227,2,50,8|8|8,0:0|0:0|0:0,0:0:0:0:
417,61,45251,1,8,0:0:0:0:
130,117,45940,6,0,P|126:58|135:-3,2,100,8|8|0,0:0|0:0|0:0,0:0:0:0:
123,187,46803,2,0,L|172:181,1,50,2|2,0:0|0:0,0:0:0:0:
296,247,47320,2,0,L|349:253,1,50,8|0,0:0|0:0,0:0:0:0:
415,256,47665,2,0,P|413:215|457:154,1,100,8|0,0:0|0:0,0:0:0:0:
507,140,48182,2,0,L|510:86,2,50,2|2|2,0:0|0:0|0:0,0:0:0:0:
506,210,48699,5,8,0:0:0:0:
442,334,49044,2,0,P|401:336|340:292,1,100,8|0,0:0|0:0,0:0:0:0:
282,291,49561,2,0,L|230:305,2,50,2|2|2,0:0|0:0|0:0,0:0:0:0:
415,256,50251,1,8,0:0:0:0:
415,256,50423,2,0,P|419:189|396:153,1,100,8|0,0:0|0:0,0:0:0:0:
360,106,50940,2,0,L|299:95,1,50,2|2,0:0|0:0,0:0:0:0:
175,135,51458,6,0,L|76:153,2,100,8|8|0,0:0|0:0|0:0,0:0:0:0:
230,92,52320,2,0,L|219:28,2,50,2|2|2,0:0|0:0|0:0,0:0:0:0:
261,155,52837,1,8,0:0:0:0:
222,289,53182,2,0,B|171:302|171:302|123:288,1,100,8|0,0:0|0:0,0:0:0:0:
60,263,53699,2,0,L|71:209,1,50,2|2,0:0|0:0,0:0:0:0:
105,92,54216,6,0,L|159:103,1,50,8|0,0:0|0:0,0:0:0:0:
222,115,54561,2,0,B|273:128|273:128|321:114,1,100,8|0,0:0|0:0,0:0:0:0:
368,64,55078,2,0,L|352:7,2,50,2|2|2,0:0|0:0|0:0,0:0:0:0:
366,204,55768,1,8,0:0:0:0:
366,204,55940,2,0,P|318:216|262:199,1,100,8|0,0:0|0:0,0:0:0:0:
214,160,56458,2,0,L|214:275,1,100,8|0,0:0|0:0,0:0:0:0:
250,320,56975,6,0,B|290:333|290:333|368:310,2,100,8|8|0,0:0|0:0|0:0,0:0:0:0:
214,260,57837,2,0,L|221:208,1,50,2|2,0:0|0:0,0:0:0:0:
318,114,58354,2,0,L|311:62,1,50,8|0,0:0|0:0,0:0:0:0:
249,30,58699,2,0,P|195:17|139:40,1,100,8|0,0:0|0:0,0:0:0:0:
98,72,59216,2,0,L|42:52,2,50,2|2|2,0:0|0:0|0:0,0:0:0:0:
150,118,59734,5,8,0:0:0:0:
271,186,60078,2,0,P|325:199|381:176,1,100,8|0,0:0|0:0,0:0:0:0:
436,182,60596,2,0,L|435:246,2,50,2|2|2,0:0|0:0|0:0,0:0:0:0:
424,42,61285,1,8,0:0:0:0:
424,42,61458,2,0,L|320:48,1,100,8|0,0:0|0:0,0:0:0:0:
285,106,61975,2,0,L|235:104,1,50,2|2,0:0|0:0,0:0:0:0:
100,55,62492,6,0,B|51:46|51:46|-6:52,2,100,8|8|0,0:0|0:0|0:0,0:0:0:0:
144,109,63354,2,0,L|193:107,1,50,2|2,0:0|0:0,0:0:0:0:
328,35,63872,2,0,L|377:36,1,50,8|0,0:0|0:0,0:0:0:0:
439,69,64216,2,0,P|441:107|405:169,1,100,8|0,0:0|0:0,0:0:0:0:
361,208,64734,2,0,L|379:256,2,50,2|2|2,0:0|0:0|0:0,0:0:0:0:
302,168,65251,6,0,L|199:164,2,100,8|8|0,0:0|0:0|0:0,0:0:0:0:
353,136,66113,2,0,L|370:89,1,50,2|2,0:0|0:0,0:0:0:0:
248,20,66630,6,0,L|193:1,1,50,8|8,0:0|0:0,0:0:0:0:
161,61,66975,2,0,L|104:70,1,50,8|8,0:0|0:0,0:0:0:0:
105,139,67320,2,0,L|61:176,1,50,8|8,0:0|0:0,0:0:0:0:
90,238,67665,1,12,0:0:0:0:
191,301,68009,6,0,B|240:298|240:298|285:272,1,100,8|8,0:0|0:0,0:0:0:0:
238,162,68699,2,0,B|188:164|188:164|143:190,1,100,0|8,0:0|0:0,0:0:0:0:
106,303,69389,1,8,0:0:0:0:
5,238,69734,1,8,0:0:0:0:
71,138,70078,2,0,L|56:74,2,50,0|8|8,0:0|0:0|0:0,0:0:0:0:
146,232,70768,6,0,L|194:261,1,50,8|0,0:0|0:0,0:0:0:0:
218,205,71113,2,0,L|274:206,1,50,8|0,0:0|0:0,0:0:0:0:
268,146,71458,2,0,L|359:98,1,100,0|8,0:0|0:0,0:0:0:0:
463,44,72147,2,0,L|517:53,2,50,0|8|8,0:0|0:0|0:0,0:0:0:0:
349,4,72837,2,0,L|301:34,1,50,0|8,0:0|0:0,0:0:0:0:
344,80,73182,2,0,L|318:129,1,50,8|0,0:0|0:0,0:0:0:0:
376,151,73527,6,0,L|380:252,1,100,8|8,0:0|0:0,0:0:0:0:
381,373,74216,2,0,P|431:370|475:347,1,100,0|8,0:0|0:0,0:0:0:0:
474,228,74906,2,0,P|424:229|379:251,1,100,8|8,0:0|0:0,0:0:0:0:
295,336,75596,2,0,L|301:231,1,100,0|8,0:0|0:0,0:0:0:0:
195,179,76285,6,0,L|200:278,1,100,8|8,0:0|0:0,0:0:0:0:
96,335,76975,2,0,L|101:236,1,100,0|8,0:0|0:0,0:0:0:0:
3,164,77665,2,0,P|40:130|109:116,1,100,0|8,0:0|0:0,0:0:0:0:
134,155,78182,2,0,L|187:140,1,50,0|0,0:0|0:0,0:0:0:0:
207,86,78527,1,8,0:0:0:0:
207,86,78699,2,0,L|255:72,1,50,8|0,0:0|0:0,0:0:0:0:
310,95,79044,6,0,L|406:122,1,100,8|8,0:0|0:0,0:0:0:0:
487,211,79734,2,0,L|390:238,1,100,8|8,0:0|0:0,0:0:0:0:
298,315,80423,1,8,0:0:0:0:
191,260,80768,1,8,0:0:0:0:
210,141,81113,2,0,P|275:114|316:118,1,100,8|8,0:0|0:0,0:0:0:0:
285,236,81803,6,0,P|219:262|178:258,1,100,8|8,0:0|0:0,0:0:0:0:
77,223,82492,2,0,P|70:275|92:327,2,100,8|8|8,0:0|0:0|0:0,0:0:0:0:
141,121,83527,1,8,0:0:0:0:
260,132,83872,2,0,L|261:189,1,50,8|0,0:0|0:0,0:0:0:0:
319,167,84216,2,0,L|347:216,1,50,8|0,0:0|0:0,0:0:0:0:
399,235,84561,6,0,L|431:289,2,50,8|8|8,0:0|0:0|0:0,0:0:0:0:
386,116,85251,2,0,L|440:83,2,50,8|8|8,0:0|0:0|0:0,0:0:0:0:
265,119,85940,2,0,L|232:64,2,50,8|8|8,0:0|0:0|0:0,0:0:0:0:
278,238,86630,2,0,L|223:270,2,50,8|8|8,0:0|0:0|0:0,0:0:0:0:
256,192,87320,12,0,88699,0:0:0:0:
