osu file format v14

[General]
AudioFilename: audio.mp3
AudioLeadIn: 0
PreviewTime: 34654
Countdown: 0
SampleSet: Soft
StackLeniency: 0.4
Mode: 0
LetterboxInBreaks: 0
WidescreenStoryboard: 1

[Editor]
DistanceSpacing: 0.5
BeatDivisor: 4
GridSize: 4
TimelineZoom: 1.8

[Metadata]
Title:Higher Ground (feat. Cammie Robinson) (Cut Ver.)
TitleUnicode:Higher Ground (feat. Cammie Robinson) (Cut Ver.)
Artist:Delta Heavy & MUZZ
ArtistUnicode:Delta Heavy & MUZZ
Creator:Tycani
Version:Hard
Source:
Tags:electronic english drum and bass dnb birbsmb my_angel_rushia
BeatmapID:2952192
BeatmapSetID:1434419

[Difficulty]
HPDrainRate:5
CircleSize:4
OverallDifficulty:6
ApproachRate:8
SliderMultiplier:1.3
SliderTickRate:1

[Events]
//Background and Video events
0,0,"1002602.jpg",0,0
//Break Periods
2,3635,11942
//Storyboard Layer 0 (Background)
//Storyboard Layer 1 (Fail)
//Storyboard Layer 2 (Pass)
//Storyboard Layer 3 (Foreground)
//Storyboard Layer 4 (Overlay)
//Storyboard Sound Samples

[TimingPoints]
2750,342.857142857143,4,2,1,80,1,0
2750,-200,4,2,1,80,0,0
3521,-200,4,2,1,30,0,0
12350,-133.333333333333,4,2,1,60,0,0
13721,-200,4,2,1,65,0,0
35664,-133.333333333333,4,2,1,70,0,0
46635,-100,4,2,1,70,0,0
49378,-100,4,2,1,75,0,0
52121,-100,4,2,1,80,0,0
54864,-86.9565217391304,4,2,1,85,0,0
56235,-100,4,2,1,75,0,0
57607,-80,4,2,1,90,0,1
79550,-80,4,2,1,85,0,0
99178,-80,4,2,1,5,0,0
99264,-80,4,2,1,85,0,0
99692,-80,4,2,1,5,0,0
99778,-80,4,2,1,85,0,0
101492,-80,4,2,1,75,0,0
102178,-80,4,2,1,65,0,0
102864,-80,4,2,1,55,0,0
103550,-80,4,2,1,45,0,0
104235,-80,4,2,1,35,0,0
104921,-80,4,2,1,25,0,0
106292,-80,4,2,1,15,0,0

[Colours]
Combo1 : 216,235,148
Combo2 : 255,255,128
Combo3 : 250,201,5

[HitObjects]
62,98,2750,6,0,L|191:68,1,130,0|8,1:0|0:0,0:0:0:0:
77,59,12692,6,0,L|91:116,1,48.750001859665,8|8,3:0|3:0,0:0:0:0:
137,165,13035,1,8,0:0:0:0:
61,277,13378,2,0,L|49:333,1,48.750001859665,0|0,1:0|1:0,0:0:0:0:
114,368,13721,6,0,L|187:343,2,65,6|2|2,1:2|0:0|0:0,0:0:0:0:
224,215,15092,1,0,0:0:0:0:
302,331,15435,2,0,L|378:351,1,65,2|2,0:0|0:0,0:0:0:0:
431,305,15950,1,2,0:0:0:0:
393,239,16121,1,2,0:0:0:0:
463,152,16464,6,0,B|479:103|479:103|459:57,2,97.5,2|2|2,0:0|0:0|0:0,0:0:0:0:
357,108,17835,1,0,0:0:0:0:
357,108,18350,1,0,0:0:0:0:
357,108,18864,2,0,L|321:118,1,32.5,2|2,0:0|0:0,0:0:0:0:
263,166,19207,6,0,P|240:147|203:137,2,65,6|2|2,1:2|0:0|0:0,0:0:0:0:
160,36,20578,1,0,0:0:0:0:
72,148,20921,2,0,L|88:222,2,65,2|2|2,0:0|0:0|0:0,0:0:0:0:
181,172,21950,6,0,B|218:136|218:136|268:146,2,97.5,2|2|2,0:0|0:0|0:0,0:0:0:0:
151,264,23321,1,0,0:0:0:0:
151,264,23835,1,0,0:0:0:0:
151,264,24350,2,0,L|194:278,1,32.5,2|2,3:2|3:2,0:0:0:0:
243,334,24692,6,0,L|170:357,2,65,6|2|2,1:2|0:0|0:0,0:0:0:0:
370,225,26064,1,0,0:0:0:0:
460,329,26407,2,0,L|474:261,1,65,2|2,0:0|0:0,0:0:0:0:
493,190,26921,1,2,0:0:0:0:
493,190,27092,1,2,0:0:0:0:
405,95,27435,6,0,B|442:79|442:79|460:80|460:80|505:61,2,97.5,6|2|2,1:2|0:0|0:0,0:0:0:0:
306,28,28807,1,0,0:0:0:0:
306,28,29321,1,0,0:0:0:0:
306,28,29835,2,0,L|265:41,1,32.5,0|2,0:0|0:0,0:0:0:0:
212,91,30178,6,0,L|145:76,1,65,4|2,1:2|0:0,0:0:0:0:
92,23,30692,2,0,L|25:38,2,65,2|2|2,0:0|0:0|0:0,0:0:0:0:
148,76,31550,2,0,P|156:110|144:148,1,65,0|2,0:0|0:0,0:0:0:0:
90,189,32064,2,0,B|60:176|60:176|21:185,2,65,2|2|2,0:0|0:0|0:0,0:0:0:0:
141,251,32921,5,4,1:2:0:0:
141,251,33435,2,0,L|127:323,2,65
201,195,34292,1,0,0:0:0:0:
107,104,34635,6,0,L|122:29,1,65,2|2,0:0|0:0,0:0:0:0:
191,82,35150,2,0,L|235:68,1,32.5,8|8,3:0|3:0,0:0:0:0:
288,115,35492,1,0,1:0:0:0:
354,56,35664,6,0,L|451:81,1,97.50000371933,6|0,1:2|0:0,0:0:0:0:
385,154,36178,2,0,L|456:224,1,97.50000371933,2|0,0:0|0:0,0:0:0:0:
357,254,36692,2,0,L|383:350,2,97.50000371933,2|0|0,0:0|0:0|0:0,0:0:0:0:
255,352,37721,2,0,P|223:327|160:332,1,97.50000371933,2|2,0:0|0:0,0:0:0:0:
44,384,38407,6,0,L|71:284,1,97.50000371933,2|0,0:0|0:0,0:0:0:0:
118,222,38921,2,0,L|91:122,1,97.50000371933,2|0,0:0|0:0,0:0:0:0:
35,67,39435,2,0,L|51:9,1,48.750001859665,2|0,0:0|0:0,0:0:0:0:
120,55,39778,6,0,L|226:32,1,97.50000371933
336,0,40464,2,0,L|442:23,1,97.50000371933
364,126,41150,5,0,1:0:0:0:
364,126,41321,2,0,P|380:155|385:177,1,48.750001859665,2|0,0:0|0:0,0:0:0:0:
430,230,41664,2,0,P|414:259|409:281,1,48.750001859665,2|0,0:0|0:0,0:0:0:0:
369,340,42007,2,0,P|340:324|318:319,1,48.750001859665,2|0,0:0|0:0,0:0:0:0:
265,360,42350,6,0,P|279:320|264:262,1,97.50000371933,2|2,0:0|0:0,0:0:0:0:
222,203,42864,1,0,0:0:0:0:
222,203,43035,2,0,L|245:99,1,97.50000371933,2|0,0:0|0:0,0:0:0:0:
296,51,43550,1,2,0:0:0:0:
104,36,43892,6,0,L|124:138,1,97.50000371933,2|0,0:0|0:0,0:0:0:0:
34,118,44407,2,0,L|14:220,1,97.50000371933,2|0,0:0|0:0,0:0:0:0:
72,271,44921,1,2,0:0:0:0:
31,341,45092,1,4,3:0:0:0:
31,341,45264,6,0,L|85:358,2,48.750001859665,8|8|4,3:0|3:0|3:0,0:0:0:0:
83,261,45778,2,0,L|191:240,1,97.50000371933,2|8,3:0|0:0,0:0:0:0:
247,292,46292,1,8,0:0:0:0:
313,240,46464,1,8,0:0:0:0:
285,161,46635,6,0,L|263:29,2,130,4|8|0,1:2|0:0|0:0,0:0:0:0:
313,240,47492,1,0,1:0:0:0:
387,192,47664,2,0,L|456:178,1,65,8|0,0:0|0:0,0:0:0:0:
502,246,48007,6,0,P|502:295|436:328,2,130,0|8|0,1:0|0:0|0:0,0:0:0:0:
450,179,48864,1,0,1:0:0:0:
492,106,49035,2,0,L|504:35,1,65,8|0,0:0|0:0,0:0:0:0:
423,6,49378,6,0,B|370:20|370:20|354:38|354:38|302:55,2,130,0|8|0,1:0|0:0|0:0,0:0:0:0:
502,41,50235,1,0,1:0:0:0:
441,100,50407,2,0,L|426:168,1,65,8|0,0:0|0:0,0:0:0:0:
372,230,50750,6,0,P|433:196|507:206,2,130,0|8|0,1:0|0:0|0:0,0:0:0:0:
311,289,51607,1,0,1:0:0:0:
243,229,51778,2,0,L|171:217,1,65,8|0,0:0|0:0,0:0:0:0:
106,281,52121,6,0,L|75:133,1,130,0|0,1:0|1:0,0:0:0:0:
220,72,52807,2,0,L|189:220,1,130,0|0,1:0|1:0,0:0:0:0:
47,57,53492,5,0,1:0:0:0:
147,23,53835,1,0,1:0:0:0:
242,68,54178,1,0,1:0:0:0:
340,32,54521,1,0,1:0:0:0:
233,81,54864,6,0,L|212:162,1,74.7500014257431,0|0,1:0|1:0,0:0:0:0:
156,208,55207,2,0,L|177:289,1,74.7500014257431,0|0,1:0|1:0,0:0:0:0:
247,335,55550,1,0,1:0:0:0:
247,335,55721,1,0,1:0:0:0:
315,274,55892,1,0,1:0:0:0:
391,324,56064,1,0,1:0:0:0:
309,193,56407,6,0,L|331:123,2,65,0|8|8,1:0|3:0|3:0,0:0:0:0:
228,237,56921,1,8,0:0:0:0:
177,181,57092,2,0,L|156:107,2,65,4|4|0,3:0|3:0|1:0,0:0:0:0:
126,256,57607,6,0,L|105:345,1,81.25,6|2,1:2|0:0,0:0:0:0:
25,374,57950,1,10,0:0:0:0:
117,342,58121,2,0,B|180:334|180:334|211:349|211:349|284:340,1,162.5,2|2,0:0|1:2,0:0:0:0:
347,275,58635,1,10,0:0:0:0:
416,347,58807,6,0,L|457:175,1,162.5,2|0,0:0|0:0,0:0:0:0:
504,101,59321,2,0,L|485:19,1,81.25,10|0,0:0|0:0,0:0:0:0:
408,90,59664,2,0,L|350:28,1,81.25,2|0,0:0|1:0,0:0:0:0:
320,118,60007,2,0,L|239:93,1,81.25,10|0,0:0|0:0,0:0:0:0:
258,188,60350,6,0,L|170:211,1,81.25,2|2,1:2|0:0,0:0:0:0:
105,276,60692,1,10,0:0:0:0:
23,228,60864,2,0,B|13:127|13:127|55:79,1,162.5,2|2,0:0|1:2,0:0:0:0:
123,24,61378,1,10,0:0:0:0:
193,83,61550,6,0,L|356:115,1,162.5,2|0,0:0|0:0,0:0:0:0:
431,62,62064,2,0,L|457:143,1,81.25,10|0,0:0|0:0,0:0:0:0:
503,216,62407,2,0,L|477:297,1,81.25,2|0,0:0|1:0,0:0:0:0:
422,359,62750,1,10,0:0:0:0:
422,359,63092,6,0,L|334:338,1,81.25,2|2,1:2|0:0,0:0:0:0:
261,284,63435,1,10,0:0:0:0:
190,352,63607,2,0,B|97:329|148:302|35:272,1,162.5,2|2,0:0|1:2,0:0:0:0:
85,188,64121,1,10,0:0:0:0:
16,122,64292,6,0,L|176:70,1,162.5,2|0,0:0|0:0,0:0:0:0:
240,19,64807,2,0,L|325:41,1,81.25,10|0,0:0|0:0,0:0:0:0:
399,7,65150,2,0,L|422:91,1,81.25,2|0,0:0|1:0,0:0:0:0:
491,145,65492,2,0,L|429:207,1,81.25,10|0,0:0|0:0,0:0:0:0:
388,279,65835,6,0,L|466:299,1,81.25,2|2,1:2|0:0,0:0:0:0:
401,366,66178,2,0,B|341:373|341:373|314:358|314:358|236:369,1,162.5,10|0,0:0|0:0,0:0:0:0:
174,308,66692,1,2,1:2:0:0:
227,232,66864,2,0,L|243:144,1,81.25,10|0,0:0|0:0,0:0:0:0:
321,199,67207,6,0,L|405:173,2,81.25,2|2|10,1:2|0:0|0:0,0:0:0:0:
241,152,67721,2,0,B|143:132|143:132|87:174,1,162.5,2|8,0:0|3:0,0:0:0:0:
33,235,68235,2,0,L|61:321,1,81.25,8|8,0:0|0:0,0:0:0:0:
135,364,68578,6,0,L|158:276,1,81.25,6|2,1:2|0:0,0:0:0:0:
226,232,68921,1,10,0:0:0:0:
306,285,69092,2,0,B|362:264|362:264|384:229|384:229|443:212,1,162.5,2|2,0:0|1:2,0:0:0:0:
496,138,69607,1,10,0:0:0:0:
433,68,69778,6,0,L|267:40,1,162.5,2|0,0:0|0:0,0:0:0:0:
195,0,70292,2,0,L|108:23,1,81.25,10|0,0:0|0:0,0:0:0:0:
177,90,70635,2,0,L|113:153,1,81.25,2|0,0:0|1:0,0:0:0:0:
208,183,70978,2,0,L|184:269,1,81.25,10|0,0:0|0:0,0:0:0:0:
281,240,71321,6,0,L|367:219,1,81.25,2|2,1:2|0:0,0:0:0:0:
435,279,71664,1,10,0:0:0:0:
381,350,71835,2,0,B|274:328|274:328|213:373,1,162.5,2|2,0:0|1:2,0:0:0:0:
148,323,72350,1,10,0:0:0:0:
75,377,72521,6,0,L|33:214,1,162.5,2|0,0:0|0:0,0:0:0:0:
0,145,73035,2,0,L|23:62,1,81.25,10|0,0:0|0:0,0:0:0:0:
100,23,73378,2,0,L|123:106,1,81.25,2|0,0:0|1:0,0:0:0:0:
190,155,73721,1,10,0:0:0:0:
190,155,74064,6,0,L|273:169,1,81.25,2|2,1:2|0:0,0:0:0:0:
341,112,74407,1,10,0:0:0:0:
405,186,74578,2,0,B|441:141|441:141|410:33,1,162.5,2|2,0:0|1:2,0:0:0:0:
332,6,75092,1,10,0:0:0:0:
261,57,75264,6,0,P|212:19|114:40,1,162.5,2|0,0:0|0:0,0:0:0:0:
61,105,75778,2,0,L|82:189,1,81.25,10|0,0:0|0:0,0:0:0:0:
161,217,76121,2,0,L|140:301,1,81.25,2|0,0:0|1:0,0:0:0:0:
127,379,76464,2,0,L|228:352,1,81.25,10|0,0:0|0:0,0:0:0:0:
263,296,76807,6,0,B|343:265|339:316|425:300,1,162.5,6|8,1:2|0:0,0:0:0:0:
483,243,77321,2,0,P|494:192|401:165,1,162.5,6|2,1:2|1:2,0:0:0:0:
333,209,77835,2,0,L|247:187,1,81.25,14|0,0:0|0:0,0:0:0:0:
197,123,78178,6,0,L|176:38,1,81.25,2|2,1:2|0:0,0:0:0:0:
109,111,78521,2,0,L|88:196,1,81.25,8|8,3:0|3:0,0:0:0:0:
139,267,78864,1,8,0:0:0:0:
78,332,79035,2,0,L|0:313,2,81.25,0|0|4,1:0|1:0|3:0,0:0:0:0:
153,382,79550,6,0,L|237:361,1,81.25,4|2,1:2|0:0,0:0:0:0:
279,283,79892,1,8,0:0:0:0:
341,348,80064,2,0,B|407:360|407:360|434:341|434:341|514:357,1,162.5,2|2,0:0|1:2,0:0:0:0:
473,268,80578,1,8,0:0:0:0:
473,268,80750,6,0,L|501:184,1,81.25,2|0,0:0|1:0,0:0:0:0:
402,202,81092,2,0,L|384:115,1,81.25,2|8,0:0|0:0,0:0:0:0:
305,179,81435,2,0,L|187:46,1,162.5,2|0,0:0|1:0,0:0:0:0:
131,2,81950,1,8,0:0:0:0:
131,2,82292,6,0,L|48:27,1,81.25,0|2,1:0|0:0,0:0:0:0:
6,102,82635,1,8,0:0:0:0:
73,157,82807,2,0,B|51:261|51:261|0:291,1,162.5,2|2,0:0|1:2,0:0:0:0:
43,364,83321,1,8,0:0:0:0:
43,364,83492,6,0,L|127:386,1,81.25,2|0,0:0|1:0,0:0:0:0:
122,297,83835,2,0,L|205:274,1,81.25,2|8,0:0|0:0,0:0:0:0:
151,195,84178,2,0,L|273:71,1,162.5,2|0,0:0|1:0,0:0:0:0:
334,18,84692,1,8,0:0:0:0:
334,18,84864,1,0,0:0:0:0:
419,53,85035,6,0,L|400:151,1,81.25,0|2,1:0|0:0,0:0:0:0:
461,206,85378,1,8,0:0:0:0:
406,281,85550,2,0,B|381:293|349:298|349:298|325:335|325:335|254:358,1,162.5,2|2,0:0|1:2,0:0:0:0:
194,305,86064,1,8,0:0:0:0:
238,230,86235,6,0,L|208:150,1,81.25,2|0,0:0|1:0,0:0:0:0:
304,153,86578,2,0,L|318:68,1,81.25,2|8,0:0|0:0,0:0:0:0:
403,128,86921,2,0,L|457:62,2,81.25,2|0|0,0:0|0:0|1:0,0:0:0:0:
317,72,87435,2,0,P|280:62|238:76,1,81.25,10|0,0:0|0:0,0:0:0:0:
180,143,87778,5,2,1:2:0:0:
180,143,87950,1,0,0:0:0:0:
103,77,88121,2,0,B|53:109|53:109|85:221,1,162.5,12|0,0:0|0:0,0:0:0:0:
149,268,88635,1,4,1:2:0:0:
94,330,88807,6,0,L|14:316,2,81.25,10|0|0,0:0|0:0|1:0,0:0:0:0:
160,382,89321,2,0,L|250:357,1,81.25,4|8,0:0|0:0,0:0:0:0:
300,296,89664,2,0,P|321:249|283:147,1,162.5,4|8,0:0|3:0,0:0:0:0:
187,95,90178,1,12,0:0:0:0:
235,1,90350,1,8,0:0:0:0:
316,73,90521,6,0,L|404:49,1,81.25,0|2,1:0|0:0,0:0:0:0:
469,105,90864,1,8,0:0:0:0:
411,179,91035,2,0,L|371:344,1,162.5,2|2,0:0|1:2,0:0:0:0:
285,293,91550,1,8,0:0:0:0:
220,355,91721,6,0,L|126:377,1,81.25,2|0,0:0|1:0,0:0:0:0:
152,280,92064,2,0,L|59:252,1,81.25,2|8,0:0|0:0,0:0:0:0:
142,180,92407,2,0,L|99:-1,1,162.5,2|0,0:0|1:0,0:0:0:0:
202,54,92921,1,8,0:0:0:0:
202,54,93264,6,0,B|238:38|238:38|288:50,1,81.25,0|2,1:0|0:0,0:0:0:0:
354,93,93607,1,8,0:0:0:0:
420,32,93778,2,0,B|409:89|409:89|384:114|384:114|368:187,1,162.5,2|2,0:0|1:2,0:0:0:0:
433,244,94292,1,8,0:0:0:0:
373,314,94464,6,0,L|289:338,1,81.25,2|0,0:0|1:0,0:0:0:0:
303,241,94807,2,0,L|218:219,1,81.25,2|8,0:0|0:0,0:0:0:0:
285,146,95150,2,0,L|163:28,1,162.5,2|0,0:0|1:0,0:0:0:0:
125,107,95664,2,0,L|25:80,1,81.25,8|0,0:0|0:0,0:0:0:0:
1,162,96007,6,0,L|24:251,1,81.25,0|2,1:0|0:0,0:0:0:0:
2,325,96350,1,8,0:0:0:0:
76,380,96521,2,0,B|183:345|183:345|205:292,1,162.5,2|2,0:0|1:2,0:0:0:0:
266,230,97035,1,8,0:0:0:0:
331,296,97207,6,0,L|431:321,1,81.25,2|0,0:0|1:0,0:0:0:0:
396,222,97550,2,0,L|495:193,1,81.25,2|8,0:0|0:0,0:0:0:0:
400,130,97892,2,0,L|521:4,1,162.5,2|0,0:0|1:0,0:0:0:0:
421,0,98407,1,10,0:0:0:0:
421,0,98750,6,0,P|391:48|286:42,1,162.5,6|0,1:2|0:0,0:0:0:0:
218,4,99264,6,0,B|178:80|244:86|222:166,1,162.5,6|0,1:2|0:0,0:0:0:0:
174,226,99778,6,0,B|114:235|62:190|62:190|63:261|0:298,1,243.75,6|0,1:2|1:0,0:0:0:0:
56,359,100464,2,0,L|142:333,1,81.25,8|8,3:0|3:0,0:0:0:0:
218,306,100807,1,8,0:0:0:0:
286,351,100978,2,0,L|373:365,2,81.25,4|4|4,3:0|3:0|3:0,0:0:0:0:
213,295,101492,5,0,1:0:0:0:
256,192,101578,12,0,106978,0:0:0:0:
