osu file format v14

[General]
AudioFilename: audio.mp3
AudioLeadIn: 0
PreviewTime: 34654
Countdown: 0
SampleSet: Soft
StackLeniency: 0.7
Mode: 0
LetterboxInBreaks: 0
WidescreenStoryboard: 1

[Editor]
Bookmarks: 12452,35766,46737,57709,68680,79652,90623
DistanceSpacing: 1
BeatDivisor: 4
GridSize: 32
TimelineZoom: 1.200006

[Metadata]
Title:Higher Ground (feat. Cammie Robinson) (Cut Ver.)
TitleUnicode:Higher Ground (feat. Cammie Robinson) (Cut Ver.)
Artist:Delta Heavy & MUZZ
ArtistUnicode:Delta Heavy & MUZZ
Creator:Tycani
Version:Birb's Normal
Source:
Tags:electronic english drum and bass dnb birbsmb my_angel_rushia
BeatmapID:2953362
BeatmapSetID:1434419

[Difficulty]
HPDrainRate:4
CircleSize:3.5
OverallDifficulty:5
ApproachRate:5
SliderMultiplier:0.999999999999999
SliderTickRate:1

[Events]
//Background and Video events
0,0,"1002602.jpg",0,0
//Break Periods
2,3634,11492
//Storyboard Layer 0 (Background)
//Storyboard Layer 1 (Fail)
//Storyboard Layer 2 (Pass)
//Storyboard Layer 3 (Foreground)
//Storyboard Layer 4 (Overlay)
//Storyboard Sound Samples

[TimingPoints]
2750,342.857142857143,4,2,1,80,1,0
2750,-100,4,2,1,80,0,0
3521,-100,4,2,1,30,0,0
12350,-100,4,2,1,60,0,0
13721,-100,4,2,1,65,0,0
35664,-100,4,2,1,70,0,0
46635,-100,4,2,1,70,0,0
49378,-100,4,2,1,75,0,0
52121,-100,4,2,1,80,0,0
54864,-100,4,2,1,85,0,0
56235,-100,4,2,1,75,0,0
57607,-100,4,2,1,90,0,1
79550,-100,4,2,1,85,0,0
99178,-100,4,2,1,5,0,0
99264,-100,4,2,1,85,0,0
99692,-100,4,2,1,5,0,0
99778,-100,4,2,1,85,0,0
101492,-100,4,2,1,75,0,0
102178,-100,4,2,1,65,0,0
102864,-100,4,2,1,55,0,0
103550,-100,4,2,1,45,0,0
104235,-100,4,2,1,35,0,0
104921,-100,4,2,1,25,0,0
106292,-100,4,2,1,15,0,0

[Colours]
Combo1 : 216,235,148
Combo2 : 255,255,128
Combo3 : 250,201,5

[HitObjects]
192,64,2749,6,0,B|178:263,1,200,0|8,1:0|0:0,0:0:0:0:
128,192,12692,6,0,L|65:192,2,50,8|8|8,3:0|3:0|0:0,0:0:0:0:
219,150,13378,2,0,P|243:147|268:152,1,50,0|0,1:0|1:0,0:0:0:0:
306,185,13721,6,0,L|313:284,1,99.9999999999999,6|2,1:2|0:0,0:0:0:0:
406,323,14407,2,0,L|413:224,1,99.9999999999999,2|0,0:0|0:0,0:0:0:0:
463,136,15092,1,0,0:0:0:0:
400,58,15435,1,2,0:0:0:0:
304,84,15778,2,0,L|254:87,2,50,2|2|2,0:0|0:0|0:0,0:0:0:0:
353,171,16464,6,0,P|378:239|352:308,2,150,2|2|2,0:0|0:0|0:0,0:0:0:0:
253,166,17835,1,0,0:0:0:0:
168,290,18350,1,0,0:0:0:0:
23,247,18864,2,0,P|15:223|16:198,1,50,2|2,0:0|0:0,0:0:0:0:
41,155,19207,6,0,L|48:55,1,99.9999999999999,6|2,1:2|0:0,0:0:0:0:
141,17,19892,2,0,L|148:116,1,99.9999999999999,2|0,0:0|0:0,0:0:0:0:
229,176,20578,1,0,0:0:0:0:
195,270,20921,2,0,P|187:318|203:365,2,99.9999999999999,2|2|2,0:0|0:0|0:0,0:0:0:0:
288,310,21950,6,0,B|388:307|388:307|435:323,2,150,2|2|2,0:0|0:0|0:0,0:0:0:0:
203,365,23321,1,0,0:0:0:0:
62,311,23835,1,0,0:0:0:0:
178,215,24350,2,0,P|185:190|185:166,1,50,2|2,3:2|3:2,0:0:0:0:
220,128,24692,6,0,P|268:120|315:137,1,99.9999999999999,6|2,1:2|0:0,0:0:0:0:
371,221,25378,2,0,L|364:320,1,99.9999999999999,2|0,0:0|0:0,0:0:0:0:
442,384,26064,1,0,0:0:0:0:
511,312,26407,1,2,0:0:0:0:
482,216,26750,2,0,L|485:166,2,50,2|2|2,0:0|0:0|0:0,0:0:0:0:
399,271,27435,6,0,P|325:271|271:222,2,150,6|2|2,1:2|0:0|0:0,0:0:0:0:
361,178,28807,1,0,0:0:0:0:
452,59,29321,1,0,0:0:0:0:
303,39,29835,2,0,P|279:36|254:40,1,50,0|2,0:0|0:0,0:0:0:0:
216,72,30178,6,0,L|116:78,1,99.9999999999999,4|2,1:2|0:0,0:0:0:0:
70,98,30692,2,0,P|43:139|47:188,1,99.9999999999999,2|2,0:0|0:0,0:0:0:0:
111,266,31378,2,0,B|210:280|210:280|259:269,1,150,2|2,0:0|0:0,0:0:0:0:
304,289,32064,2,0,P|279:332|280:381,2,99.9999999999999,2|2|2,0:0|0:0|0:0,0:0:0:0:
346,262,32921,5,4,1:2:0:0:
456,160,33435,2,0,L|464:60,2,99.9999999999999
436,206,34292,5,0,0:0:0:0:
350,258,34635,2,0,P|302:269|254:259,1,99.9999999999999,2|2,0:0|0:0,0:0:0:0:
218,225,35150,2,0,L|168:228,2,50,8|8|0,3:0|3:0|1:0,0:0:0:0:
256,192,35664,5,6,1:2:0:0:
336,65,36178,1,2,0:0:0:0:
463,145,36692,2,0,P|474:193|464:241,2,99.9999999999999,2|0|0,0:0|0:0|0:0,0:0:0:0:
435,49,37721,1,2,0:0:0:0:
337,26,38064,1,2,0:0:0:0:
268,98,38407,6,0,P|218:102|174:80,1,99.9999999999999,2|0,0:0|0:0,0:0:0:0:
141,43,38921,1,2,0:0:0:0:
24,136,39435,2,0,L|30:235,2,99.9999999999999,2|0|0,0:0|0:0|0:0,0:0:0:0:
64,44,40464,2,0,P|109:24|158:32,1,99.9999999999999
227,104,41150,5,0,1:0:0:0:
227,104,41321,2,0,L|326:97,2,99.9999999999999,2|2|2,0:0|0:0|0:0,0:0:0:0:
155,173,42350,1,2,0:0:0:0:
178,269,42692,1,2,0:0:0:0:
274,297,43035,2,0,P|319:279|344:236,1,99.9999999999999,2|0,0:0|0:0,0:0:0:0:
357,188,43550,1,2,0:0:0:0:
411,104,43892,6,0,P|421:32|485:0,2,150,2|2|2,0:0|0:0|0:0,0:0:0:0:
462,189,45264,2,0,L|511:185,2,50,8|8|4,3:0|3:0|3:0,0:0:0:0:
418,214,45778,1,2,3:0:0:0:
334,168,46121,1,8,0:0:0:0:
334,168,46292,1,8,0:0:0:0:
245,215,46635,6,0,B|242:254|242:254|247:274|247:274|244:313,2,99.9999999999999,4|8|0,1:2|0:0|0:0,0:0:0:0:
228,172,47492,1,0,1:0:0:0:
228,172,47664,2,0,P|182:152|133:161,1,99.9999999999999,8|0,0:0|1:0,0:0:0:0:
60,230,48350,2,0,L|53:329,1,99.9999999999999,8|0,0:0|0:0,0:0:0:0:
80,377,48864,1,0,1:0:0:0:
80,377,49035,1,8,0:0:0:0:
175,350,49378,6,0,P|223:347|263:376,2,99.9999999999999,0|8|0,1:0|0:0|0:0,0:0:0:0:
136,380,50235,1,0,1:0:0:0:
136,380,50407,2,0,L|129:280,1,99.9999999999999,8|0,0:0|1:0,0:0:0:0:
162,185,51092,2,0,P|207:165|256:174,1,99.9999999999999,8|0,0:0|0:0,0:0:0:0:
304,202,51607,1,0,1:0:0:0:
304,202,51778,1,8,0:0:0:0:
404,187,52121,6,0,P|451:172|479:132,1,99.9999999999999,0|0,1:0|1:0,0:0:0:0:
416,54,52807,2,0,P|368:68|340:108,1,99.9999999999999,0|0,1:0|1:0,0:0:0:0:
304,202,53492,1,0,1:0:0:0:
383,266,53835,1,0,1:0:0:0:
346,360,54178,1,0,1:0:0:0:
245,353,54521,1,0,1:0:0:0:
219,255,54864,6,0,B|194:258|194:258|170:250,2,50,0|0|0,1:0|1:0|1:0,0:0:0:0:
271,245,55378,1,0,1:0:0:0:
271,245,55550,2,0,L|274:195,1,50,0|0,1:0|1:0,0:0:0:0:
317,170,55892,2,0,L|313:120,1,50,0|0,1:0|1:0,0:0:0:0:
329,21,56407,6,0,L|279:17,2,50,0|8|8,1:0|3:0|3:0,0:0:0:0:
378,11,56921,1,8,0:0:0:0:
461,66,57264,2,0,P|468:89|470:114,1,50,4|0,3:0|1:0,0:0:0:0:
452,161,57607,6,0,L|455:210,2,50,6|2|10,1:2|0:0|0:0,0:0:0:0:
403,146,58121,2,0,B|360:148|360:148|348:155|348:155|305:158,1,99.9999999999999,2|2,0:0|1:2,0:0:0:0:
256,168,58635,1,10,0:0:0:0:
256,167,58807,2,0,P|216:197|205:245,1,99.9999999999999,2|0,0:0|0:0,0:0:0:0:
216,294,59321,1,10,0:0:0:0:
144,363,59664,1,2,0:0:0:0:
53,320,60007,1,10,0:0:0:0:
43,218,60350,6,0,P|41:194|45:169,2,50,2|2|10,1:2|0:0|0:0,0:0:0:0:
81,249,60864,2,0,L|180:255,1,99.9999999999999,2|2,0:0|1:2,0:0:0:0:
228,234,61378,1,10,0:0:0:0:
228,234,61550,2,0,B|252:230|275:240|275:240|300:250|324:246,1,99.9999999999999,2|0,0:0|0:0,0:0:0:0:
375,235,62064,1,10,0:0:0:0:
460,182,62407,1,2,0:0:0:0:
435,84,62750,1,10,0:0:0:0:
333,77,63092,6,0,P|327:53|329:29,2,50,2|2|10,1:2|0:0|0:0,0:0:0:0:
324,127,63607,2,0,P|281:149|232:143,1,99.9999999999999,2|2,0:0|1:2,0:0:0:0:
192,124,64121,1,10,0:0:0:0:
192,124,64292,2,0,L|184:24,1,99.9999999999999,2|0,0:0|0:0,0:0:0:0:
140,0,64807,1,10,0:0:0:0:
46,34,65150,1,2,0:0:0:0:
4,124,65492,1,10,0:0:0:0:
37,217,65835,6,0,P|60:223|85:225,1,50,2|2,1:2|0:0,0:0:0:0:
126,255,66178,2,0,B|169:257|169:257|181:264|181:264|224:267,1,99.9999999999999,10|0,0:0|0:0,0:0:0:0:
276,258,66692,1,2,1:2:0:0:
276,258,66864,1,10,0:0:0:0:
340,335,67207,2,0,P|338:359|344:384,2,50,2|2|10,1:2|0:0|0:0,0:0:0:0:
378,302,67721,1,2,0:0:0:0:
455,238,68064,1,8,3:0:0:0:
455,238,68235,2,0,L|458:188,1,50,8|8,0:0|0:0,0:0:0:0:
420,156,68578,6,0,P|414:132|416:108,2,50,6|2|10,1:2|0:0|0:0,0:0:0:0:
379,185,69092,2,0,L|279:178,1,99.9999999999999,2|2,0:0|1:2,0:0:0:0:
236,200,69607,1,10,0:0:0:0:
236,200,69778,2,0,P|214:245|221:294,1,99.9999999999999,2|0,0:0|0:0,0:0:0:0:
214,342,70292,1,10,0:0:0:0:
123,384,70635,1,2,0:0:0:0:
54,310,70978,1,10,0:0:0:0:
103,221,71321,6,0,L|152:224,2,50,2|2|10,1:2|0:0|0:0,0:0:0:0:
62,192,71835,2,0,P|49:144|65:97,1,99.9999999999999,2|2,0:0|1:2,0:0:0:0:
110,71,72350,1,10,0:0:0:0:
110,71,72521,2,0,L|209:78,1,99.9999999999999,2|0,0:0|0:0,0:0:0:0:
260,80,73035,1,10,0:0:0:0:
342,23,73378,1,2,0:0:0:0:
432,65,73721,1,10,0:0:0:0:
440,164,74064,6,0,L|489:167,2,50,2|2|10,1:2|0:0|0:0,0:0:0:0:
393,180,74578,2,0,P|370:224|379:273,1,99.9999999999999,2|2,0:0|1:2,0:0:0:0:
406,322,75092,1,10,0:0:0:0:
406,322,75264,2,0,L|306:315,1,99.9999999999999,2|0,0:0|0:0,0:0:0:0:
257,325,75778,1,10,0:0:0:0:
183,257,76121,1,2,0:0:0:0:
251,183,76464,1,10,0:0:0:0:
200,94,76807,6,0,L|100:87,1,99.9999999999999,6|8,1:2|0:0,0:0:0:0:
56,111,77321,2,0,B|39:156|39:156|42:207,1,99.9999999999999,6|2,1:2|1:2,0:0:0:0:
68,250,77835,1,14,0:0:0:0:
166,267,78178,2,0,L|162:317,2,50,2|2|8,1:2|0:0|3:0,0:0:0:0:
172,217,78692,1,8,3:0:0:0:
222,130,79035,2,0,P|218:105|224:81,2,50,0|0|4,1:0|1:0|3:0,0:0:0:0:
247,173,79550,5,4,1:2:0:0:
340,220,79892,1,8,0:0:0:0:
340,220,80064,2,0,L|440:213,1,99.9999999999999,2|2,0:0|1:2,0:0:0:0:
484,235,80578,1,8,0:0:0:0:
489,335,80921,2,0,P|448:362|398:361,1,99.9999999999999,0|8,1:0|0:0,0:0:0:0:
350,350,81435,2,0,L|250:355,1,99.9999999999999,2|0,0:0|1:0,0:0:0:0:
203,374,81950,1,8,0:0:0:0:
103,381,82292,6,0,P|71:343|65:294,1,99.9999999999999,0|8,1:0|0:0,0:0:0:0:
88,248,82807,2,0,L|94:148,1,99.9999999999999,2|2,0:0|1:2,0:0:0:0:
120,105,83321,1,8,0:0:0:0:
204,52,83664,2,0,P|253:46|300:63,1,99.9999999999999,0|8,1:0|0:0,0:0:0:0:
332,102,84178,2,0,P|337:151|320:198,1,99.9999999999999,2|0,0:0|1:0,0:0:0:0:
282,230,84692,1,8,0:0:0:0:
310,326,85035,5,0,1:0:0:0:
411,353,85378,1,8,0:0:0:0:
411,353,85550,2,0,P|459:344|491:307,1,99.9999999999999,2|2,0:0|1:2,0:0:0:0:
498,258,86064,1,8,0:0:0:0:
464,164,86407,2,0,L|470:64,1,99.9999999999999,0|8,1:0|0:0,0:0:0:0:
442,22,86921,2,0,L|342:15,1,99.9999999999999,2|0,0:0|1:0,0:0:0:0:
300,44,87435,1,10,0:0:0:0:
277,141,87778,6,0,P|228:149|182:132,2,99.9999999999999,2|12|0,1:2|0:0|0:0,0:0:0:0:
327,125,88635,1,4,1:2:0:0:
327,125,88807,1,10,0:0:0:0:
399,193,89150,2,0,L|405:292,1,99.9999999999999,0|8,1:0|0:0,0:0:0:0:
388,340,89664,2,0,P|343:361|294:357,1,99.9999999999999,4|8,0:0|3:0,0:0:0:0:
249,337,90178,2,0,L|199:340,1,50,12|8,0:0|0:0,0:0:0:0:
152,324,90521,5,0,1:0:0:0:
87,255,90864,1,8,0:0:0:0:
87,255,91035,2,0,L|93:155,1,99.9999999999999,2|2,0:0|1:2,0:0:0:0:
99,105,91550,1,8,0:0:0:0:
172,36,91892,2,0,P|220:29|264:50,1,99.9999999999999,0|8,1:0|0:0,0:0:0:0:
283,97,92407,2,0,L|276:196,1,99.9999999999999,2|0,0:0|1:0,0:0:0:0:
271,246,92921,1,8,0:0:0:0:
316,333,93264,6,0,P|363:351|411:343,1,99.9999999999999,0|8,1:0|0:0,0:0:0:0:
448,309,93778,2,0,L|455:209,1,99.9999999999999,2|2,0:0|1:2,0:0:0:0:
467,160,94292,1,8,0:0:0:0:
448,62,94635,2,0,P|407:34|357:33,1,99.9999999999999,0|8,1:0|0:0,0:0:0:0:
312,56,95150,2,0,L|212:48,1,99.9999999999999,2|0,0:0|1:0,0:0:0:0:
162,45,95664,1,8,0:0:0:0:
74,93,96007,5,0,1:0:0:0:
40,190,96350,1,8,0:0:0:0:
40,190,96521,2,0,L|47:289,1,99.9999999999999,2|2,0:0|1:2,0:0:0:0:
78,329,97035,1,8,0:0:0:0:
165,280,97378,2,0,P|213:271|259:289,1,99.9999999999999,0|8,1:0|0:0,0:0:0:0:
299,319,97892,2,0,P|344:337|393:327,1,99.9999999999999,2|0,0:0|1:0,0:0:0:0:
435,299,98407,1,10,0:0:0:0:
512,235,98750,5,6,1:2:0:0:
467,93,99264,1,6,1:2:0:0:
366,202,99778,1,6,1:2:0:0:
321,60,100292,2,0,L|323:11,2,50,0|8|8,1:0|3:0|3:0,0:0:0:0:
316,110,100807,1,8,0:0:0:0:
255,192,101150,2,0,P|232:198|207:194,1,50,4|4,3:0|3:0,0:0:0:0:
166,166,101492,5,0,1:0:0:0:
256,192,101835,12,0,106978,0:0:0:0:
