osu file format v14

[General]
AudioFilename: Delirious_MyGlorious.mp3
AudioLeadIn: 0
PreviewTime: 57278
Countdown: 0
SampleSet: None
StackLeniency: 0.7
Mode: 0
LetterboxInBreaks: 0
WidescreenStoryboard: 1

[Editor]
Bookmarks: 4262,27825,51387,63168,86731,98512,122074,133855,157418,166990,180980,204543,228105,251667,274493,287011,296569,311145,325157,339398,353803,371995,386566,401370,416133,426365
DistanceSpacing: 1.4
BeatDivisor: 8
GridSize: 4
TimelineZoom: 1.1

[Metadata]
Title:My Glorious
TitleUnicode:My Glorious
Artist:Delirious?
ArtistUnicode:Delirious?
Creator:Alarido
Version:The Glorious
Source:
Tags:Martin Smith Stuart Garrard Stu G Timothy Tim Jupp Jonathan John Thatcher Stewart Stew Smith touch bonus disc live version willow creek
BeatmapID:665272
BeatmapSetID:296260

[Difficulty]
HPDrainRate:7
CircleSize:5
OverallDifficulty:7
ApproachRate:8
SliderMultiplier:3
SliderTickRate:2

[Events]
//Background and Video events
0,0,"DeliriousBand.jpg",0,0
Video,0,"MyGloriousClip_03.avi"
//Break Periods
2,287211,295819
//Storyboard Layer 0 (Background)
//Storyboard Layer 1 (Fail)
//Storyboard Layer 2 (Pass)
//Storyboard Layer 3 (Foreground)
//Storyboard Sound Samples

[TimingPoints]
4263,736.323767840269,4,3,1,60,1,0
27825,-100,4,3,1,65,0,0
63168,-100,4,3,1,85,0,1
86731,-100,4,3,1,65,0,0
133855,-100,4,3,1,85,0,1
180980,-100,4,3,1,65,0,0
251667,-100,4,3,1,85,0,1
274493,-100,4,3,1,65,0,0
287011,-100,4,3,1,20,0,0
296569,936.042857142858,4,2,1,50,1,0
296569,-133.333333333333,4,2,1,35,0,0
300313,923.082857142858,4,2,1,35,1,0
300313,-133.333333333333,4,2,1,35,0,0
304005,870.282857142858,4,2,1,35,1,0
304005,-133.333333333333,4,2,1,35,0,0
307486,932.882857142857,4,2,1,35,1,0
307486,-133.333333333333,4,2,1,35,0,0
309273,936.042857142857,4,2,1,35,1,0
309273,-133.333333333333,4,2,1,35,0,0
311145,881.058986175116,4,2,1,35,1,0
311145,-133.333333333333,4,2,1,35,0,0
321702,863.932857142857,4,2,1,35,1,0
321702,-133.333333333333,4,2,1,35,0,0
325143,880.282857142857,4,2,1,35,1,0
325143,-133.333333333333,4,2,1,35,0,0
328664,909.092857142858,4,2,1,35,1,0
328664,-133.333333333333,4,2,1,35,0,0
332300,880.282857142857,4,2,1,35,1,0
332300,-133.333333333333,4,2,1,35,0,0
335821,869.562857142857,4,2,1,35,1,0
335821,-133.333333333333,4,2,1,35,0,0
339398,864.931690140845,4,2,1,35,1,0
339398,-133.333333333333,4,2,1,35,0,0
342857,944.631690140847,4,2,1,35,1,0
342857,-133.333333333333,4,2,1,35,0,0
346555,878.477779433682,4,2,1,35,1,0
346555,-133.333333333333,4,2,1,35,0,0
350068,933.852857142857,4,2,1,35,1,0
357498,880.282857142857,4,2,1,35,1,0
357498,-133.333333333333,4,2,1,35,0,0
361239,623.531690140847,5,2,1,35,1,0
361239,-200,4,2,1,35,0,0
364668,907.442857142857,4,2,1,35,1,0
364668,-133.333333333333,4,2,1,35,0,0
368488,623.531690140847,5,2,1,35,1,0
368488,-200,4,2,1,35,0,0
371995,910.742857142854,4,2,1,35,1,0
371995,-200,4,2,1,35,0,0
386566,949.372857142854,4,2,1,35,1,0
386566,-200,4,2,1,35,0,0
390482,892.856812386156,4,2,1,35,1,0
390482,-200,4,2,1,35,0,0
394053,910.746812386157,4,2,1,35,1,0
394053,-200,4,2,1,35,0,0
397865,890.207088607595,4,2,1,35,1,0
397865,-200,4,2,1,35,0,0
401370,910.746812386157,4,2,1,35,1,0
401370,-200,4,2,1,35,0,0
405127,891.536812386157,4,2,1,35,1,0
405127,-200,4,2,1,35,0,0
408693,930.226812386157,4,2,1,35,1,0
408693,-200,4,2,1,35,0,0
412530,813.006812386159,4,2,1,35,1,0
412530,-200,4,2,1,35,0,0
413343,930.236812386157,4,2,1,35,1,0
413343,-200,4,2,1,35,0,0
416133,930.236812386157,4,2,1,35,1,0
416133,-200,4,2,1,35,0,0

[Colours]
Combo1 : 169,33,14
Combo2 : 116,194,199
Combo3 : 0,88,196
Combo4 : 74,153,232
Combo5 : 30,13,181
Combo6 : 227,200,4
Combo7 : 194,107,12
Combo8 : 224,167,48

[HitObjects]
264,116,4262,70,0,L|188:136,1,75,4|0,0:0|0:0,0:0:0:0:
128,196,4631,1,0,0:0:0:0:
248,332,4999,2,0,P|328:336|380:292,1,150,8|0,0:0|0:0,0:0:0:0:
432,120,5735,2,0,P|476:128|516:104,2,75,0|0|2,0:0|0:0|0:0,0:0:0:0:
372,52,6288,1,0,0:0:0:0:
280,52,6471,2,0,L|220:100,1,75,8|0,0:0|0:0,0:0:0:0:
156,160,6840,2,0,L|168:252,1,75,2|0,0:0|0:0,0:0:0:0:
248,268,7208,6,0,L|324:248,1,75,4|0,0:0|0:0,0:0:0:0:
384,188,7576,1,0,0:0:0:0:
264,52,7944,2,0,P|184:48|132:92,1,150,8|0,0:0|0:0,0:0:0:0:
80,264,8680,2,0,P|36:256|-4:280,2,75,0|0|2,0:0|0:0|0:0,0:0:0:0:
140,332,9233,1,0,0:0:0:0:
232,332,9417,2,0,L|292:284,1,75,8|0,0:0|0:0,0:0:0:0:
356,224,9785,2,0,L|344:132,1,75,2|0,0:0|0:0,0:0:0:0:
300,72,10153,6,0,P|228:40|160:52,1,150,4|0,0:0|0:0,0:0:0:0:
52,196,10889,2,0,L|24:348,2,150,8|0|0,0:0|0:0|0:0,0:0:0:0:
148,44,11994,1,0,0:0:0:0:
328,52,12362,2,0,P|356:56|400:44,1,75,8|0,0:0|0:0,0:0:0:0:
236,112,12914,1,8,0:0:0:0:
256,200,13098,6,0,P|248:236|228:268,1,75,2|0,0:0|0:0,0:0:0:0:
140,276,13467,2,0,P|172:336|248:352,1,150,2|8,0:0|0:0,0:0:0:0:
344,188,14203,2,0,P|312:128|236:112,1,150,0|2,0:0|0:0,0:0:0:0:
156,152,14755,2,0,P|124:156|84:144,1,75,0|2,0:0|0:0,0:0:0:0:
220,24,15307,1,8,0:0:0:0:
400,96,15676,1,8,0:0:0:0:
288,252,16044,70,0,P|312:268|364:268,2,75,4|0|0,0:0|0:0|0:0,0:0:0:0:
164,120,16780,2,0,P|88:116|36:168,1,150,8|0,0:0|0:0,0:0:0:0:
108,332,17516,1,0,0:0:0:0:
288,356,17884,2,0,P|328:360|368:344,1,75,2|0,0:0|0:0,0:0:0:0:
372,225,18253,2,0,P|348:254|316:272,1,75,8|0,0:0|0:0,0:0:0:0:
292,188,18621,2,0,P|312:152|308:108,1,75,2|0,0:0|0:0,0:0:0:0:
224,132,18989,6,0,P|200:116|148:116,2,75,4|0|0,0:0|0:0|0:0,0:0:0:0:
348,264,19725,2,0,P|424:268|476:216,1,150,8|0,0:0|0:0,0:0:0:0:
404,52,20462,1,0,0:0:0:0:
224,28,20830,2,0,P|184:24|144:40,1,75,2|0,0:0|0:0,0:0:0:0:
139,158,21198,2,0,P|163:129|196:112,1,75,8|0,0:0|0:0,0:0:0:0:
220,196,21566,2,0,P|200:232|204:276,1,75,2|0,0:0|0:0,0:0:0:0:
260,332,21934,6,0,P|336:336|388:288,1,150,4|0,0:0|0:0,0:0:0:0:
387,95,22671,2,0,P|332:46|260:52,1,150,8|0,0:0|0:0,0:0:0:0:
120,164,23407,1,0,0:0:0:0:
288,228,23775,1,0,0:0:0:0:
260,52,24143,2,0,P|232:76|216:116,1,75,8|0,0:0|0:0,0:0:0:0:
168,268,24511,2,0,P|196:244|212:204,1,75
88,92,24880,6,0,P|56:120|44:152,1,75,2|8,0:0|0:0,0:0:0:0:
92,312,25248,2,0,P|144:352|236:324,1,150,2|8,0:0|0:0,0:0:0:0:
452,240,25984,1,0,0:0:0:0:
488,156,26168,2,0,P|492:120|484:76,1,75,8|2,0:0|0:0,0:0:0:0:
304,112,26536,2,0,P|300:148|308:192,1,75,8|0,0:0|0:0,0:0:0:0:
348,32,26904,1,8,0:0:0:0:
208,120,27089,1,0,0:0:0:0:
348,248,27273,1,8,0:0:0:0:
392,108,27457,1,8,0:0:0:0:
200,240,27641,1,8,0:0:0:0:
340,352,27825,6,0,P|416:320|448:264,1,150,2|0,0:0|0:0,0:0:0:0:
404,68,28561,2,0,P|332:100|300:164,1,150,8|0,0:0|0:0,0:0:0:0:
348,248,29113,1,0,0:0:0:0:
448,264,29298,2,0,P|496:192|496:128,1,150
332,16,30034,1,8,0:0:0:0:
196,136,30402,2,0,P|168:148|124:144,1,75
220,48,30770,6,0,P|280:104|276:172,1,150
192,324,31506,1,8,0:0:0:0:
28,248,31875,2,0,P|16:212|20:176,1,75
44,88,32243,1,0,0:0:0:0:
220,48,32611,1,0,0:0:0:0:
396,92,32979,1,8,0:0:0:0:
304,248,33347,2,0,P|276:256|232:244,1,75
192,324,33715,6,0,P|264:344|336:328,1,150
468,208,34452,2,0,P|460:124|420:72,1,150,8|0,0:0|0:0,0:0:0:0:
340,36,35004,1,0,0:0:0:0:
254,53,35188,2,0,P|224:88|208:188,1,150
336,329,35924,1,8,0:0:0:0:
208,188,36293,2,0,P|174:179|129:190,1,75
284,228,36661,6,0,P|315:236|356:229,1,75
432,180,37029,2,0,L|416:336,2,150,0|8|0,0:0|0:0|0:0,0:0:0:0:
416,92,37949,2,0,L|504:76,1,75,8|0,0:0|0:0,0:0:0:0:
347,44,38317,2,0,L|259:60,1,75,8|0,0:0|0:0,0:0:0:0:
92,56,38870,1,8,0:0:0:0:
40,132,39054,1,8,0:0:0:0:
48,220,39238,1,8,0:0:0:0:
100,296,39422,1,8,0:0:0:0:
184,328,39606,70,0,P|224:320|252:296,1,75,2|0,0:0|0:0,0:0:0:0:
276,212,39974,2,0,P|212:188|136:212,2,150,0|8|0,0:0|0:0|0:0,0:0:0:0:
348,268,40895,2,0,P|392:264|424:244,1,75
488,84,41447,1,0,0:0:0:0:
316,28,41815,1,8,0:0:0:0:
160,152,42183,2,0,P|192:136|215:106,1,75
132,64,42551,6,0,P|101:45|64:42,1,75
72,128,42919,2,0,P|60:216|96:276,1,150,0|8,0:0|0:0,0:0:0:0:
252,344,43656,2,0,P|296:336|324:320,1,75
392,268,44024,1,0,0:0:0:0:
428,92,44392,1,0,0:0:0:0:
252,60,44760,1,8,0:0:0:0:
224,236,45128,2,0,P|204:272|172:296,1,75
87,267,45497,6,0,P|68:200|88:120,1,150
252,60,46233,2,0,P|292:124|368:132,1,150,8|0,0:0|0:0,0:0:0:0:
411,60,46785,2,0,P|377:46|340:48,1,75
188,148,47337,1,0,0:0:0:0:
200,328,47706,1,8,0:0:0:0:
380,324,48074,2,0,P|420:316|452:292,1,75
470,208,48442,6,0,P|432:146|361:134,1,150
212,232,49178,2,0,P|140:220|102:157,1,150,8|0,0:0|0:0,0:0:0:0:
88,68,49730,2,0,P|128:64|172:52,1,75,8|0,0:0|0:0,0:0:0:0:
208,136,50099,2,0,P|256:148|288:148,1,75,8|0,0:0|0:0,0:0:0:0:
452,92,50651,1,8,0:0:0:0:
276,48,51019,1,8,0:0:0:0:
212,232,51387,70,0,P|244:304|308:332,1,150,4|0,0:0|0:0,0:0:0:0:
444,192,52124,2,0,P|412:120|348:92,1,150,8|0,0:0|0:0,0:0:0:0:
260,92,52676,1,0,0:0:0:0:
180,52,52860,1,0,0:0:0:0:
24,144,53228,1,0,0:0:0:0:
44,324,53596,2,0,P|116:340|184:308,1,150,8|0,0:0|0:0,0:0:0:0:
300,152,54333,6,0,P|268:80|204:52,1,150,2|0,0:0|0:0,0:0:0:0:
68,192,55070,2,0,P|100:264|164:292,1,150,8|0,0:0|0:0,0:0:0:0:
252,292,55622,1,0,0:0:0:0:
332,332,55806,1,0,0:0:0:0:
488,240,56174,1,0,0:0:0:0:
468,60,56542,2,0,P|396:44|328:76,1,150,8|0,0:0|0:0,0:0:0:0:
152,236,57278,6,0,P|256:326|360:236,1,300,2|8,0:0|0:0,0:0:0:0:
256,152,58382,2,0,L|256:232,1,75
324,76,58750,2,0,P|256:48|188:76,1,150
104,252,59487,1,8,0:0:0:0:
296,292,59855,1,0,0:0:0:0:
272,96,60223,6,0,P|224:48|136:40,1,150,2|0,0:0|0:0,0:0:0:0:
160,176,60959,2,0,P|112:224|104:312,1,150,8|0,0:0|0:0,0:0:0:0:
240,288,61696,2,0,P|288:336|376:344,1,150,2|0,0:0|0:0,0:0:0:0:
352,208,62432,2,0,P|400:160|408:72,1,150,8|0,0:0|0:0,0:0:0:0:
220,36,63168,6,0,B|132:20|88:100,1,150,4|0,0:0|0:0,0:0:0:0:
56,284,63905,1,8,0:0:0:0:
240,348,64273,1,0,0:0:0:0:
372,204,64641,1,0,0:0:0:0:
188,140,65009,1,0,0:0:0:0:
316,288,65377,2,0,P|396:304|456:264,1,150,8|0,0:0|0:0,0:0:0:0:
496,80,66114,6,0,P|432:40|356:52,1,150,4|0,0:0|0:0,0:0:0:0:
188,140,66850,2,0,P|114:148|53:109,2,150,8|0|0,0:0|0:0|0:0,0:0:0:0:
362,49,67955,1,0,0:0:0:0:
168,56,68323,2,0,P|108:108|108:176,1,150,8|0,0:0|0:0,0:0:0:0:
292,348,69059,6,0,B|380:364|424:284,1,150,4|0,0:0|0:0,0:0:0:0:
456,100,69796,1,8,0:0:0:0:
272,36,70164,1,0,0:0:0:0:
140,180,70532,1,0,0:0:0:0:
324,244,70900,1,0,0:0:0:0:
196,96,71268,2,0,P|116:80|56:120,1,150,8|0,0:0|0:0,0:0:0:0:
24,204,71820,6,0,P|40:232|52:276,1,75,8|0,0:0|0:0,0:0:0:0:
132,312,72188,2,0,P|156:328|202:337,1,75,8|0,0:0|0:0,0:0:0:0:
380,316,72741,2,0,P|412:260|408:176,1,150,8|0,0:0|0:0,0:0:0:0:
396,80,73293,2,0,P|352:68|312:68,1,75,8|0,0:0|0:0,0:0:0:0:
240,32,73661,2,0,P|205:57|170:70,1,75,8|0,0:0|0:0,0:0:0:0:
28,200,74214,1,8,0:0:0:0:
164,340,74582,1,8,0:0:0:0:
228,156,74950,70,0,P|280:104|356:104,1,150,4|0,0:0|0:0,0:0:0:0:
460,264,75686,2,0,P|408:316|332:316,2,150,8|0|0,0:0|0:0|0:0,0:0:0:0:
448,68,76790,1,0,0:0:0:0:
256,36,77159,1,8,0:0:0:0:
120,172,77527,2,0,P|154:186|191:183,1,75
80,88,77895,6,0,P|32:144|40:216,1,150,4|0,0:0|0:0,0:0:0:0:
204,324,78631,1,8,0:0:0:0:
388,264,78999,1,0,0:0:0:0:
324,80,79368,2,0,P|256:52|188:80,1,150
124,264,80104,1,8,0:0:0:0:
308,324,80472,1,0,0:0:0:0:
428,172,80840,6,0,P|392:108|324:80,1,150,4|0,0:0|0:0,0:0:0:0:
200,200,81576,2,0,P|256:242|312:200,1,150,8|0,0:0|0:0,0:0:0:0:
188,79,82313,2,0,P|120:107|84:172,1,150
184,340,83049,2,0,P|256:360|328:340,1,150,8|0,0:0|0:0,0:0:0:0:
416,300,83601,6,0,P|416:256|424:224,1,75,8|0,0:0|0:0,0:0:0:0:
464,136,83970,2,0,P|450:101|423:70,1,75,8|0,0:0|0:0,0:0:0:0:
236,36,84522,1,8,0:0:0:0:
148,208,84890,1,0,0:0:0:0:
240,236,85074,2,0,P|280:228|312:200,1,75,8|0,0:0|0:0,0:0:0:0:
148,208,85442,2,0,P|108:216|76:244,1,75,8|0,0:0|0:0,0:0:0:0:
272,348,85994,1,8,0:0:0:0:
456,216,86363,1,8,0:0:0:0:
272,116,86731,6,0,P|264:148|276:192,1,75,4|0,0:0|0:0,0:0:0:0:
328,260,87099,1,0,0:0:0:0:
332,52,87467,2,0,P|253:29|198:64,1,150,8|0,0:0|0:0,0:0:0:0:
92,208,88203,1,0,0:0:0:0:
212,344,88572,2,0,P|252:348|284:336,1,75,2|0,0:0|0:0,0:0:0:0:
269,193,88940,2,0,P|246:223|240:260,1,75,8|0,0:0|0:0,0:0:0:0:
370,318,89308,2,0,P|356:284|328:260,1,75,2|0,0:0|0:0,0:0:0:0:
269,193,89676,6,0,P|260:156|265:120,1,75,4|0,0:0|0:0,0:0:0:0:
312,44,90044,1,0,0:0:0:0:
328,260,90412,2,0,P|252:280|192:240,1,150,8|0,0:0|0:0,0:0:0:0:
64,120,91149,1,0,0:0:0:0:
224,36,91517,2,0,P|259:47|285:78,1,75,2|0,0:0|0:0,0:0:0:0:
308,164,91885,2,0,P|276:183|239:184,1,75,8|0,0:0|0:0,0:0:0:0:
372,99,92253,2,0,P|403:79|440:78,1,75,2|0,0:0|0:0,0:0:0:0:
496,148,92621,6,0,P|492:228|448:288,1,150,4|0,0:0|0:0,0:0:0:0:
284,348,93358,2,0,P|208:348|136:320,1,150,8|0,0:0|0:0,0:0:0:0:
68,268,93910,1,0,0:0:0:0:
128,200,94094,2,0,P|144:164|144:128,1,75
124,40,94462,1,0,0:0:0:0:
24,188,94830,1,8,0:0:0:0:
188,264,95198,1,0,0:0:0:0:
266,218,95383,6,0,P|285:186|292:149,1,75,8|2,0:0|0:0,0:0:0:0:
266,309,95751,2,0,P|290:336|323:351,1,75,8|2,0:0|0:0,0:0:0:0:
497,297,96303,2,0,P|467:222|407:181,1,150,8|0,0:0|0:0,0:0:0:0:
323,172,96855,2,0,P|290:190|265:218,1,75,8|2,0:0|0:0,0:0:0:0:
376,103,97223,2,0,P|376:65|364:30,1,75,8|2,0:0|0:0,0:0:0:0:
168,40,97776,1,8,0:0:0:0:
132,232,98144,1,8,0:0:0:0:
268,348,98512,70,0,P|344:360|408:320,1,150
376,148,99248,2,0,P|300:136|236:176,1,150,8|0,0:0|0:0,0:0:0:0:
288,248,99801,2,0,P|324:252|360:236,1,75
484,108,100353,1,0,0:0:0:0:
312,52,100721,1,8,0:0:0:0:
156,144,101089,2,0,P|122:160|77:159,1,75
178,54,101457,6,0,P|233:97|239:174,1,150
120,304,102194,1,8,0:0:0:0:
296,348,102562,2,0,P|331:342|367:320,1,75
448,288,102930,1,0,0:0:0:0:
452,108,103298,1,0,0:0:0:0:
284,40,103666,1,8,0:0:0:0:
280,220,104034,2,0,P|314:210|351:176,1,75
189,193,104403,6,0,P|200:268|261:310,1,150
444,252,105139,2,0,P|465:181|452:108,1,150,8|0,0:0|0:0,0:0:0:0:
364,84,105691,2,0,P|329:98|288:96,1,75
124,32,106243,1,0,0:0:0:0:
20,180,106612,1,8,0:0:0:0:
184,256,106980,2,0,P|203:213|200:171,1,75
111,308,107348,6,0,P|67:324|38:356,1,75
191,345,107716,2,0,P|280:356|336:324,1,150,2|8,0:0|0:0,0:0:0:0:
452,196,108452,1,2,0:0:0:0:
408,120,108636,2,0,P|360:116|328:100,1,75,8|0,0:0|0:0,0:0:0:0:
272,40,109005,2,0,P|240:44|200:68,1,75,8|2,0:0|0:0,0:0:0:0:
56,232,109557,1,8,0:0:0:0:
8,44,109925,1,8,0:0:0:0:
144,164,110293,70,0,P|180:176|216:172,1,75
288,116,110661,2,0,P|360:96|424:128,2,150,0|8|0,0:0|0:0|0:0,0:0:0:0:
216,172,111582,2,0,P|196:208|196:248,1,75
340,348,112134,1,0,0:0:0:0:
496,256,112502,1,8,0:0:0:0:
339,168,112870,2,0,P|303:178|277:204,1,75,0|8,0:0|0:0,0:0:0:0:
428,168,113238,6,0,P|472:156|496:128,1,75
424,76,113607,2,0,P|360:40|284:52,1,150,0|8,0:0|0:0,0:0:0:0:
112,84,114343,2,0,P|104:128|84:160,1,75
32,224,114711,1,0,0:0:0:0:
164,344,115079,1,0,0:0:0:0:
344,324,115447,1,8,0:0:0:0:
264,164,115816,2,0,P|232:144|192:140,1,75,0|8,0:0|0:0,0:0:0:0:
299,253,116184,6,0,P|350:200|347:120,1,150,4|0,0:0|0:0,0:0:0:0:
156,52,116920,2,0,P|104:104|107:184,1,150,8|0,0:0|0:0,0:0:0:0:
124,264,117472,2,0,P|86:265|49:248,1,75
196,140,118025,1,0,0:0:0:0:
348,240,118393,2,0,P|428:220|456:152,1,150,10|0,0:0|0:0,0:0:0:0:
460,76,118945,6,0,P|424:72|388:52,1,75,8|2,0:0|0:0,0:0:0:0:
304,84,119313,2,0,P|288:116|288:160,1,75,8|2,0:0|0:0,0:0:0:0:
144,44,119865,2,0,P|76:64|40:132,1,150,8|0,0:0|0:0,0:0:0:0:
8,216,120418,2,0,P|52:220|88:208,1,75,8|2,0:0|0:0,0:0:0:0:
132,140,120786,1,8,0:0:0:0:
188,212,120970,1,8,0:0:0:0:
272,240,121154,1,8,0:0:0:0:
360,224,121338,1,8,0:0:0:0:
284,60,121706,1,8,0:0:0:0:
104,220,122074,70,0,B|108:256|96:288|96:288|120:320|164:328,1,150,2|0,0:0|0:0,0:0:0:0:
348,328,122811,2,0,B|392:320|416:288|416:288|404:256|408:220,1,150,8|0,0:0|0:0,0:0:0:0:
420,132,123363,1,0,0:0:0:0:
368,60,123547,1,0,0:0:0:0:
200,128,123915,1,0,0:0:0:0:
188,308,124283,2,0,P|256:335|324:308,1,150,8|0,0:0|0:0,0:0:0:0:
460,108,125020,6,0,B|460:68|428:44|428:44|392:60|356:40,1,150,2|0,0:0|0:0,0:0:0:0:
156,40,125756,2,0,B|120:60|84:44|84:44|52:68|52:108,1,150,8|0,0:0|0:0,0:0:0:0:
88,192,126308,1,0,0:0:0:0:
88,280,126492,1,0,0:0:0:0:
256,348,126860,1,0,0:0:0:0:
424,280,127229,1,8,0:0:0:0:
256,212,127597,1,0,0:0:0:0:
392,92,127965,6,0,P|256:34|124:92,1,300,2|8,0:0|0:0,0:0:0:0:
220,244,129069,2,0,L|296:244,1,75
324,160,129438,2,0,P|255:132|188:160,1,150
188,328,130174,2,0,P|256:355|324:328,1,150,8|0,0:0|0:0,0:0:0:0:
412,312,130726,1,8,0:0:0:0:
392,224,130910,6,0,P|396:188|420:152,1,75,2|8,0:0|0:0,0:0:0:0:
488,100,131278,1,0,0:0:0:0:
316,48,131647,2,0,P|236:44|176:76,1,150,8|0,0:0|0:0,0:0:0:0:
120,148,132199,1,8,0:0:0:0:
168,224,132383,2,0,P|196:195|208:163,1,75,2|8,0:0|0:0,0:0:0:0:
80,228,132751,1,0,0:0:0:0:
128,304,132935,1,0,0:0:0:0:
212,336,133119,1,8,0:0:0:0:
300,336,133303,1,0,0:0:0:0:
384,304,133487,1,0,0:0:0:0:
432,228,133671,1,0,0:0:0:0:
448,132,133855,6,0,P|408:80|316:76,1,150,4|0,0:0|0:0,0:0:0:0:
208,224,134592,1,8,0:0:0:0:
220,28,134960,1,0,0:0:0:0:
324,192,135328,1,0,0:0:0:0:
144,116,135696,1,0,0:0:0:0:
88,300,136064,2,0,P|148:344|224:340,1,150,8|0,0:0|0:0,0:0:0:0:
408,240,136801,6,0,P|416:164|372:108,1,150,4|0,0:0|0:0,0:0:0:0:
320,296,137537,2,0,P|378:339|451:330,2,150,8|0|0,0:0|0:0|0:0,0:0:0:0:
232,120,138642,1,0,0:0:0:0:
48,180,139010,1,8,0:0:0:0:
192,312,139378,1,0,0:0:0:0:
308,156,139746,6,0,P|304:76|248:36,1,150,4|0,0:0|0:0,0:0:0:0:
108,168,140482,1,8,0:0:0:0:
280,264,140851,1,0,0:0:0:0:
424,132,141219,1,0,0:0:0:0:
252,36,141588,1,0,0:0:0:0:
204,228,141955,2,0,P|208:308|264:348,1,150,8|0,0:0|0:0,0:0:0:0:
348,328,142507,6,0,P|372:312|424:296,1,75,8|0,0:0|0:0,0:0:0:0:
464,224,142875,2,0,P|480:188|484:148,1,75,8|0,0:0|0:0,0:0:0:0:
320,48,143428,2,0,P|256:37|178:69,1,150,8|0,0:0|0:0,0:0:0:0:
108,124,143980,2,0,P|124:156|132:204,1,75,8|0,0:0|0:0,0:0:0:0:
120,284,144348,2,0,P|148:308|196:320,1,75,8|0,0:0|0:0,0:0:0:0:
376,280,144900,1,8,0:0:0:0:
212,172,145269,1,8,0:0:0:0:
360,44,145637,70,0,P|432:52|480:108,1,150,4|0,0:0|0:0,0:0:0:0:
448,300,146373,2,0,P|408:348|324:332,2,150,8|0|0,0:0|0:0|0:0,0:0:0:0:
480,108,147477,1,0,0:0:0:0:
292,52,147846,1,8,0:0:0:0:
160,196,148214,2,0,P|168:232|202:268,1,75
196,124,148582,6,0,P|130:121|80:184,1,150,4|0,0:0|0:0,0:0:0:0:
200,336,149318,1,8,0:0:0:0:
380,264,149686,1,0,0:0:0:0:
224,144,150055,2,0,P|176:192|224:240,1,150
380,120,150791,1,8,0:0:0:0:
200,48,151159,1,0,0:0:0:0:
76,196,151527,6,0,P|104:260|176:284,1,150,4|0,0:0|0:0,0:0:0:0:
340,188,152264,1,8,0:0:0:0:
176,80,152632,1,0,0:0:0:0:
336,80,153000,1,0,0:0:0:0:
172,188,153368,1,0,0:0:0:0:
336,284,153736,2,0,P|405:262|436:196,1,150,8|0,0:0|0:0,0:0:0:0:
472,112,154288,6,0,P|440:96|404:60,1,75,8|0,0:0|0:0,0:0:0:0:
324,48,154657,2,0,P|292:68|248:76,1,75,8|0,0:0|0:0,0:0:0:0:
64,44,155209,1,8,0:0:0:0:
148,220,155577,1,0,0:0:0:0:
152,132,155761,2,0,P|112:138|77:170,1,75,8|0,0:0|0:0,0:0:0:0:
56,244,156129,1,8,0:0:0:0:
112,316,156313,1,8,0:0:0:0:
204,344,156497,1,8,0:0:0:0:
308,324,156682,1,8,0:0:0:0:
404,136,157050,1,8,0:0:0:0:
212,52,157418,70,0,P|136:40|72:76,1,150,4|0,0:0|0:0,0:0:0:0:
8,252,158154,1,8,0:0:0:0:
204,336,158522,1,0,0:0:0:0:
344,200,158890,1,2,0:0:0:0:
156,149,159259,1,0,0:0:0:0:
8,252,159627,2,0,P|52:312|128:328,1,150,8|0,0:0|0:0,0:0:0:0:
212,312,160179,1,0,0:0:0:0:
300,332,160363,6,0,P|376:344|440:308,1,150,4|0,0:0|0:0,0:0:0:0:
504,132,161099,1,8,0:0:0:0:
308,48,161467,1,0,0:0:0:0:
168,184,161835,1,2,0:0:0:0:
356,232,162204,1,0,0:0:0:0:
224,88,162572,2,0,P|152:76|84:112,1,150,8|0,0:0|0:0,0:0:0:0:
32,192,163124,1,0,0:0:0:0:
85,273,163308,6,0,P|151:307|224:296,1,150,4|0,0:0|0:0,0:0:0:0:
392,192,164045,2,0,L|240:192,2,150,8|0|2,0:0|0:0|0:0,0:0:0:0:
284,28,165149,1,0,0:0:0:0:
112,124,165517,2,0,P|84:192|112:260,1,150,8|0,0:0|0:0,0:0:0:0:
172,324,166070,1,0,0:0:0:0:
260,344,166254,6,0,P|336:324|376:268,1,150,4|0,0:0|0:0,0:0:0:0:
284,116,166990,2,0,P|208:136|168:192,1,150,8|0,0:0|0:0,0:0:0:0:
376,268,167726,1,2,0:0:0:0:
304,68,168095,1,8,0:0:0:0:
364,136,168279,1,0,0:0:0:0:
452,156,168463,1,8,0:0:0:0:
216,48,168831,1,0,0:0:0:0:
196,240,169199,70,0,P|270:246|329:201,1,150,4|0,0:0|0:0,0:0:0:0:
216,48,169935,2,0,P|141:41|82:86,1,150,8|0,0:0|0:0,0:0:0:0:
56,168,170488,1,0,0:0:0:0:
56,256,170672,1,2,0:0:0:0:
236,336,171040,1,0,0:0:0:0:
428,300,171408,2,8,P|472:256|496:168,1,150,8|0,0:0|0:0,0:0:0:0:
316,144,172144,6,0,P|242:138|183:183,1,150,4|0,0:0|0:0,0:0:0:0:
296,336,172880,2,0,P|371:343|428:300,1,150,8|0,0:0|0:0,0:0:0:0:
456,216,173433,1,0,0:0:0:0:
456,128,173617,1,2,0:0:0:0:
276,48,173985,1,0,0:0:0:0:
84,84,174353,2,0,P|40:128|32:216,1,150,8|0,0:0|0:0,0:0:0:0:
172,348,175090,6,0,L|328:328,1,150,4|0,0:0|0:0,0:0:0:0:
476,212,175826,1,8,0:0:0:0:
364,52,176194,1,0,0:0:0:0:
292,108,176378,2,0,P|288:148|264:180,1,75,0|2,0:0|0:0,0:0:0:0:
308,256,176746,2,0,P|344:276|388:276,1,75
216,120,177299,2,0,P|144:136|100:196,1,150,8|0,0:0|0:0,0:0:0:0:
84,292,177851,6,0,P|120:316|164:320,1,75,2|0,0:0|0:0,0:0:0:0:
244,344,178219,2,0,P|284:324|308:288,1,75,2|0,0:0|0:0,0:0:0:0:
336,208,178587,1,0,0:0:0:0:
416,260,178771,2,0,P|460:276|500:272,2,75,8|0|0,0:0|0:0|0:0,0:0:0:0:
336,208,179323,1,2,0:0:0:0:
360,112,179508,2,0,L|324:44,1,75,8|0,0:0|0:0,0:0:0:0:
187,45,179876,2,0,L|152:112,1,75
100,204,180244,1,8,0:0:0:0:
276,316,180612,1,8,0:0:0:0:
306,109,180980,6,0,P|259:52|187:45,1,150,4|0,0:0|0:0,0:0:0:0:
68,184,181717,2,0,P|107:236|188:248,1,150,8|0,0:0|0:0,0:0:0:0:
264,200,182269,1,0,0:0:0:0:
208,132,182453,1,2,0:0:0:0:
380,224,182821,1,0,0:0:0:0:
188,248,183189,1,8,0:0:0:0:
328,116,183557,1,0,0:0:0:0:
292,308,183925,6,0,P|348:344|432:336,1,150,4|0,0:0|0:0,0:0:0:0:
464,145,184662,2,0,P|401:107|328:116,1,150,8|0,0:0|0:0,0:0:0:0:
260,176,185214,1,0,0:0:0:0:
328,236,185398,1,2,0:0:0:0:
252,72,185766,1,0,0:0:0:0:
88,144,186134,1,8,0:0:0:0:
164,308,186502,1,0,0:0:0:0:
328,236,186871,5,4,0:0:0:0:
148,216,187239,1,0,0:0:0:0:
316,316,187607,2,0,P|388:292|412:224,1,150,8|0,0:0|0:0,0:0:0:0:
272,116,188343,1,2,0:0:0:0:
447,76,188711,1,0,0:0:0:0:
256,32,189079,2,0,P|196:79|197:151,1,150,8|0,0:0|0:0,0:0:0:0:
192,240,189632,6,0,P|228:236|264:208,1,75,8|0,0:0|0:0,0:0:0:0:
304,292,190000,2,0,P|332:312|378:320,1,75,8|0,0:0|0:0,0:0:0:0:
408,144,190552,1,8,0:0:0:0:
212,152,190921,1,0,0:0:0:0:
124,140,191105,2,0,P|92:120|76:88,1,75,8|0,0:0|0:0,0:0:0:0:
160,60,191473,1,8,0:0:0:0:
212,152,191657,1,0,0:0:0:0:
312,180,191841,1,0,0:0:0:0:
408,144,192025,1,8,0:0:0:0:
160,60,192393,1,0,0:0:0:0:
212,296,192761,70,0,P|268:328|360:324,1,150,4|0,0:0|0:0,0:0:0:0:
480,200,193498,2,0,P|500:136|456:68,1,150,8|0,0:0|0:0,0:0:0:0:
376,40,194050,1,0,0:0:0:0:
300,88,194234,1,2,0:0:0:0:
128,136,194602,1,0,0:0:0:0:
212,296,194970,1,8,0:0:0:0:
384,248,195338,1,0,0:0:0:0:
300,88,195707,6,0,P|244:56|152:60,1,150,4|0,0:0|0:0,0:0:0:0:
20,168,196443,2,0,P|20:232|69:310,1,150,8|0,0:0|0:0,0:0:0:0:
148,336,196995,1,0,0:0:0:0:
236,316,197179,1,2,0:0:0:0:
276,68,197547,1,0,0:0:0:0:
132,172,197916,1,8,0:0:0:0:
380,212,198284,1,0,0:0:0:0:
464,180,198468,6,0,P|494:158|511:125,1,75,8|0,0:0|0:0,0:0:0:0:
380,212,198836,2,0,P|382:249|403:280,1,75,8|0,0:0|0:0,0:0:0:0:
372,56,199388,2,0,P|300:40|228:68,1,150,8|0,0:0|0:0,0:0:0:0:
164,124,199941,2,0,P|193:147|229:155,1,75,8|0,0:0|0:0,0:0:0:0:
148,40,200309,2,0,P|112:52|88:80,1,75,8|0,0:0|0:0,0:0:0:0:
24,268,200861,2,0,P|68:316|156:328,1,150,8|0,0:0|0:0,0:0:0:0:
199,247,201413,22,0,P|165:234|128:235,1,75,8|0,0:0|0:0,0:0:0:0:
280,304,201781,2,0,P|308:316|352:316,1,75,8|0,0:0|0:0,0:0:0:0:
424,252,202150,2,0,P|420:213|429:177,1,75,0|8,0:0|0:0,0:0:0:0:
492,104,202518,1,0,0:0:0:0:
404,84,202702,1,8,0:0:0:0:
316,64,202886,1,0,0:0:0:0:
228,44,203070,1,8,0:0:0:0:
148,100,203254,1,8,0:0:0:0:
116,200,203438,1,8,0:0:0:0:
168,300,203622,1,8,0:0:0:0:
276,352,203806,1,8,0:0:0:0:
428,164,204174,5,8,0:0:0:0:
204,72,204543,38,0,P|124:72|68:116,1,150,4|0,0:0|0:0,0:0:0:0:
232,288,205279,2,0,P|316:288|364:248,1,150,8|0,0:0|0:0,0:0:0:0:
380,160,205831,1,0,0:0:0:0:
352,76,206015,1,0,0:0:0:0:
148,248,206383,1,0,0:0:0:0:
364,248,206752,1,8,0:0:0:0:
160,76,207120,1,0,0:0:0:0:
192,160,207304,6,0,P|232:160|272:148,1,75,8|2,0:0|0:0,0:0:0:0:
104,144,207672,2,0,P|64:144|24:156,1,75,8|0,0:0|0:0,0:0:0:0:
84,336,208224,2,0,P|156:360|224:328,1,150,8|0,0:0|0:0,0:0:0:0:
260,228,208776,2,0,P|221:238|185:260,1,75,8|0,0:0|0:0,0:0:0:0:
300,352,209144,2,0,P|338:341|374:319,1,75,8|0,0:0|0:0,0:0:0:0:
316,132,209697,1,8,0:0:0:0:
400,100,209881,1,0,0:0:0:0:
240,48,210065,1,0,0:0:0:0:
156,80,210249,1,0,0:0:0:0:
92,188,210433,6,0,P|104:264|160:304,1,150,2|0,0:0|0:0,0:0:0:0:
351,304,211169,2,0,P|410:260|420:188,1,150,8|0,0:0|0:0,0:0:0:0:
400,100,211722,1,0,0:0:0:0:
332,40,211906,2,0,P|256:48|232:112,1,150
280,274,212642,2,0,P|251:339|180:344,1,150,8|0,0:0|0:0,0:0:0:0:
96,308,213194,6,0,P|80:272|56:244,1,75,8|2,0:0|0:0,0:0:0:0:
24,160,213563,2,0,P|36:124|68:84,1,75,8|0,0:0|0:0,0:0:0:0:
248,44,214115,1,8,0:0:0:0:
184,228,214483,1,0,0:0:0:0:
344,340,214851,2,0,P|384:328|420:304,1,75,8|0,0:0|0:0,0:0:0:0:
460,200,215219,1,0,0:0:0:0:
380,112,215403,1,0,0:0:0:0:
260,128,215587,1,8,0:0:0:0:
484,40,215956,1,0,0:0:0:0:
244,24,216324,70,0,P|184:60|156:132,1,150,2|0,0:0|0:0,0:0:0:0:
156,328,217060,1,8,0:0:0:0:
320,220,217428,1,0,0:0:0:0:
324,308,217612,1,0,0:0:0:0:
404,348,217796,2,0,P|468:312|492:240,1,150,2|0,0:0|0:0,0:0:0:0:
420,60,218533,1,8,0:0:0:0:
240,136,218901,2,0,P|247:179|268:208,1,75
268,56,219269,6,0,P|192:68|156:132,1,150,2|0,0:0|0:0,0:0:0:0:
244,328,220005,2,0,P|320:316|356:252,1,150,8|0,0:0|0:0,0:0:0:0:
336,168,220558,1,0,0:0:0:0:
400,108,220742,1,2,0:0:0:0:
172,48,221110,1,0,0:0:0:0:
112,276,221478,1,8,0:0:0:0:
340,336,221846,2,0,P|376:328|404:296,1,75
380,208,222214,6,0,P|400:108|432:76,1,150,2|0,0:0|0:0,0:0:0:0:
240,32,222951,2,0,P|164:44|108:92,1,150,8|0,0:0|0:0,0:0:0:0:
32,136,223503,2,0,P|40:168|40:212,1,75,8|0,0:0|0:0,0:0:0:0:
120,248,223871,2,0,P|140:284|192:308,1,75,8|0,0:0|0:0,0:0:0:0:
360,316,224423,2,0,P|368:236|332:176,1,150,8|0,0:0|0:0,0:0:0:0:
260,128,224976,1,8,0:0:0:0:
164,144,225160,101,2,0:0:0:0:
348,84,225528,1,0,0:0:0:0:
296,288,225896,1,8,0:0:0:0:
236,56,226264,1,0,0:0:0:0:
164,144,226448,2,0,P|132:160|92:160,1,75,8|0,0:0|0:0,0:0:0:0:
252,212,226816,2,0,P|288:200|328:208,1,75,8|0,0:0|0:0,0:0:0:0:
468,292,227185,2,0,P|436:308|396:308,1,75,0|8,0:0|0:0,0:0:0:0:
348,36,227737,1,0,0:0:0:0:
176,88,228105,22,0,B|124:116|108:176|108:176|124:188|152:192,1,150,4|0,0:0|0:0,0:0:0:0:
360,112,228841,2,0,B|332:60|272:44|272:44|260:60|256:88,1,150,8|0,0:0|0:0,0:0:0:0:
336,296,229578,2,0,B|388:268|404:208|404:208|388:196|360:192,1,150
152,272,230314,2,0,B|180:324|240:340|240:340|252:324|256:296,1,150,8|0,0:0|0:0,0:0:0:0:
176,128,231050,102,0,P|100:128|44:176,1,150,2|0,0:0|0:0,0:0:0:0:
188,308,231787,2,0,P|256:336|324:308,1,150,8|0,0:0|0:0,0:0:0:0:
466,173,232523,2,0,P|409:127|336:128,1,150
144,248,233259,1,8,0:0:0:0:
368,248,233627,1,0,0:0:0:0:
344,56,233996,6,0,P|256:56|240:108,1,150,2|0,0:0|0:0,0:0:0:0:
272,280,234732,2,0,P|237:341|168:328,1,150,8|0,0:0|0:0,0:0:0:0:
72,176,235468,2,0,B|64:160|64:144|64:144|116:116|180:136,1,150
334,248,236204,2,0,B|396:268|448:240|448:240|448:224|440:208,1,150,8|0,0:0|0:0,0:0:0:0:
340,60,236941,102,0,P|272:84|244:152,1,150,2|0,0:0|0:0,0:0:0:0:
100,184,237677,2,0,P|154:230|227:221,1,150,8|0,0:0|0:0,0:0:0:0:
328,332,238413,2,0,P|341:261|296:202,1,150
132,124,239150,1,8,0:0:0:0:
132,320,239518,1,0,0:0:0:0:
328,332,239886,102,0,P|408:304|440:244,1,150,2|0,0:0|0:0,0:0:0:0:
324,92,240622,2,0,P|252:104|216:168,1,150,8|0,0:0|0:0,0:0:0:0:
183,332,241359,2,0,P|113:311|73:250,1,150
187,92,242095,2,0,P|259:103|295:166,1,150,8|0,0:0|0:0,0:0:0:0:
380,316,242831,6,0,P|436:268|456:196,1,150,2|0,0:0|0:0,0:0:0:0:
328,48,243568,2,0,P|256:28|184:48,1,150,8|0,0:0|0:0,0:0:0:0:
55,196,244304,2,0,P|75:267|132:316,1,150
256,188,245040,2,0,L|256:38,1,150,8|0,0:0|0:0,0:0:0:0:
88,136,245777,101,2,0:0:0:0:
160,316,246145,1,0,0:0:0:0:
352,316,246513,1,8,0:0:0:0:
424,136,246881,1,0,0:0:0:0:
188,200,247249,1,0,0:0:0:0:
324,200,247618,1,0,0:0:0:0:
320,64,247986,2,0,P|256:31|192:64,1,150,8|0,0:0|0:0,0:0:0:0:
108,172,248538,1,0,0:0:0:0:
108,172,248722,6,0,P|116:244|176:284,1,150,2|0,0:0|0:0,0:0:0:0:
335,284,249274,1,0,0:0:0:0:
335,284,249458,2,0,P|395:244|404:172,1,150,2|0,0:0|0:0,0:0:0:0:
256,40,250195,1,2,0:0:0:0:
88,108,250563,1,0,0:0:0:0:
256,176,250931,1,8,0:0:0:0:
424,108,251299,1,0,0:0:0:0:
228,108,251667,22,0,P|184:160|208:232,1,150,4|0,0:0|0:0,0:0:0:0:
364,320,252404,1,8,0:0:0:0:
464,172,252772,2,0,P|408:216|332:208,1,150,0|2,0:0|0:0,0:0:0:0:
256,164,253324,1,0,0:0:0:0:
180,116,253508,2,0,P|107:108|49:152,1,150,0|8,0:0|0:0,0:0:0:0:
132,312,254244,1,0,0:0:0:0:
220,292,254429,6,0,P|257:277|276:248,1,75,8|0,0:0|0:0,0:0:0:0:
314,124,254797,2,0,P|279:135|256:164,1,75,8|0,0:0|0:0,0:0:0:0:
364,308,255349,1,8,0:0:0:0:
392,116,255717,2,0,P|352:56|280:56,1,150,0|2,0:0|0:0,0:0:0:0:
255,164,256269,2,0,P|291:152|314:124,1,75
152,48,256822,1,8,0:0:0:0:
24,172,257190,1,0,0:0:0:0:
104,212,257374,102,0,P|141:209|176:196,1,75,8|0,0:0|0:0,0:0:0:0:
228,268,257742,2,0,P|239:303|264:332,1,75,8|0,0:0|0:0,0:0:0:0:
440,300,258294,1,8,0:0:0:0:
476,124,258662,2,0,P|440:60|364:60,1,150,0|2,0:0|0:0,0:0:0:0:
284,84,259215,1,0,0:0:0:0:
236,160,259399,2,0,P|228:228|248:308,2,150,0|8|0,0:0|0:0|0:0,0:0:0:0:
324,164,260319,6,0,P|356:156|388:116,1,75,8|0,0:0|0:0,0:0:0:0:
192,84,260687,2,0,P|160:92|128:132,1,75,8|0,0:0|0:0,0:0:0:0:
144,316,261239,1,8,0:0:0:0:
340,240,261608,2,0,P|364:156|360:92,1,150,0|2,0:0|0:0,0:0:0:0:
288,144,262160,2,0,P|312:168|360:180,1,75
192,84,262712,2,0,P|120:56|52:80,1,150,8|0,0:0|0:0,0:0:0:0:
32,164,263264,1,8,0:0:0:0:
120,160,263448,6,0,P|108:196|112:236,1,75,0|8,0:0|0:0,0:0:0:0:
148,316,263817,1,0,0:0:0:0:
332,256,264185,1,8,0:0:0:0:
300,64,264553,1,0,0:0:0:0:
120,160,264921,2,0,P|160:184|192:188,1,75,2|0,0:0|0:0,0:0:0:0:
104,80,265289,2,0,P|44:128|48:196,1,150,0|8,0:0|0:0,0:0:0:0:
192,320,266026,1,0,0:0:0:0:
224,236,266210,6,0,P|204:200|204:156,2,75,8|0|8,0:0|0:0|0:0,0:0:0:0:
300,284,266762,1,0,0:0:0:0:
476,244,267130,1,8,0:0:0:0:
460,64,267498,1,0,0:0:0:0:
280,88,267866,1,2,0:0:0:0:
340,156,268050,2,0,P|374:168|424:164,1,75
192,68,268603,2,0,P|109:66|55:114,1,150,8|0,0:0|0:0,0:0:0:0:
76,196,269155,102,0,P|76:235|59:275,1,75,8|0,0:0|0:0,0:0:0:0:
144,308,269523,2,0,P|181:311|217:301,1,75,8|0,0:0|0:0,0:0:0:0:
400,232,270075,1,8,0:0:0:0:
308,60,270444,1,0,0:0:0:0:
128,132,270812,2,0,P|88:128|60:108,2,75,2|0|0,0:0|0:0|0:0,0:0:0:0:
308,60,271548,1,8,0:0:0:0:
208,228,271916,1,0,0:0:0:0:
148,296,272100,6,0,P|116:314|71:315,1,75,8|0,0:0|0:0,0:0:0:0:
236,312,272468,1,8,0:0:0:0:
324,332,272653,2,0,P|400:312|448:252,1,150,0|8,0:0|0:0,0:0:0:0:
304,156,273389,1,0,0:0:0:0:
276,72,273573,1,8,0:0:0:0:
188,52,273757,2,0,P|112:72|64:272,1,300,0|8,0:0|0:0,0:0:0:0:
256,192,275966,12,0,287011,0:0:0:0:
192,60,296569,38,0,P|136:60|88:88,1,112.500004291535,2|0,0:0|0:0,0:0:0:0:
96,212,297505,2,0,L|104:268,1,56.2500021457673,2|0,0:0|0:0,0:0:0:0:
172,216,297973,2,0,L|160:144,1,56.2500021457673
224,296,298441,2,0,P|272:332|324:332,1,112.500004291535
456,180,299377,2,0,P|408:144|344:148,1,112.500004291535,2|0,0:0|0:0,0:0:0:0:
322,332,300313,86,0,P|378:332|426:304,1,112.500004291535
416,148,301236,2,0,L|408:92,1,56.2500021457673,2|0,0:0|0:0,0:0:0:0:
340,168,301697,2,0,L|352:244,1,56.2500021457673
288,88,302159,2,0,P|240:52|176:56,1,112.500004291535
132,208,302851,2,0,P|187:184|215:127,2,112.500004291535,2|0|0,0:0|0:0|0:0,0:0:0:0:
128,116,304005,5,0,0:0:0:0:
272,348,304440,1,0,0:0:0:0:
344,332,304657,1,0,0:0:0:0:
392,276,304875,1,2,0:0:0:0:
380,108,305310,2,0,P|419:125|447:120,1,56.2500021457673
324,60,305745,2,0,P|292:40|216:40,1,112.500004291535
76,128,306615,2,0,L|40:240,1,112.500004291535
144,336,307486,21,2,0:0:0:0:
412,296,308418,2,0,P|440:244|432:184,1,112.500004291535,2|0,0:0|0:0,0:0:0:0:
376,84,309273,1,0,0:0:0:0:
232,56,309741,2,0,P|212:80|200:112,1,56.2500021457673,2|0,0:0|0:0,0:0:0:0:
196,176,310209,1,2,0:0:0:0:
300,280,310677,2,0,P|282:301|259:317,1,56.2500021457673,2|0,0:0|0:0,0:0:0:0:
372,264,311145,102,0,P|428:244|468:168,1,112.500004291535
384,76,312026,2,0,P|344:44|280:44,1,112.500004291535,2|0,0:0|0:0,0:0:0:0:
220,80,312687,1,0,0:0:0:0:
214,247,312907,2,0,P|247:203|248:148,1,112.500004291535
112,48,313788,1,2,0:0:0:0:
40,200,314228,2,0,P|48:244|60:268,1,56.2500021457673
100,312,314669,85,0,0:0:0:0:
268,316,315109,2,0,P|340:304|384:272,1,112.500004291535,0|2,0:0|0:0,0:0:0:0:
368,116,315990,1,0,0:0:0:0:
404,180,316211,1,0,0:0:0:0:
408,52,316431,2,0,P|354:41|307:70,1,112.500004291535
159,191,317312,2,0,P|213:202|260:173,1,112.500004291535,2|0,0:0|0:0,0:0:0:0:
84,96,318193,5,0,0:0:0:0:
36,260,318634,2,0,B|40:284|56:296|56:296|96:280|108:308|128:304,1,112.500004291535,0|2,0:0|0:0,0:0:0:0:
288,268,319515,1,0,0:0:0:0:
356,296,319735,1,0,0:0:0:0:
428,280,319955,2,0,P|480:248|496:188,1,112.500004291535
388,72,320836,2,0,P|336:104|320:164,1,112.500004291535,2|0,0:0|0:0,0:0:0:0:
192,76,321702,22,0,P|136:52|80:64,1,112.500004291535
48,200,322565,1,2,0:0:0:0:
200,316,322997,1,0,0:0:0:0:
48,200,323429,1,2,0:0:0:0:
248,128,323861,1,0,0:0:0:0:
228,204,324293,1,0,0:0:0:0:
268,272,324725,1,0,0:0:0:0:
440,336,325143,70,0,P|464:276|460:224,1,112.500004291535
424,88,326023,2,0,P|456:96|484:92,1,56.2500021457673,2|0,0:0|0:0,0:0:0:0:
360,52,326463,2,0,P|332:44|300:48,1,56.2500021457673
236,164,326903,2,0,P|296:160|328:120,1,112.500004291535
180,40,327783,1,2,0:0:0:0:
80,176,328223,2,0,P|64:152|56:124,1,56.2500021457673
72,252,328664,22,0,P|88:308|132:336,1,112.500004291535
296,304,329573,2,0,P|328:252|320:204,1,112.500004291535,2|0,0:0|0:0,0:0:0:0:
256,168,330254,1,0,0:0:0:0:
192,203,330482,2,0,P|185:258|216:304,1,112.500004291535
380,335,331391,2,0,P|426:305|440:252,1,112.500004291535,2|0,0:0|0:0,0:0:0:0:
420,84,332300,102,0,B|360:96|372:56|304:68,1,112.500004291535
244,96,332960,1,0,0:0:0:0:
232,168,333180,2,0,P|212:216|152:240,1,112.500004291535,2|0,0:0|0:0,0:0:0:0:
88,220,333840,1,0,0:0:0:0:
60,152,334060,2,0,P|80:104|140:80,1,112.500004291535
159,240,334940,2,0,P|182:289|233:310,1,112.500004291535,2|0,0:0|0:0,0:0:0:0:
308,308,335601,1,0,0:0:0:0:
368,264,335821,22,0,P|396:212|404:152,1,112.500004291535
268,44,336690,2,0,P|240:96|232:156,1,112.500004291535,2|0,0:0|0:0,0:0:0:0:
260,216,337342,2,0,P|292:216|320:208,1,56.2500021457673
172,68,337994,2,0,P|140:68|112:76,1,56.2500021457673
56,116,338429,2,0,P|57:175|80:230,1,112.500004291535,2|0,0:0|0:0,0:0:0:0:
212,344,339398,69,2,0:3:0:0:
376,304,339830,1,0,0:0:0:0:
444,148,340262,2,0,P|392:92|344:80,1,112.500004291535,2|0,0:0|0:0,0:0:0:0:
300,36,340911,2,0,P|285:67|288:100,1,56.2500021457673
212,348,341560,2,0,P|226:316|224:284,1,56.2500021457673
152,302,341992,2,0,P|101:280|68:236,1,112.500004291535,2|0,0:0|0:0,0:0:0:0:
56,160,342641,1,0,0:0:0:0:
88,92,342857,5,0,0:0:0:0:
284,112,343329,2,0,P|324:120|344:116,1,56.2500021457673
252,40,343801,2,0,P|212:80|216:148,1,112.500004291535,2|0,0:0|0:0,0:0:0:0:
256,192,344510,1,0,0:0:0:0:
302,250,344746,2,0,P|299:305|260:344,1,112.500004291535
108,272,345690,2,0,P|111:217|150:178,1,112.500004291535,2|0,0:0|0:0,0:0:0:0:
328,180,346555,5,0,0:0:0:0:
228,48,346994,2,0,P|195:47|169:60,2,56.2500021457673,0|0|2,0:0|0:0|0:0,0:0:0:0:
400,152,347872,2,0,P|432:152|458:139,2,56.2500021457673
236,156,348751,1,0,0:0:0:0:
76,212,349190,2,0,P|120:300|200:320,1,168.750006437302,2|0,0:0|0:0,0:0:0:0:
256,192,350068,12,0,353803,0:0:0:0:
368,344,357498,6,0,P|440:304|424:176,1,225.000008583069
86,177,359258,2,0,P|59:279|144:344,1,225.000008583069
256,48,361019,1,0,0:0:0:0:
184,84,361239,86,0,P|133:134|135:211,3,150,2|2|2|0,0:0|0:0|0:0|0:0,0:0:0:0:
264,308,363733,2,0,P|314:257|312:180,1,150,2|0,0:0|0:0,0:0:0:0:
144,40,364668,22,0,P|72:80|88:208,1,225.000008583069
425,206,366482,2,0,P|452:104|368:40,1,225.000008583069
256,336,368297,1,0,0:0:0:0:
328,300,368488,86,0,P|378:249|376:172,3,150,2|2|2|0,0:0|0:0|0:0|0:0,0:0:0:0:
248,76,370982,2,0,P|197:126|199:203,1,150,2|0,0:0|0:0,0:0:0:0:
328,304,371995,22,0,P|404:288|460:232,1,150,2|0,0:0|0:0,0:0:0:0:
256,216,373361,2,0,L|256:260,1,37.5
184,304,373816,2,0,P|107:288|52:232,1,150
184,128,375182,2,0,L|220:136,1,37.5
136,64,375637,86,0,P|104:132|140:192,1,150,2|0,0:0|0:0,0:0:0:0:
372,191,377459,2,0,P|407:128|375:63,1,150,2|0,0:0|0:0,0:0:0:0:
136,88,379280,6,0,B|101:107|86:165|86:165|116:188|120:216,1,150,2|0,0:0|0:0,0:0:0:0:
220,316,380647,2,0,L|268:308,1,37.5
340,292,381102,2,0,B|374:272|389:214|389:214|360:192|356:164,1,150
256,64,382469,2,0,L|208:72,1,37.5
136,92,382923,86,0,B|144:119|164:136|164:136|164:192|104:208,1,150
256,64,384290,2,0,L|304:72,1,37.5
376,92,384745,2,0,B|368:119|348:136|348:136|348:192|408:208,1,150,2|0,0:0|0:0,0:0:0:0:
216,132,386566,38,0,P|140:140|100:196,1,150,2|0,0:0|0:0,0:0:0:0:
216,336,387990,2,0,P|216:320|224:296,1,37.5
296,332,388464,2,0,P|372:324|412:268,1,150
296,128,389888,2,0,P|296:144|288:168,2,37.5
268,48,390482,86,0,P|340:56|380:120,1,150,2|0,0:0|0:0,0:0:0:0:
244,336,392267,2,0,P|172:328|132:264,1,150,2|0,0:0|0:0,0:0:0:0:
188,72,394053,6,0,B|216:56|244:64|256:44|256:44|268:64|296:56|324:72,1,150,2|0,0:3|0:0,0:0:0:0:
368,216,395419,2,0,P|372:236|372:256,1,37.5
324,312,395874,2,0,B|296:328|268:320|256:340|256:340|244:320|216:328|188:312,1,150
124,176,397240,2,0,P|128:156|140:136,2,37.5
172,236,397865,86,0,P|96:248|48:192,2,150,2|0|2,0:0|0:0|0:0,0:0:0:0:
256,72,400090,2,0,L|304:84,1,37.5
328,124,400535,2,0,L|376:112,1,37.5,2|0,0:0|0:0,0:0:0:0:
336,284,401370,38,0,P|369:299|412:292,2,75,2|0|0,0:0|0:0|0:0,0:0:0:0:
136,184,402736,2,0,P|132:200|132:220,1,37.5
175,284,403191,2,0,P|142:299|100:292,2,75
324,168,404557,2,0,P|338:156|356:150,2,37.5
424,188,405127,86,0,P|424:116|360:72,1,150,2|0,0:0|0:0,0:0:0:0:
146,72,406910,2,0,P|88:115|88:188,1,150,2|0,0:0|0:0,0:0:0:0:
292,308,408693,6,0,P|256:336|228:340,2,75,2|0|0,0:3|0:0|0:0,0:0:0:0:
204,152,410088,2,0,P|184:148|168:136,1,37.5
220,76,410553,2,0,P|256:48|284:44,2,75
308,232,411948,2,0,P|328:236|344:248,2,37.5
296,308,412530,86,0,P|380:312|416:260,1,150,2|0,0:0|0:0,0:0:0:0:
288,104,413808,2,0,P|312:100|328:88,1,37.5
216,76,414273,2,0,P|132:72|96:124,1,150,2|0,0:0|0:0,0:0:0:0:
148,308,416133,38,0,P|220:300|256:236,1,150,2|0,0:0|0:0,0:0:0:0:
416,212,417528,2,0,L|412:252,1,37.5
363,308,417993,2,0,P|291:300|256:236,1,150
204,108,419388,2,0,P|220:116|239:118,1,37.5
244,44,419853,86,0,P|190:31|128:96,1,150,2|0,0:0|0:0,0:0:0:0:
256,192,421715,12,0,426365,0:0:0:0:
