osu file format v14

[General]
AudioFilename: audio.mp3
AudioLeadIn: 0
PreviewTime: 64006
Countdown: 0
SampleSet: Soft
StackLeniency: 0.7
Mode: 0
LetterboxInBreaks: 0
WidescreenStoryboard: 1

[Editor]
Bookmarks: 12820,38420,51020,64006,89600
DistanceSpacing: 0.4
BeatDivisor: 4
GridSize: 8
TimelineZoom: 4.699996

[Metadata]
Title:Olikros (Short ver.)
TitleUnicode:Olikros (Short ver.)
Artist:Delector
ArtistUnicode:Delector
Creator:TheAngry
Version:Insane
Source:
Tags:complete minorsonek -harpuia- yShadowXOP_ ChuuritsuTv
BeatmapID:1662891
BeatmapSetID:773652

[Difficulty]
HPDrainRate:5
CircleSize:4
OverallDifficulty:8
ApproachRate:9
SliderMultiplier:2
SliderTickRate:1

[Events]
//Background and Video events
0,0,"wallhaven-268004.png",0,0
//Break Periods
//Storyboard Layer 0 (Background)
//Storyboard Layer 1 (Fail)
//Storyboard Layer 2 (Pass)
//Storyboard Layer 3 (Foreground)
//Storyboard Sound Samples

[TimingPoints]
56,400,4,2,1,45,1,0
12856,-200,4,2,1,45,0,0
60856,-100,4,2,1,45,0,0
62056,-50,4,2,1,45,0,0
64056,-66.6666666666667,4,2,1,45,0,1

[Colours]
Combo1 : 75,200,255
Combo2 : 255,75,200
Combo3 : 165,255,25
Combo4 : 153,0,255
Combo5 : 255,230,25

[HitObjects]
206,146,12856,6,0,P|174:140|142:139,2,50,2|0|0,0:1|0:0|0:0,0:0:0:0:
259,244,13456,1,0,0:0:0:0:
340,168,13656,2,0,L|328:63,1,100,2|0,0:1|0:0,0:0:0:0:
411,240,14456,6,0,P|436:243|465:243,2,50,2|0|0,0:1|0:0|0:0,0:0:0:0:
314,294,15056,1,0,0:0:0:0:
245,206,15256,2,0,P|176:203|140:214,1,100,2|0,0:1|0:0,0:0:0:0:
326,81,16056,6,0,L|319:135,2,50,2|0|0,0:1|0:0|0:0,0:0:0:0:
414,14,16656,1,0,0:0:0:0:
437,122,16856,2,0,L|425:231,1,100,2|0,0:1|0:0,0:0:0:0:
245,201,17656,6,0,B|268:193|268:193|296:190,2,50,2|0|0,0:1|0:0|0:0,0:0:0:0:
209,307,18256,1,0,0:0:0:0:
112,257,18456,2,0,L|100:147,1,100,2|0,0:1|0:0,0:0:0:0:
333,93,19256,6,0,P|301:92|276:83,1,50,2|0,0:1|0:0,0:0:0:0:
177,164,19656,2,0,P|205:148|231:144,1,50,0|0,0:0|0:0,0:0:0:0:
331,217,20056,2,0,L|343:317,1,100,2|0,0:1|0:0,0:0:0:0:
131,260,20856,6,0,L|180:264,1,50,2|0,0:1|0:0,0:0:0:0:
294,195,21256,2,0,L|245:199,1,50,0|0,0:0|0:0,0:0:0:0:
119,156,21656,2,0,P|98:103|111:59,1,100,2|0,0:1|0:0,0:0:0:0:
373,177,22456,6,0,P|342:177|316:172,1,50,2|0,0:1|0:0,0:0:0:0:
369,50,22856,2,0,P|399:50|425:54,1,50,0|0,0:0|0:0,0:0:0:0:
482,167,23256,2,0,L|470:275,1,100,2|0,0:1|0:0,0:0:0:0:
193,237,24056,6,0,P|218:236|245:232,1,50,2|0,0:1|0:0,0:0:0:0:
323,128,24456,2,0,P|298:129|271:133,1,50,0|0,0:0|0:0,0:0:0:0:
388,194,24856,2,0,L|400:304,1,100,2|0,0:1|0:0,0:0:0:0:
156,182,25656,6,0,L|161:131,2,50,2|0|0,0:1|0:0|0:0,0:0:0:0:
257,279,26256,1,0,0:0:0:0:
306,147,26456,2,0,P|338:135|404:129,1,100,2|0,0:1|0:0,0:0:0:0:
189,321,27256,6,0,P|154:324|132:324,2,50,2|0|0,0:1|0:0|0:0,0:0:0:0:
229,186,27856,1,0,0:0:0:0:
327,286,28056,2,0,B|352:298|352:298|429:301,1,100,2|0,0:1|0:0,0:0:0:0:
341,101,28856,6,0,L|348:48,2,50,2|0|0,0:1|0:0|0:0,0:0:0:0:
225,180,29456,1,0,0:0:0:0:
92,132,29656,2,0,L|73:21,1,100,2|0,0:1|0:0,0:0:0:0:
189,276,30456,6,0,P|216:279|249:279,2,50,2|0|0,0:1|0:0|0:0,0:0:0:0:
313,211,31056,1,0,0:0:0:0:
195,137,31256,2,0,B|175:115|175:115|156:40,1,100,2|0,0:1|0:0,0:0:0:0:
386,224,32056,6,0,P|354:229|317:227,1,50,2|0,0:1|0:0,0:0:0:0:
225,127,32456,2,0,P|245:152|262:185,1,50,0|0,0:0|0:0,0:0:0:0:
209,313,32856,2,0,B|177:324|177:324|105:319,1,100,2|0,0:1|0:0,0:0:0:0:
144,73,33656,6,0,L|154:128,1,50,2|0,0:1|0:0,0:0:0:0:
247,240,34056,2,0,L|257:185,1,50,0|0,0:0|0:0,0:0:0:0:
351,74,34456,2,0,P|396:73|466:97,1,100,2|0,0:1|0:0,0:0:0:0:
262,308,35256,6,0,L|269:254,1,50,2|0,0:1|0:0,0:0:0:0:
131,194,35656,2,0,L|138:248,1,50,0|0,0:0|0:0,0:0:0:0:
278,187,36056,2,0,L|291:85,1,100,2|0,0:1|0:0,0:0:0:0:
418,263,36856,6,0,P|385:267|360:266,1,50,2|0,0:1|0:0,0:0:0:0:
245,181,37256,2,0,P|269:181|294:184,1,50,0|0,0:0|0:0,0:0:0:0:
189,292,37656,2,0,P|139:312|81:303,1,100,2|0,0:1|0:0,0:0:0:0:
300,140,38256,5,2,0:1:0:0:
303,133,38356,1,2,0:1:0:0:
306,126,38456,2,0,P|393:96|317:211,1,350,6|0,0:0|0:0,0:0:0:0:
126,136,40056,6,0,B|90:123|41:132|21:162|21:162|31:198|77:219|125:209|125:209|153:227|208:229|244:201,1,350,2|0,0:1|0:0,0:0:0:0:
283,77,41656,6,0,B|301:48|343:32|378:49|396:72|403:105|401:128|380:154|354:164|354:164|386:178|386:178|386:227|424:261,1,350,2|0,0:1|0:0,0:0:0:0:
271,163,43256,6,0,B|243:150|214:151|214:151|230:175|231:211|221:244|201:268|154:274|95:267|79:225|81:161|120:133,1,350,2|0,0:1|0:0,0:0:0:0:
281,57,44856,6,0,B|311:72|354:67|354:67|373:104|416:116|416:116|381:125|360:157|361:202|391:234|454:232|477:195,1,350,2|0,0:1|0:0,0:0:0:0:
306,197,46456,6,0,B|299:169|307:137|307:137|299:169|275:188|275:188|225:157|168:180|168:180|101:205|55:165,1,350,2|0,0:1|0:0,0:0:0:0:
123,95,48056,6,0,L|119:125,2,16.6666666666667,2|2|2,0:1|0:1|0:1,0:0:0:0:
217,266,49531,2,0,L|213:243,3,18.75,0|0|0|0,0:0|0:0|0:0|0:0,0:0:0:0:
321,176,51056,5,0,0:0:0:0:
321,176,51156,1,0,0:0:0:0:
321,176,51256,2,0,P|381:176|431:157,1,100,6|0,0:0|0:0,0:0:0:0:
254,102,51856,1,2,0:0:0:0:
197,228,52056,2,0,L|205:282,1,50,2|0,0:0|0:0,0:0:0:0:
339,316,52456,2,0,L|347:262,1,50,2|0,0:0|0:0,0:0:0:0:
140,167,52856,6,0,P|107:164|38:181,1,100,2|0,0:0|0:0,0:0:0:0:
109,317,53456,1,2,0:0:0:0:
230,209,53656,2,0,L|288:213,1,50,2|0,0:0|0:0,0:0:0:0:
439,335,54056,2,0,L|406:286,1,50,2|0,0:0|0:0,0:0:0:0:
158,130,54456,6,0,L|270:138,1,100,2|0,0:0|0:0,0:0:0:0:
122,55,55056,1,2,0:0:0:0:
295,210,55256,2,0,P|325:215|352:215,1,50,2|0,0:0|0:0,0:0:0:0:
454,111,55656,2,0,P|423:113|397:120,1,50,2|0,0:0|0:0,0:0:0:0:
467,301,56056,6,0,L|447:196,1,100,2|0,0:0|0:0,0:0:0:0:
338,105,56656,1,2,0:0:0:0:
313,251,56856,2,0,P|283:259|256:262,1,50,2|0,0:0|0:0,0:0:0:0:
126,185,57256,2,0,P|156:187|183:194,1,50,2|0,0:0|0:0,0:0:0:0:
90,379,57656,6,0,L|96:349,1,25,6|0,0:0|0:0,0:0:0:0:
138,264,57856,1,0,0:0:0:0:
198,347,58056,2,0,L|211:319,1,25,2|0,0:0|0:0,0:0:0:0:
274,248,58256,1,0,0:0:0:0:
472,187,58456,6,0,L|466:157,1,25,2|0,0:0|0:0,0:0:0:0:
424,72,58656,1,0,0:0:0:0:
364,155,58856,2,0,L|351:127,1,25,2|0,0:0|0:0,0:0:0:0:
288,56,59056,1,0,0:0:0:0:
70,144,59256,6,0,L|45:148,2,25,2|0|0,0:0|0:0|0:0,0:0:0:0:
122,245,59656,2,0,L|102:260,2,25,2|0|0,0:0|0:0|0:0,0:0:0:0:
236,308,60056,6,0,L|226:331,2,25,2|0|0,0:0|0:0|0:0,0:0:0:0:
368,319,60456,2,0,L|371:343,2,25,2|0|0,0:0|0:0|0:0,0:0:0:0:
420,130,60856,5,2,0:0:0:0:
401,159,60956,1,0,0:0:0:0:
370,176,61056,1,0,0:0:0:0:
335,181,61156,1,0,0:0:0:0:
300,177,61256,5,0,0:0:0:0:
266,165,61356,1,0,0:0:0:0:
235,148,61456,1,0,0:0:0:0:
204,131,61556,1,0,0:0:0:0:
169,124,61656,5,0,0:0:0:0:
134,129,61756,1,0,0:0:0:0:
105,145,61856,1,0,0:0:0:0:
85,173,61956,1,0,0:0:0:0:
74,212,62056,6,0,P|63:251|47:280,2,50,0|0|0,0:0|0:0|0:0,0:0:0:0:
177,246,62256,2,0,P|186:285|187:318,2,50,0|0|0,0:0|0:0|0:0,0:0:0:0:
256,192,62456,12,2,63656,0:0:0:0:
298,233,64056,6,0,P|359:221|410:187,1,75.0000028610231,2|0,0:0|0:0,0:0:0:0:
304,109,64256,2,0,P|243:121|192:155,1,75.0000028610231,0|0,0:0|0:0,0:0:0:0:
