osu file format v14

[General]
AudioFilename: audio.mp3
AudioLeadIn: 0
PreviewTime: 64006
Countdown: 0
SampleSet: Soft
StackLeniency: 0.7
Mode: 0
LetterboxInBreaks: 0
WidescreenStoryboard: 0

[Editor]
DistanceSpacing: 0.5
BeatDivisor: 8
GridSize: 8
TimelineZoom: 4.399998

[Metadata]
Title:Olikros (Short ver.)
TitleUnicode:Olikros (Short ver.)
Artist:Delector
ArtistUnicode:Delector
Creator:TheAngry
Version:Completion
Source:
Tags:complete minorsonek -harpuia- yShadowXOP_ ChuuritsuTv
BeatmapID:1626256
BeatmapSetID:773652

[Difficulty]
HPDrainRate:5
CircleSize:4.2
OverallDifficulty:9
ApproachRate:9.7
SliderMultiplier:1.8
SliderTickRate:1

[Events]
//Background and Video events
0,0,"wallhaven-268004.png",0,0
//Break Periods
//Storyboard Layer 0 (Background)
//Storyboard Layer 1 (Fail)
//Storyboard Layer 2 (Pass)
//Storyboard Layer 3 (Foreground)
//Storyboard Sound Samples

[TimingPoints]
56,400,4,2,1,30,1,0
12856,-200,4,2,1,30,0,0
19256,-166.666666666667,4,2,1,30,0,0
25656,-142.857142857143,4,2,1,30,0,0
32056,-125,4,2,1,30,0,0
38456,-200,4,2,1,30,0,0
39956,-200,4,2,1,5,0,0
40056,-200,4,2,1,30,0,0
41556,-200,4,2,1,5,0,0
41656,-200,4,2,1,30,0,0
43156,-200,4,2,1,5,0,0
43256,-200,4,2,1,30,0,0
44756,-200,4,2,1,5,0,0
44856,-200,4,2,1,30,0,0
46356,-200,4,2,1,5,0,0
46456,-200,4,2,1,30,0,0
47956,-200,4,2,1,5,0,0
48056,-100,4,2,1,30,0,0
50856,-50,4,2,1,30,0,0
51189,-50,4,2,1,5,0,0
51256,-200,4,2,1,30,0,0
51806,-200,4,2,1,5,0,0
51856,-200,4,2,1,30,0,0
52006,-200,4,2,1,5,0,0
52056,-200,4,2,1,30,0,0
52406,-200,4,2,1,5,0,0
52456,-200,4,2,1,30,0,0
52806,-200,4,2,1,5,0,0
52856,-200,4,2,1,30,0,0
53406,-200,4,2,1,5,0,0
53456,-200,4,2,1,30,0,0
53606,-200,4,2,1,5,0,0
53656,-200,4,2,1,30,0,0
54006,-200,4,2,1,5,0,0
54056,-200,4,2,1,30,0,0
54406,-200,4,2,1,5,0,0
54456,-200,4,2,1,30,0,0
55006,-200,4,2,1,5,0,0
55056,-200,4,2,1,30,0,0
55206,-200,4,2,1,5,0,0
55256,-200,4,2,1,30,0,0
55606,-200,4,2,1,5,0,0
55656,-200,4,2,1,30,0,0
56006,-200,4,2,1,5,0,0
56056,-200,4,2,1,30,0,0
56606,-200,4,2,1,5,0,0
56656,-200,4,2,1,30,0,0
56806,-200,4,2,1,5,0,0
56856,-200,4,2,1,30,0,0
57206,-200,4,2,1,5,0,0
57256,-200,4,2,1,30,0,0
57606,-200,4,2,1,5,0,0
57656,-200,4,2,1,30,0,0
57806,-200,4,2,1,5,0,0
57856,-200,4,2,1,30,0,0
58206,-200,4,2,1,5,0,0
58256,-200,4,2,1,30,0,0
58606,-200,4,2,1,5,0,0
58656,-200,4,2,1,30,0,0
59006,-200,4,2,1,5,0,0
59056,-200,4,2,1,30,0,0
59406,-200,4,2,1,5,0,0
59456,-200,4,2,1,30,0,0
59806,-200,4,2,1,5,0,0
59856,-200,4,2,1,30,0,0
60206,-200,4,2,1,5,0,0
60256,-200,4,2,1,30,0,0
60606,-200,4,2,1,5,0,0
60656,-200,4,2,1,30,0,0
60856,-100,4,2,1,30,0,0
62206,-100,4,2,1,5,0,0
62256,-100,4,2,1,30,0,0
62406,-100,4,2,1,5,0,0
62456,-133.333333333333,4,2,1,30,0,0
64056,-66.6666666666667,4,2,1,30,0,1
66456,-50,4,2,1,30,0,1
67256,-66.6666666666667,4,2,1,30,0,1
69656,-50,4,2,1,30,0,1
70456,-66.6666666666667,4,2,1,30,0,1
72856,-50,4,2,1,30,0,1
73656,-66.6666666666667,4,2,1,30,0,1
75256,-50,4,2,1,30,0,1
76856,-66.6666666666667,4,2,1,30,0,1
79256,-50,4,2,1,30,0,1
80056,-66.6666666666667,4,2,1,30,0,1
82456,-50,4,2,1,30,0,1
83256,-50,4,2,1,30,0,1
85656,-50,4,2,1,30,0,1
86456,-66.6666666666667,4,2,1,30,0,1
88056,-50,4,2,1,30,0,1
89656,-50,4,2,1,30,0,0

[HitObjects]
143,154,12856,6,0,P|165:153|206:162,1,45,2|0,0:1|0:0,0:0:0:0:
249,245,13256,2,0,P|270:249|312:248,1,45,0|0,0:0|0:0,0:0:0:0:
363,213,13656,1,2,0:1:0:0:
363,213,14056,1,0,0:0:0:0:
363,213,14456,6,0,L|370:160,1,45,2|0,0:1|0:0,0:0:0:0:
271,123,14856,2,0,L|264:70,1,45,0|0,0:0|0:0,0:0:0:0:
197,34,15256,1,2,0:1:0:0:
197,34,15656,1,0,0:0:0:0:
197,34,16056,6,0,P|157:37|147:40,1,45,2|0,0:1|0:0,0:0:0:0:
72,112,16456,2,0,P|111:119|121:119,1,45,0|0,0:0|0:0,0:0:0:0:
204,109,16856,1,2,0:1:0:0:
204,109,17256,1,0,0:0:0:0:
204,109,17656,6,0,L|212:164,1,45,2|0,0:1|0:0,0:0:0:0:
307,204,18056,2,0,L|299:259,1,45,0|0,0:0|0:0,0:0:0:0:
236,300,18456,1,2,0:1:0:0:
236,300,18856,1,0,0:0:0:0:
236,300,19256,6,0,P|194:303|163:300,1,53.9999983520508,2|0,0:1|0:0,0:0:0:0:
74,222,19656,2,0,P|100:221|127:224,1,53.9999983520508,0|0,0:0|0:0,0:0:0:0:
216,180,20056,1,2,0:1:0:0:
218,169,20456,1,0,0:0:0:0:
221,158,20856,6,0,L|286:154,1,53.9999983520508,2|0,0:1|0:0,0:0:0:0:
395,93,21256,2,0,L|330:89,1,53.9999983520508,0|0,0:0|0:0,0:0:0:0:
259,38,21656,1,2,0:1:0:0:
257,48,22056,1,0,0:0:0:0:
255,58,22456,6,0,P|213:66|189:66,1,53.9999983520508,2|0,0:1|0:0,0:0:0:0:
84,136,22856,2,0,P|126:139|149:145,1,53.9999983520508,0|0,0:0|0:0,0:0:0:0:
209,208,23256,1,2,0:1:0:0:
219,209,23656,1,0,0:0:0:0:
229,210,24056,6,0,L|237:271,1,53.9999983520508,2|0,0:1|0:0,0:0:0:0:
360,319,24456,2,0,L|367:265,1,53.9999983520508,0|0,0:0|0:0,0:0:0:0:
416,182,24856,1,2,0:1:0:0:
419,192,25256,1,0,0:0:0:0:
422,203,25656,6,0,P|452:211|491:211,1,62.9999980773926,2|0,0:1|0:0,0:0:0:0:
333,275,26056,2,0,P|302:277|265:291,1,62.9999980773926,0|0,0:0|0:0,0:0:0:0:
173,350,26456,1,2,0:1:0:0:
148,345,26856,1,0,0:0:0:0:
123,339,27256,6,0,L|109:254,1,62.9999980773926,2|0,0:1|0:0,0:0:0:0:
240,174,27656,2,0,L|254:259,1,62.9999980773926,0|0,0:0|0:0,0:0:0:0:
338,308,28056,1,2,0:1:0:0:
362,311,28456,1,0,0:0:0:0:
386,315,28856,6,0,P|416:311|449:300,1,62.9999980773926,2|0,0:1|0:0,0:0:0:0:
331,184,29256,2,0,P|319:213|312:243,1,62.9999980773926,0|0,0:0|0:0,0:0:0:0:
231,322,29656,1,2,0:1:0:0:
205,319,30056,1,0,0:0:0:0:
180,313,30456,6,0,L|166:234,1,62.9999980773926,2|0,0:1|0:0,0:0:0:0:
310,167,30856,2,0,L|296:246,1,62.9999980773926,0|0,0:0|0:0,0:0:0:0:
283,342,31256,1,2,0:1:0:0:
302,326,31656,1,0,0:0:0:0:
323,307,32056,6,0,P|358:295|402:299,1,72,2|0,0:1|0:0,0:0:0:0:
203,249,32456,2,0,P|166:251|124:236,1,72,0|0,0:0|0:0,0:0:0:0:
35,155,32856,1,2,0:1:0:0:
31,111,33256,1,0,0:0:0:0:
28,67,33656,6,0,L|117:74,1,72,2|0,0:1|0:0,0:0:0:0:
277,152,34056,2,0,L|188:145,1,72,0|0,0:0|0:0,0:0:0:0:
312,71,34456,1,2,0:1:0:0:
354,76,34856,1,0,0:0:0:0:
396,83,35256,6,0,P|416:113|424:157,1,72,2|0,0:1|0:0,0:0:0:0:
231,127,35656,2,0,P|246:94|281:65,1,72,0|0,0:0|0:0,0:0:0:0:
315,192,36056,1,2,0:1:0:0:
273,203,36456,1,0,0:0:0:0:
230,211,36856,6,0,L|217:285,1,72,2|0,0:1|0:0,0:0:0:0:
405,335,37256,2,0,L|392:264,1,72,0|0,0:0|0:0,0:0:0:0:
314,159,37656,1,2,0:1:0:0:
314,159,38056,1,0,0:0:0:0:
294,148,38156,1,0,0:0:0:0:
262,141,38256,1,2,0:1:0:0:
219,146,38356,1,2,0:1:0:0:
119,183,38456,6,0,B|90:188|71:186|71:186|105:188|150:211|171:260|171:260|205:298|289:302|324:259,1,337.5,6|0,0:0|0:0,0:0:0:0:
386,148,40056,6,0,B|412:123|417:86|408:52|381:29|338:22|305:34|281:52|267:96|290:136|290:136|259:127|233:131,1,330,2|0,0:1|0:0,0:0:0:0:
484,222,41656,6,0,B|448:252|438:291|436:303|436:303|438:291|448:252|434:205|434:205|464:173|477:127|481:115|481:115|480:143|491:170,1,337.5,2|0,0:1|0:0,0:0:0:0:
236,263,43256,6,0,B|221:277|205:295|203:324|213:352|236:364|266:366|286:359|306:343|313:316|309:286|295:264|277:253|254:241|247:220|242:196|248:176|255:153,1,337.5,2|0,0:1|0:0,0:0:0:0:
114,31,44856,6,0,B|87:32|61:46|61:46|96:72|132:82|186:82|222:74|250:61|269:49|269:49|246:65|229:77|218:100,1,337.5,2|0,0:1|0:0,0:0:0:0:
371,231,46456,6,0,P|401:198|302:228,1,337.5,2|0,0:1|0:0,0:0:0:0:
381,325,48056,6,0,P|397:329|417:330,2,22.5,2|0|0,0:1|0:0|0:0,0:0:0:0:
196,146,49531,6,0,P|172:148|157:151,3,33.75,0|0|0|0,0:0|0:0|0:0|0:0,0:0:0:0:
163,150,50922,6,0,B|204:177|288:182|327:157|327:157|302:140|249:135,1,240,0|0,0:0|0:0,0:0:0:0:
96,220,51256,6,0,L|105:344,1,123.75,6|0,0:0|0:0,0:0:0:0:
219,277,51856,2,0,L|177:280,1,33.75,2|0,0:0|0:0,0:0:0:0:
334,309,52056,2,0,P|375:308|414:296,1,78.75,2|0,0:0|0:0,0:0:0:0:
285,216,52456,2,0,P|322:234|363:239,1,78.75,2|0,0:0|0:0,0:0:0:0:
301,127,52856,6,0,P|338:164|409:160,1,123.75,2|0,0:0|0:0,0:0:0:0:
244,53,53456,2,0,L|203:48,1,33.75,2|0,0:0|0:0,0:0:0:0:
111,132,53656,2,0,L|121:210,1,78.75,2|0,0:0|0:0,0:0:0:0:
273,227,54056,2,0,L|263:305,1,78.75,2|0,0:0|0:0,0:0:0:0:
223,137,54456,6,0,P|286:126|345:153,1,123.75,2|0,0:0|0:0,0:0:0:0:
458,229,55056,2,0,L|419:230,1,33.75,2|0,0:0|0:0,0:0:0:0:
247,288,55256,2,0,P|271:297|329:293,1,78.75,2|0,0:0|0:0,0:0:0:0:
339,148,55656,2,0,P|315:139|257:143,1,78.75,2|0,0:0|0:0,0:0:0:0:
218,355,56056,6,0,P|264:370|347:363,1,123.75,2|0,0:0|0:0,0:0:0:0:
411,274,56656,2,0,L|406:237,1,33.75,2|0,0:0|0:0,0:0:0:0:
332,105,56856,2,0,L|344:188,1,78.75,2|0,0:0|0:0,0:0:0:0:
277,351,57256,2,0,L|265:268,1,78.75,2|0,0:0|0:0,0:0:0:0:
206,175,57656,6,0,P|187:173|169:173,1,33.75,6|0,0:0|0:0,0:0:0:0:
36,198,57856,1,0,0:0:0:0:
254,113,58056,2,0,P|236:106|218:101,1,33.75,2|0,0:0|0:0,0:0:0:0:
82,91,58256,1,0,0:0:0:0:
341,254,58456,6,0,P|360:252|378:252,1,33.75,2|0,0:0|0:0,0:0:0:0:
511,277,58656,1,0,0:0:0:0:
293,192,58856,2,0,P|311:185|329:180,1,33.75,2|0,0:0|0:0,0:0:0:0:
464,170,59056,1,0,0:0:0:0:
150,344,59256,6,0,L|110:340,1,33.75,2|0,0:0|0:0,0:0:0:0:
6,275,59456,1,0,0:0:0:0:
217,281,59656,2,0,L|179:266,1,33.75,2|0,0:0|0:0,0:0:0:0:
86,164,59856,1,0,0:0:0:0:
303,240,60056,6,0,L|270:216,1,33.75,2|0,0:0|0:0,0:0:0:0:
196,82,60256,1,0,0:0:0:0:
391,221,60456,2,0,L|365:189,1,33.75,2|0,0:0|0:0,0:0:0:0:
305,21,60656,1,0,0:0:0:0:
196,295,60856,5,2,0:0:0:0:
158,310,60956,1,0,0:0:0:0:
117,308,61056,1,0,0:0:0:0:
79,290,61156,1,0,0:0:0:0:
64,191,61256,5,0,0:0:0:0:
89,159,61356,1,0,0:0:0:0:
126,140,61456,1,0,0:0:0:0:
168,137,61556,1,0,0:0:0:0:
207,147,61656,6,0,P|227:151|256:151,1,45,0|0,0:0|0:0,0:0:0:0:
447,42,61856,2,0,P|426:43|398:50,1,45,0|0,0:0|0:0,0:0:0:0:
384,299,62056,6,0,L|382:275,2,22.5,0|0|0,0:0|0:0|0:0,0:0:0:0:
299,197,62256,6,0,L|297:221,2,22.5,0|0|0,0:0|0:0|0:0,0:0:0:0:
219,289,62456,6,0,B|222:261|209:226|186:207|186:207|231:218|289:200|313:122|271:53|187:49|143:104,1,371.250014162064,0|0,0:0|0:0,0:0:0:0:
39,162,63656,1,2,0:0:0:0:
39,162,64056,5,2,0:0:0:0:
28,208,64156,1,0,0:0:0:0:
32,255,64256,1,0,0:0:0:0:
59,293,64356,1,0,0:0:0:0:
100,315,64456,5,0,0:0:0:0:
109,297,64556,1,0,0:0:0:0:
120,280,64656,1,0,0:0:0:0:
134,265,64756,1,0,0:0:0:0:
222,243,64856,5,8,0:0:0:0:
269,244,64956,1,0,0:0:0:0:
316,247,65056,1,0,0:0:0:0:
363,250,65156,1,0,0:0:0:0:
410,252,65256,5,0,0:0:0:0:
404,232,65356,1,0,0:0:0:0:
398,212,65456,1,0,0:0:0:0:
393,192,65556,1,0,0:0:0:0:
461,137,65656,5,2,0:0:0:0:
501,113,65756,1,0,0:0:0:0:
512,67,65856,1,0,0:0:0:0:
491,24,65956,1,0,0:0:0:0:
445,12,66056,5,0,0:0:0:0:
430,25,66156,1,0,0:0:0:0:
411,33,66256,1,0,0:0:0:0:
391,39,66356,1,0,0:0:0:0:
283,47,66456,6,0,P|199:97|327:91,1,270,8|0,0:0|0:0,0:0:0:0:
145,21,66856,2,0,P|118:145|276:252,1,270,0|0,0:0|0:0,0:0:0:0:
365,321,67256,6,0,P|326:328|290:341,1,67.5000025749208,2|0,0:0|0:0,0:0:0:0:
448,262,67456,2,0,P|486:276|523:283,1,67.5000025749208,0|0,0:0|0:0,0:0:0:0:
400,84,67656,6,0,L|393:167,1,67.5000025749208,0|0,0:0|0:0,0:0:0:0:
299,336,67856,2,0,L|292:253,1,67.5000025749208,0|0,0:0|0:0,0:0:0:0:
208,121,68056,6,0,P|171:115|116:122,1,67.5000025749208,8|0,0:0|0:0,0:0:0:0:
327,146,68256,2,0,P|364:152|419:145,1,67.5000025749208,0|0,0:0|0:0,0:0:0:0:
168,196,68456,6,0,P|132:209|88:242,1,67.5000025749208,0|0,0:0|0:0,0:0:0:0:
365,71,68656,2,0,P|400:57|444:24,1,67.5000025749208,0|0,0:0|0:0,0:0:0:0:
295,231,68856,6,0,L|302:311,1,67.5000025749208,2|0,0:0|0:0,0:0:0:0:
168,196,69056,2,0,L|175:116,1,67.5000025749208,0|2,0:0|0:0,0:0:0:0:
347,360,69256,6,0,P|311:371|266:368,1,67.5000025749208,0|0,0:0|0:0,0:0:0:0:
129,69,69456,2,0,P|165:58|210:61,1,67.5000025749208,2|0,0:0|0:0,0:0:0:0:
149,236,69656,6,0,P|172:132|204:245,1,270,8|0,0:0|0:0,0:0:0:0:
87,284,70056,2,0,B|58:249|58:249|48:190,1,90,0|0,0:0|0:0,0:0:0:0:
316,166,70256,2,0,B|323:210|323:210|302:266,1,90,0|0,0:0|0:0,0:0:0:0:
97,122,70456,5,6,0:0:0:0:
138,98,70556,1,0,0:0:0:0:
184,87,70656,1,0,0:0:0:0:
231,91,70756,1,0,0:0:0:0:
274,109,70856,6,0,L|286:189,1,67.5000025749208,0|0,0:0|0:0,0:0:0:0:
426,346,71056,2,0,L|438:266,1,67.5000025749208,0|0,0:0|0:0,0:0:0:0:
490,129,71256,5,8,0:0:0:0:
459,93,71356,1,0,0:0:0:0:
414,78,71456,1,0,0:0:0:0:
366,81,71556,1,0,0:0:0:0:
324,103,71656,6,0,P|271:100|236:86,1,67.5000025749208,0|0,0:0|0:0,0:0:0:0:
51,217,71856,2,0,P|102:206|140:210,1,67.5000025749208,0|0,0:0|0:0,0:0:0:0:
287,308,72056,5,2,0:0:0:0:
333,315,72156,1,0,0:0:0:0:
379,305,72256,1,0,0:0:0:0:
415,275,72356,1,0,0:0:0:0:
436,232,72456,6,0,L|426:156,1,67.5000025749208,0|0,0:0|0:0,0:0:0:0:
239,60,72656,2,0,L|229:136,1,67.5000025749208,0|0,0:0|0:0,0:0:0:0:
511,235,72856,6,0,L|496:112,1,90,8|0,0:0|0:0,0:0:0:0:
166,40,73056,2,0,L|155:129,1,90,0|0,0:0|0:0,0:0:0:0:
444,75,73256,2,0,B|403:56|403:56|343:60,1,90,0|0,0:0|0:0,0:0:0:0:
191,212,73456,2,0,B|231:230|231:230|292:227,1,90,0|0,0:0|0:0,0:0:0:0:
468,173,73656,6,0,P|427:172|392:181,1,67.5000025749208,6|0,0:0|0:0,0:0:0:0:
251,315,73856,2,0,P|292:316|327:307,1,67.5000025749208,0|0,0:0|0:0,0:0:0:0:
422,98,74056,6,0,L|414:27,1,67.5000025749208,0|0,0:0|0:0,0:0:0:0:
271,160,74256,2,0,L|279:231,1,67.5000025749208,0|0,0:0|0:0,0:0:0:0:
167,324,74456,6,0,P|117:334|73:325,1,67.5000025749208,8|0,0:0|0:0,0:0:0:0:
271,160,74656,2,0,P|320:149|364:158,1,67.5000025749208,0|0,0:0|0:0,0:0:0:0:
124,257,74856,6,0,P|76:240|42:211,1,67.5000025749208,0|0,0:0|0:0,0:0:0:0:
314,223,75056,2,0,P|361:239|395:268,1,67.5000025749208,0|0,0:0|0:0,0:0:0:0:
126,172,75256,6,0,P|144:76|197:178,1,270,2|0,0:0|0:0,0:0:0:0:
48,57,75656,2,0,P|162:-4|291:74,1,270,0|0,0:0|0:0,0:0:0:0:
463,178,76056,6,0,L|358:169,1,90,8|0,0:0|0:0,0:0:0:0:
58,212,76256,2,0,L|163:203,1,90,0|0,0:0|0:0,0:0:0:0:
327,356,76456,2,0,B|331:310|331:310|307:248,1,90,0|0,0:0|0:0,0:0:0:0:
185,28,76656,2,0,B|181:74|181:74|205:136,1,90,0|0,0:0|0:0,0:0:0:0:
299,278,76856,5,6,0:0:0:0:
238,308,76956,1,0,0:0:0:0:
170,304,77056,1,0,0:0:0:0:
110,272,77156,1,0,0:0:0:0:
73,215,77256,5,0,0:0:0:0:
105,224,77356,1,0,0:0:0:0:
138,229,77456,1,0,0:0:0:0:
171,226,77556,1,0,0:0:0:0:
128,130,77656,5,8,0:0:0:0:
106,65,77756,1,0,0:0:0:0:
151,14,77856,1,0,0:0:0:0:
216,30,77956,1,0,0:0:0:0:
234,94,78056,5,0,0:0:0:0:
267,91,78156,1,0,0:0:0:0:
300,95,78256,1,0,0:0:0:0:
332,105,78356,1,0,0:0:0:0:
422,175,78456,5,2,0:0:0:0:
383,230,78556,1,0,0:0:0:0:
329,271,78656,1,0,0:0:0:0:
266,295,78756,1,0,0:0:0:0:
198,301,78856,5,0,0:0:0:0:
183,270,78956,1,0,0:0:0:0:
165,241,79056,1,0,0:0:0:0:
141,217,79156,1,0,0:0:0:0:
112,198,79256,6,0,P|99:94|185:164,1,270,8|0,0:0|0:0,0:0:0:0:
0,148,79656,2,0,P|61:35|219:51,1,270,0|0,0:0|0:0,0:0:0:0:
309,175,80056,5,2,0:0:0:0:
360,192,80156,1,0,0:0:0:0:
413,182,80256,1,0,0:0:0:0:
450,142,80356,1,0,0:0:0:0:
423,37,80456,5,0,0:0:0:0:
372,20,80556,1,0,0:0:0:0:
319,30,80656,1,0,0:0:0:0:
282,70,80756,1,0,0:0:0:0:
198,262,80856,6,0,P|158:272|110:271,1,67.5000025749208,8|0,0:0|0:0,0:0:0:0:
360,192,81056,2,0,P|401:192|447:206,1,67.5000025749208,0|0,0:0|0:0,0:0:0:0:
303,323,81256,5,0,0:0:0:0:
292,270,81356,1,0,0:0:0:0:
280,217,81456,1,0,0:0:0:0:
268,164,81556,1,0,0:0:0:0:
320,33,81656,6,0,L|338:129,1,67.5000025749208,2|0,0:0|0:0,0:0:0:0:
216,301,81856,2,0,L|198:205,1,67.5000025749208,0|2,0:0|0:0,0:0:0:0:
409,127,82056,6,0,P|449:127|493:137,1,67.5000025749208,0|0,0:0|0:0,0:0:0:0:
129,212,82256,2,0,P|89:212|45:202,1,67.5000025749208,2|0,0:0|0:0,0:0:0:0:
252,67,82456,6,0,P|355:102|237:113,1,270,8|0,0:0|0:0,0:0:0:0:
415,51,82856,2,0,B|429:95|429:95|421:163,1,90,0|0,0:0|0:0,0:0:0:0:
190,163,83056,2,0,B|176:119|176:119|184:51,1,90,0|0,0:0|0:0,0:0:0:0:
291,314,83256,5,6,0:0:0:0:
291,314,83356,1,0,0:0:0:0:
291,314,83456,2,0,P|236:293|204:262,1,90,0|0,0:0|0:0,0:0:0:0:
304,92,83656,2,0,P|313:150|302:193,1,90,0|0,0:0|0:0,0:0:0:0:
106,198,83856,2,0,P|151:160|194:148,1,90,0|0,0:0|0:0,0:0:0:0:
444,19,84056,5,8,0:0:0:0:
444,19,84156,1,0,0:0:0:0:
444,19,84256,2,0,L|343:10,1,90,0|0,0:0|0:0,0:0:0:0:
131,84,84456,2,0,L|232:75,1,90,0|0,0:0|0:0,0:0:0:0:
462,140,84656,2,0,L|361:131,1,90,0|0,0:0|0:0,0:0:0:0:
171,202,84856,5,2,0:0:0:0:
171,202,84956,1,0,0:0:0:0:
171,202,85056,2,0,P|168:255|183:293,1,90,0|0,0:0|0:0,0:0:0:0:
340,174,85256,2,0,P|295:144|255:138,1,90,0|0,0:0|0:0,0:0:0:0:
275,334,85456,2,0,P|322:310|347:278,1,90,0|0,0:0|0:0,0:0:0:0:
473,186,85656,6,0,B|427:177|427:177|346:197,1,90,8|0,0:0|0:0,0:0:0:0:
94,315,85856,2,0,B|140:311|140:311|213:271,1,90,0|0,0:0|0:0,0:0:0:0:
113,143,86056,2,0,L|122:251,1,90,0|0,0:0|0:0,0:0:0:0:
434,349,86256,2,0,L|425:241,1,90,0|0,0:0|0:0,0:0:0:0:
140,76,86456,6,0,P|93:75|37:111,1,67.5000025749208,6|0,0:0|0:0,0:0:0:0:
280,148,86656,2,0,P|327:149|383:113,1,67.5000025749208,0|0,0:0|0:0,0:0:0:0:
103,32,86856,6,0,P|56:31|0:67,1,67.5000025749208,0|0,0:0|0:0,0:0:0:0:
315,182,87056,2,0,P|362:183|418:147,1,67.5000025749208,0|0,0:0|0:0,0:0:0:0:
204,140,87256,5,8,0:0:0:0:
210,193,87356,1,0,0:0:0:0:
217,246,87456,1,0,0:0:0:0:
223,299,87556,1,0,0:0:0:0:
61,253,87656,5,0,0:0:0:0:
67,200,87756,1,0,0:0:0:0:
74,147,87856,1,0,0:0:0:0:
80,94,87956,1,0,0:0:0:0:
195,20,88056,6,0,B|286:40|385:32|385:32|342:39|299:69,1,270,2|0,0:0|0:0,0:0:0:0:
442,198,88456,2,0,P|433:121|385:219,1,270,0|0,0:0|0:0,0:0:0:0:
425,37,88856,2,0,P|380:33|322:57,1,90,8|0,0:0|0:0,0:0:0:0:
106,174,89056,2,0,B|148:189|148:189|211:182,1,90,0|0,0:0|0:0,0:0:0:0:
170,20,89256,2,0,L|158:122,1,90,0|0,0:0|0:0,0:0:0:0:
198,286,89456,1,0,0:0:0:0:
286,299,89556,1,0,0:0:0:0:
251,215,89656,5,4,0:0:0:0:
