osu file format v14

[General]
AudioFilename: audio.mp3
AudioLeadIn: 0
PreviewTime: -1
Countdown: 1
SampleSet: Soft
StackLeniency: 0.7
Mode: 0
LetterboxInBreaks: 0
SkinPreference:allah xd
WidescreenStoryboard: 0

[Editor]
DistanceSpacing: 1
BeatDivisor: 4
GridSize: 16
TimelineZoom: 1

[Metadata]
Title:Drop You Like
TitleUnicode:Drop You Like
Artist:Delax
ArtistUnicode:Delax
Creator:xWow
Version:asmr
Source:Trap Nation bruh
Tags:lol
BeatmapID:1155288
BeatmapSetID:545275

[Difficulty]
HPDrainRate:5
CircleSize:5
OverallDifficulty:10
ApproachRate:10
SliderMultiplier:1.4
SliderTickRate:1

[Events]
//Background and Video events
//Break Periods
2,40987,50120
2,53804,58628
//Storyboard Layer 0 (Background)
//Storyboard Layer 1 (Fail)
//Storyboard Layer 2 (Pass)
//Storyboard Layer 3 (Foreground)
//Storyboard Sound Samples

[TimingPoints]
5193.96909377576,6,4,2,0,100,1,0

[Colours]
Combo1 : 255,255,255
Combo2 : 128,0,64

[HitObjects]
240,64,7600,5,0,0:0:0:0:
64,256,7912,1,0,0:0:0:0:
304,320,8225,1,0,0:0:0:0:
432,224,8568,1,0,0:0:0:0:
256,112,8912,1,0,0:0:0:0:
96,192,9193,1,0,0:0:0:0:
128,336,9506,1,0,0:0:0:0:
336,352,9850,1,0,0:0:0:0:
400,224,10162,1,0,0:0:0:0:
224,64,10443,1,0,0:0:0:0:
96,256,10756,1,0,0:0:0:0:
304,352,11068,1,0,0:0:0:0:
464,240,11412,1,0,0:0:0:0:
144,32,11756,1,0,0:0:0:0:
96,256,12100,1,0,0:0:0:0:
320,288,12381,1,0,0:0:0:0:
352,144,12693,1,0,0:0:0:0:
176,64,13006,1,0,0:0:0:0:
128,208,13318,1,0,0:0:0:0:
304,256,13631,1,0,0:0:0:0:
320,144,13943,1,0,0:0:0:0:
176,96,14287,1,0,0:0:0:0:
144,240,14600,1,0,0:0:0:0:
320,272,14881,1,0,0:0:0:0:
304,160,15193,1,0,0:0:0:0:
144,112,15475,1,0,0:0:0:0:
128,272,15631,1,0,0:0:0:0:
272,288,15818,1,0,0:0:0:0:
304,208,16037,1,0,0:0:0:0:
336,144,16225,1,0,0:0:0:0:
224,64,16381,1,0,0:0:0:0:
192,64,16537,1,0,0:0:0:0:
96,192,16693,1,0,0:0:0:0:
144,240,16881,1,0,0:0:0:0:
320,288,17068,1,0,0:0:0:0:
416,160,17287,1,0,0:0:0:0:
368,80,17475,1,0,0:0:0:0:
160,48,17631,1,0,0:0:0:0:
80,160,17818,1,0,0:0:0:0:
32,32,20100,1,0,0:0:0:0:
64,16,20162,1,0,0:0:0:0:
96,64,20225,1,0,0:0:0:0:
64,96,20287,1,0,0:0:0:0:
48,80,20318,1,0,0:0:0:0:
64,80,20350,1,0,0:0:0:0:
48,96,20412,1,0,0:0:0:0:
144,112,20443,2,0,L|192:128,6,35
80,96,20475,1,0,0:0:0:0:
160,112,20506,1,0,0:0:0:0:
128,112,20537,1,0,0:0:0:0:
112,96,20600,1,0,0:0:0:0:
112,80,20631,1,0,0:0:0:0:
144,48,20662,1,0,0:0:0:0:
144,32,20693,1,0,0:0:0:0:
144,32,20756,1,0,0:0:0:0:
176,64,20787,1,0,0:0:0:0:
176,64,20818,2,0,L|384:144,2,210
144,112,20850,1,0,0:0:0:0:
176,48,20881,1,0,0:0:0:0:
192,16,20943,1,0,0:0:0:0:
192,80,20975,1,0,0:0:0:0:
176,96,21006,1,0,0:0:0:0:
128,144,21037,1,0,0:0:0:0:
48,128,21068,1,0,0:0:0:0:
48,64,21131,1,0,0:0:0:0:
96,64,21162,1,0,0:0:0:0:
112,112,21193,1,0,0:0:0:0:
128,112,21225,2,0,L|432:208,1,315
160,160,21287,1,0,0:0:0:0:
224,128,21318,1,0,0:0:0:0:
224,80,21350,1,0,0:0:0:0:
240,112,21412,1,0,0:0:0:0:
192,160,21443,1,0,0:0:0:0:
160,176,21475,1,0,0:0:0:0:
224,176,21506,2,0,B|192:288|176:256|160:192|144:192,5,140
208,128,21568,1,0,0:0:0:0:
144,48,21600,1,0,0:0:0:0:
112,48,21631,1,0,0:0:0:0:
64,16,21662,1,0,0:0:0:0:
48,16,21725,1,0,0:0:0:0:
16,32,21756,1,0,0:0:0:0:
16,32,21881,1,0,0:0:0:0:
16,80,21912,1,0,0:0:0:0:
16,112,21975,1,0,0:0:0:0:
16,96,22006,1,0,0:0:0:0:
64,80,22037,1,0,0:0:0:0:
80,112,22068,1,0,0:0:0:0:
80,160,22131,1,0,0:0:0:0:
128,128,22162,1,0,0:0:0:0:
96,80,22193,1,0,0:0:0:0:
128,64,22225,1,0,0:0:0:0:
112,112,22318,1,0,0:0:0:0:
160,144,22350,1,0,0:0:0:0:
160,64,22412,1,0,0:0:0:0:
208,128,22443,1,0,0:0:0:0:
176,144,22475,1,0,0:0:0:0:
176,192,22506,1,0,0:0:0:0:
176,192,22568,2,0,L|288:64,2,140
192,48,22600,1,0,0:0:0:0:
240,64,22631,1,0,0:0:0:0:
208,128,22693,1,0,0:0:0:0:
224,160,22725,1,0,0:0:0:0:
256,112,22756,1,0,0:0:0:0:
256,48,22818,1,0,0:0:0:0:
272,96,22850,1,0,0:0:0:0:
272,48,22881,2,0,L|432:128,2,175
272,160,22943,1,0,0:0:0:0:
304,112,22975,1,0,0:0:0:0:
320,144,23037,1,0,0:0:0:0:
272,176,23068,1,0,0:0:0:0:
428,126,23131,2,0,B|448:208|496:240|496:256|384:352|288:368|208:320|192:288,3,420
336,208,23162,1,0,0:0:0:0:
368,160,23193,1,0,0:0:0:0:
384,192,23225,1,0,0:0:0:0:
368,208,23256,1,0,0:0:0:0:
160,160,23287,1,0,0:0:0:0:
48,96,23350,1,0,0:0:0:0:
32,144,23381,1,0,0:0:0:0:
128,112,23412,1,0,0:0:0:0:
224,80,23475,5,0,0:0:0:0:
240,144,23506,1,0,0:0:0:0:
240,160,23537,1,0,0:0:0:0:
304,176,23600,1,0,0:0:0:0:
352,176,23631,1,0,0:0:0:0:
352,224,23662,1,0,0:0:0:0:
336,240,23725,1,0,0:0:0:0:
432,224,23756,1,0,0:0:0:0:
192,288,24287,2,0,L|336:176,6,175
112,80,24350,1,0,0:0:0:0:
80,192,24412,1,0,0:0:0:0:
176,160,24443,1,0,0:0:0:0:
192,96,24475,1,0,0:0:0:0:
112,112,24506,1,0,0:0:0:0:
144,144,24537,1,0,0:0:0:0:
160,144,24568,1,0,0:0:0:0:
176,144,24600,1,0,0:0:0:0:
160,128,24631,1,0,0:0:0:0:
144,112,24693,1,0,0:0:0:0:
192,96,24725,1,0,0:0:0:0:
208,80,24756,1,0,0:0:0:0:
208,80,24787,1,0,0:0:0:0:
160,64,24818,1,0,0:0:0:0:
176,48,24850,1,0,0:0:0:0:
208,64,24881,1,0,0:0:0:0:
240,96,24943,1,0,0:0:0:0:
224,160,24975,1,0,0:0:0:0:
208,160,25006,1,0,0:0:0:0:
192,192,25037,1,0,0:0:0:0:
176,208,25068,1,0,0:0:0:0:
256,208,25131,1,0,0:0:0:0:
240,176,25162,1,0,0:0:0:0:
448,160,25381,2,0,P|160:240|144:96,2,525
400,64,25631,2,0,B|224:224|480:256|288:32|96:224,2,420
352,320,26193,2,0,L|448:176,1,140
384,192,26256,2,0,L|560:208,3,175
208,80,26350,2,0,L|64:192,1,175
368,160,26412,1,0,0:0:0:0:
336,128,26443,1,0,0:0:0:0:
288,144,26475,1,0,0:0:0:0:
288,144,26506,1,0,0:0:0:0:
288,80,26568,1,0,0:0:0:0:
320,80,26600,1,0,0:0:0:0:
352,80,26662,1,0,0:0:0:0:
384,176,26693,1,0,0:0:0:0:
336,224,26725,1,0,0:0:0:0:
256,192,26756,12,0,27818,0:0:0:0:
208,128,26787,5,0,0:0:0:0:
416,160,26850,2,0,L|320:-16,2,175
208,128,26881,2,0,L|80:304,1,210
256,240,27037,2,0,L|384:304,1,140
336,240,27225,6,0,L|160:32,1,245
224,176,27350,2,0,L|16:256,1,210
240,48,27443,2,0,L|176:128,8,70
176,128,27506,2,0,L|336:352,1,245
144,224,27631,2,0,L|448:112,1,315
304,304,27756,2,0,L|96:176,1,245
160,288,27881,2,0,L|224:384,1,105
240,352,28006,2,0,L|400:224,1,175
320,224,28225,2,0,L|192:160,1,140
256,192,28256,12,0,28568,0:0:0:0:
224,160,28381,6,0,L|432:112,1,210
208,80,28568,2,0,L|0:112,1,210
304,176,28693,2,0,L|272:288,1,105
272,272,28787,2,0,L|256:112,1,140
256,192,28818,12,0,29100,0:0:0:0:
288,192,28881,6,0,L|368:80,1,105
240,96,28975,2,0,B|176:48|96:80|80:80|128:208|224:208|352:160|352:128,1,385
336,80,29318,6,0,L|224:64,1,105
256,192,29443,12,0,31037,0:0:0:0:
304,128,29506,6,0,L|336:160,2,35
272,144,29600,2,0,L|128:208,1,140
240,256,29693,2,0,P|432:224|432:144,1,315
304,144,29881,2,0,L|304:64,1,70
240,48,29943,2,0,L|208:64,1,35
160,64,30006,2,0,L|144:96,2,35
160,80,30100,2,0,L|144:176,1,70
128,160,30162,2,0,B|176:208|144:208|-160:160|192:160,2,280
144,112,30631,1,0,0:0:0:0:
208,144,30693,5,0,0:0:0:0:
176,112,30725,1,0,0:0:0:0:
144,160,31162,1,0,0:0:0:0:
192,208,31225,1,0,0:0:0:0:
176,192,31256,1,0,0:0:0:0:
176,192,31318,5,0,0:0:0:0:
208,192,31350,1,0,0:0:0:0:
256,192,31381,12,0,31787,0:0:0:0:
208,192,31443,5,0,0:0:0:0:
240,176,31475,1,0,0:0:0:0:
192,176,31537,1,0,0:0:0:0:
192,144,31568,1,0,0:0:0:0:
224,112,31600,1,0,0:0:0:0:
176,112,31662,1,0,0:0:0:0:
192,112,31693,1,0,0:0:0:0:
192,112,31725,1,0,0:0:0:0:
432,176,31943,5,0,0:0:0:0:
384,176,31975,1,0,0:0:0:0:
304,176,32037,1,0,0:0:0:0:
256,192,32068,12,0,32287,0:0:0:0:
240,176,32100,5,0,0:0:0:0:
272,192,32131,1,0,0:0:0:0:
304,224,32162,1,0,0:0:0:0:
320,176,32225,1,0,0:0:0:0:
304,176,32256,1,0,0:0:0:0:
288,144,32287,1,0,0:0:0:0:
256,192,32350,12,0,32693,0:0:0:0:
336,80,32600,5,0,0:0:0:0:
240,176,32725,1,0,0:0:0:0:
80,208,32881,2,0,L|320:240,1,210
224,160,33037,1,0,0:0:0:0:
256,192,33100,12,0,34756,0:0:0:0:
368,80,33193,5,0,0:0:0:0:
352,96,33225,1,0,0:0:0:0:
320,112,33256,1,0,0:0:0:0:
320,112,33287,2,0,L|112:176,1,210
320,160,33350,1,0,0:0:0:0:
320,160,33381,1,0,0:0:0:0:
368,176,33412,1,0,0:0:0:0:
320,192,33475,2,0,L|320:288,1,70
352,192,33506,1,0,0:0:0:0:
368,160,33537,1,0,0:0:0:0:
384,128,33568,1,0,0:0:0:0:
400,176,33631,2,0,L|464:160,2,35
400,128,33662,1,0,0:0:0:0:
368,176,33693,1,0,0:0:0:0:
352,128,33725,1,0,0:0:0:0:
368,112,33756,2,0,L|400:32,2,70
320,112,33787,1,0,0:0:0:0:
304,128,33818,1,0,0:0:0:0:
304,160,33850,1,0,0:0:0:0:
288,128,33881,2,0,L|192:80,1,105
272,192,33912,1,0,0:0:0:0:
288,176,33943,1,0,0:0:0:0:
288,128,33975,1,0,0:0:0:0:
272,128,34006,2,0,L|144:208,1,140
240,176,34068,1,0,0:0:0:0:
288,128,34100,1,0,0:0:0:0:
272,144,34131,2,0,L|80:64,1,175
352,96,34193,1,0,0:0:0:0:
384,128,34256,1,0,0:0:0:0:
352,96,34287,1,0,0:0:0:0:
352,128,34350,1,0,0:0:0:0:
288,160,34412,2,0,L|112:320,1,210
320,304,34506,5,0,0:0:0:0:
320,304,34568,1,0,0:0:0:0:
288,304,34600,1,0,0:0:0:0:
320,304,34631,1,0,0:0:0:0:
320,272,34662,2,0,L|432:208,1,105
320,304,34725,1,0,0:0:0:0:
320,304,34756,1,0,0:0:0:0:
352,288,34787,1,0,0:0:0:0:
368,272,34818,2,0,L|432:48,1,210
320,272,34881,1,0,0:0:0:0:
288,256,34912,1,0,0:0:0:0:
304,240,34943,2,0,L|208:16,1,210
288,240,35006,1,0,0:0:0:0:
240,192,35068,2,0,L|64:64,1,210
224,176,35100,5,0,0:0:0:0:
208,160,35131,1,0,0:0:0:0:
176,128,35162,1,0,0:0:0:0:
160,144,35193,2,0,L|64:272,1,140
176,128,35225,1,0,0:0:0:0:
176,128,35256,1,0,0:0:0:0:
208,112,35287,1,0,0:0:0:0:
256,192,35350,12,0,40475,0:0:0:0:
352,144,35412,5,0,0:0:0:0:
368,160,35443,1,0,0:0:0:0:
352,160,35475,1,0,0:0:0:0:
256,192,35506,1,0,0:0:0:0:
432,272,35537,1,0,0:0:0:0:
400,240,35600,1,0,0:0:0:0:
384,224,35631,1,0,0:0:0:0:
352,144,35662,1,0,0:0:0:0:
320,176,35693,1,0,0:0:0:0:
288,192,35725,1,0,0:0:0:0:
256,240,35787,1,0,0:0:0:0:
240,240,35818,1,0,0:0:0:0:
256,208,35850,1,0,0:0:0:0:
176,208,35881,1,0,0:0:0:0:
208,176,35912,1,0,0:0:0:0:
256,128,35975,1,0,0:0:0:0:
224,128,36006,1,0,0:0:0:0:
192,144,36037,1,0,0:0:0:0:
176,128,36100,1,0,0:0:0:0:
176,96,36131,1,0,0:0:0:0:
224,80,36193,1,0,0:0:0:0:
256,80,36225,1,0,0:0:0:0:
128,128,36256,1,0,0:0:0:0:
112,160,36287,1,0,0:0:0:0:
128,160,36318,1,0,0:0:0:0:
144,160,36350,1,0,0:0:0:0:
176,144,36381,1,0,0:0:0:0:
208,128,36412,1,0,0:0:0:0:
304,128,36506,1,0,0:0:0:0:
304,128,36537,1,0,0:0:0:0:
352,144,36600,1,0,0:0:0:0:
320,160,36631,1,0,0:0:0:0:
288,176,36662,1,0,0:0:0:0:
240,192,36725,1,0,0:0:0:0:
240,192,36756,1,0,0:0:0:0:
176,128,36787,1,0,0:0:0:0:
224,96,36850,1,0,0:0:0:0:
224,128,36881,1,0,0:0:0:0:
256,128,36912,1,0,0:0:0:0:
256,128,36943,1,0,0:0:0:0:
256,80,37006,1,0,0:0:0:0:
288,176,37037,1,0,0:0:0:0:
288,192,37068,1,0,0:0:0:0:
272,224,37100,1,0,0:0:0:0:
240,224,37131,1,0,0:0:0:0:
320,96,37162,1,0,0:0:0:0:
304,80,37193,1,0,0:0:0:0:
288,96,37225,1,0,0:0:0:0:
272,112,37256,1,0,0:0:0:0:
256,80,37287,1,0,0:0:0:0:
240,112,37318,1,0,0:0:0:0:
256,80,37350,2,0,L|384:0,1,140
224,160,37381,1,0,0:0:0:0:
256,192,37412,1,0,0:0:0:0:
288,208,37443,1,0,0:0:0:0:
160,144,37475,1,0,0:0:0:0:
176,144,37506,1,0,0:0:0:0:
352,144,37537,1,0,0:0:0:0:
336,128,37568,1,0,0:0:0:0:
354,106,37600,1,0,0:0:0:0:
176,176,37631,1,0,0:0:0:0:
192,176,37662,1,0,0:0:0:0:
240,176,37725,1,0,0:0:0:0:
240,160,37787,1,0,0:0:0:0:
176,160,37850,2,0,B|0:384|208:336|208:128|80:48|-16:112|64:304|256:288|336:112,1,595
272,160,37881,1,0,0:0:0:0:
288,144,37912,1,0,0:0:0:0:
256,192,37943,12,0,38006,0:0:0:0:
240,192,37975,5,0,0:0:0:0:
336,160,38006,1,0,0:0:0:0:
336,160,38037,1,0,0:0:0:0:
304,176,38068,1,0,0:0:0:0:
256,192,38100,12,0,38162,0:0:0:0:
256,176,38131,5,0,0:0:0:0:
160,144,38162,1,0,0:0:0:0:
160,144,38193,1,0,0:0:0:0:
256,192,38225,12,0,38287,0:0:0:0:
256,192,38256,12,0,38506,0:0:0:0:
96,16,38350,6,0,P|0:336|288:192,1,805
256,192,38381,12,0,38475,0:0:0:0:
256,192,38568,12,0,38631,0:0:0:0:
208,208,38693,5,0,0:0:0:0:
240,192,38725,1,0,0:0:0:0:
224,144,38818,1,0,0:0:0:0:
256,144,38850,1,0,0:0:0:0:
288,128,38881,1,0,0:0:0:0:
240,112,38912,1,0,0:0:0:0:
224,144,38943,1,0,0:0:0:0:
286,218,38975,1,0,0:0:0:0:
336,224,39037,1,0,0:0:0:0:
320,304,39068,1,0,0:0:0:0:
352,288,39100,1,0,0:0:0:0:
368,256,39131,1,0,0:0:0:0:
256,240,39193,1,0,0:0:0:0:
240,256,39225,1,0,0:0:0:0:
224,288,39256,1,0,0:0:0:0:
208,240,39318,1,0,0:0:0:0:
224,208,39350,1,0,0:0:0:0:
192,208,39381,1,0,0:0:0:0:
144,208,39412,1,0,0:0:0:0:
64,272,39506,1,0,0:0:0:0:
112,224,39568,1,0,0:0:0:0:
144,176,39631,5,0,0:0:0:0:
160,144,39662,1,0,0:0:0:0:
192,128,39693,1,0,0:0:0:0:
288,112,39756,1,0,0:0:0:0:
192,128,39787,2,0,L|336:112,1,140
400,160,40006,2,0,L|224:304,1,210
128,208,40131,2,0,L|192:64,1,140
240,272,40225,2,0,L|352:192,1,105
224,128,40318,2,0,L|160:320,1,175
80,192,40600,1,0,0:0:0:0:
192,128,40631,1,0,0:0:0:0:
224,128,40662,1,0,0:0:0:0:
256,128,40693,1,0,0:0:0:0:
288,144,40725,1,0,0:0:0:0:
320,192,40787,1,0,0:0:0:0:
112,112,50570,5,0,0:0:0:0:
160,144,50900,1,0,0:0:0:0:
240,160,51231,1,0,0:0:0:0:
304,176,51572,1,0,0:0:0:0:
384,176,51873,1,0,0:0:0:0:
416,112,52160,1,0,0:0:0:0:
176,96,52472,1,0,0:0:0:0:
96,176,52841,1,0,0:0:0:0:
144,240,53120,1,0,0:0:0:0:
336,224,53295,1,0,0:0:0:0:
400,192,53456,1,0,0:0:0:0:
384,112,53604,1,0,0:0:0:0:
240,176,59078,5,0,0:0:0:0:
240,176,59267,1,0,0:0:0:0:
240,176,59411,1,0,0:0:0:0:
240,176,59537,1,0,0:0:0:0:
240,176,59576,1,0,0:0:0:0:
240,176,59607,1,0,0:0:0:0:
240,176,59645,1,0,0:0:0:0:
240,176,59684,1,0,0:0:0:0:
240,176,59718,1,0,0:0:0:0:
240,176,59756,1,0,0:0:0:0:
240,176,59798,1,0,0:0:0:0:
240,176,59840,1,0,0:0:0:0:
240,176,59873,1,0,0:0:0:0:
240,176,59910,1,0,0:0:0:0:
240,176,59942,1,0,0:0:0:0:
240,176,59981,1,0,0:0:0:0:
240,176,60023,1,0,0:0:0:0:
240,176,60056,1,0,0:0:0:0:
240,176,60095,1,0,0:0:0:0:
240,176,60132,1,0,0:0:0:0:
240,176,60168,1,0,0:0:0:0:
240,176,60209,1,0,0:0:0:0:
240,176,60245,1,0,0:0:0:0:
240,176,60278,1,0,0:0:0:0:
240,176,60308,1,0,0:0:0:0:
240,176,60374,1,0,0:0:0:0:
240,176,60407,1,0,0:0:0:0:
240,176,60443,1,0,0:0:0:0:
240,176,60473,1,0,0:0:0:0:
256,176,60539,1,0,0:0:0:0:
256,176,60569,1,0,0:0:0:0:
256,176,60603,1,0,0:0:0:0:
256,176,60641,1,0,0:0:0:0:
256,176,60671,1,0,0:0:0:0:
256,176,60707,1,0,0:0:0:0:
256,176,60744,1,0,0:0:0:0:
256,176,60773,1,0,0:0:0:0:
256,176,60812,1,0,0:0:0:0:
288,128,60863,5,0,0:0:0:0:
304,160,61751,5,0,0:0:0:0:
304,160,61791,1,0,0:0:0:0:
304,208,61826,1,0,0:0:0:0:
272,176,61865,1,0,0:0:0:0:
224,144,61899,1,0,0:0:0:0:
176,112,61940,1,0,0:0:0:0:
176,160,61974,1,0,0:0:0:0:
176,160,62018,1,0,0:0:0:0:
160,176,62057,1,0,0:0:0:0:
160,304,62099,1,0,0:0:0:0:
160,96,62120,1,0,0:0:0:0:
208,256,62135,1,0,0:0:0:0:
160,96,62160,1,0,0:0:0:0:
256,272,62163,1,0,0:0:0:0:
192,144,62246,5,0,0:0:0:0:
208,144,62303,1,0,0:0:0:0:
256,96,62339,1,0,0:0:0:0:
288,96,62379,1,0,0:0:0:0:
272,112,62412,1,0,0:0:0:0:
288,80,62453,1,0,0:0:0:0:
288,192,62490,1,0,0:0:0:0:
352,176,62525,1,0,0:0:0:0:
320,176,62562,1,0,0:0:0:0:
336,160,62633,1,0,0:0:0:0:
272,96,62667,1,0,0:0:0:0:
240,96,62705,1,0,0:0:0:0:
288,96,62741,1,0,0:0:0:0:
256,176,62777,1,0,0:0:0:0:
224,160,62823,1,0,0:0:0:0:
288,96,62877,1,0,0:0:0:0:
400,112,62915,1,0,0:0:0:0:
432,192,62918,2,0,L|416:96,18,70
400,112,62961,1,0,0:0:0:0:
384,96,62999,1,0,0:0:0:0:
368,112,63041,1,0,0:0:0:0:
288,80,63053,2,0,L|64:80,12,210
368,112,63077,1,0,0:0:0:0:
352,80,63113,1,0,0:0:0:0:
320,80,63147,1,0,0:0:0:0:
320,112,63194,1,0,0:0:0:0:
48,256,63221,6,0,L|176:256,12,105
272,128,63230,1,0,0:0:0:0:
272,128,63263,1,0,0:0:0:0:
208,256,63294,2,0,L|304:240,42,70
240,96,63299,1,0,0:0:0:0:
192,80,63342,1,0,0:0:0:0:
320,256,63368,2,0,B|336:224|384:192|416:112,46,140
160,128,63386,1,0,0:0:0:0:
208,160,63429,1,0,0:0:0:0:
240,144,63465,1,0,0:0:0:0:
192,96,63498,1,0,0:0:0:0:
224,160,63539,1,0,0:0:0:0:
432,64,63563,2,0,L|352:64,5,70
208,112,63579,1,0,0:0:0:0:
240,96,63618,1,0,0:0:0:0:
304,64,63623,2,0,B|224:64|160:80|112:96|96:144,20,210
208,64,63656,1,0,0:0:0:0:
272,64,63692,1,0,0:0:0:0:
320,80,63729,1,0,0:0:0:0:
272,64,63767,1,0,0:0:0:0:
288,112,63812,1,0,0:0:0:0:
80,160,63813,2,0,B|96:192|96:224|96:224|112:224|160:240|176:224|240:240|256:240|304:240|336:224|368:224|384:208|400:176|432:144|432:112|416:96|352:96,27,490
240,96,63851,1,0,0:0:0:0:
160,128,63882,1,0,0:0:0:0:
320,160,64080,2,0,P|240:160|320:224,85,245
320,96,64355,2,0,B|224:96|208:112|176:128|160:144|128:160|128:192|144:208|432:272,22,490
272,64,64925,2,0,B|160:320|368:64|16:192|336:128|144:64|160:160,73,245
224,176,66554,2,0,B|192:192|240:208|272:160|272:176,2911,70
