osu file format v14

[General]
AudioFilename: audio.mp3
AudioLeadIn: 0
PreviewTime: 45503
Countdown: 0
SampleSet: Soft
StackLeniency: 0.7
Mode: 0
LetterboxInBreaks: 0
WidescreenStoryboard: 1

[Editor]
DistanceSpacing: 1
BeatDivisor: 4
GridSize: 8
TimelineZoom: 1

[Metadata]
Title:Dream It Possible (Cut Ver.)
TitleUnicode:Dream It Possible (Cut Ver.)
Artist:Delacey
ArtistUnicode:Delacey
Creator:Mafumafu
Version:Normal
Source:
Tags:english pop regraz huawei sufian bouhrara
BeatmapID:2491714
BeatmapSetID:1196152

[Difficulty]
HPDrainRate:4
CircleSize:3.4
OverallDifficulty:4
ApproachRate:5
SliderMultiplier:2
SliderTickRate:1

[Events]
//Background and Video events
0,0,"Konachan.com - 292705.png",0,0
//Break Periods
//Storyboard Layer 0 (Background)
//Storyboard Layer 1 (Fail)
//Storyboard Layer 2 (Pass)
//Storyboard Layer 3 (Foreground)
//Storyboard Layer 4 (Overlay)
//Storyboard Sound Samples

[TimingPoints]
41,1000,4,2,1,36,1,0
46002,1000,4,2,1,71,1,1
46002,-90.9090909090909,4,2,1,71,0,1
62002,-100,4,2,1,71,0,0
78002,-100,4,2,1,36,0,0

[Colours]
Combo1 : 242,24,57
Combo2 : 0,202,0
Combo3 : 18,124,255

[HitObjects]
55,317,8041,5,0,0:0:0:0:
18,223,8541,2,0,P|81:222|126:244,1,100,2|2,0:2|0:2,0:0:0:0:
208,269,9541,2,0,L|215:157,1,100,2|2,0:2|0:2,0:0:0:0:
290,104,10541,1,2,0:2:0:0:
357,177,11041,2,0,P|410:185|462:167,1,100,2|2,0:2|0:2,0:0:0:0:
470,73,12041,6,0,P|387:62|301:100,2,150,2|2|2,0:2|0:2|0:2,0:0:0:0:
453,171,14041,2,0,L|448:274,1,100,2|0,0:2|0:0,0:0:0:0:
356,230,15041,1,2,0:2:0:0:
367,329,15541,1,2,0:2:0:0:
279,280,16041,6,0,P|224:266|172:278,1,100,2|2,0:2|0:2,0:0:0:0:
112,338,17041,1,2,0:2:0:0:
33,276,17541,2,0,L|27:168,1,100,2|2,0:2|0:2,0:0:0:0:
96,103,18541,1,2,0:2:0:0:
174,165,19041,2,0,P|233:178|281:153,1,100,2|2,0:2|0:2,0:0:0:0:
347,103,20041,6,0,P|409:129|490:99,2,150,2|2|2,0:2|0:2|0:2,0:0:0:0:
271,38,22041,2,0,L|166:37,1,100,2|0,0:2|0:0,0:0:0:0:
158,136,23041,2,0,L|257:136,1,100,2|2,0:2|0:2,0:0:0:0:
357,134,24041,6,0,P|402:178|374:265,1,150,2|2,0:2|0:2,0:0:0:0:
351,294,25041,2,0,P|295:280|245:293,1,100,2|2,0:2|0:2,0:0:0:0:
155,272,26041,2,0,P|81:269|50:192,1,150,2|2,0:2|0:2,0:0:0:0:
53,157,27041,2,0,L|175:166,1,100,2|2,0:2|0:2,0:0:0:0:
239,115,28041,6,0,B|328:103|339:188|428:157,1,200,2|0,0:2|0:0,0:0:0:0:
482,240,29541,1,2,0:2:0:0:
407,306,30041,2,0,P|348:288|293:301,1,100,2|0,0:2|0:0,0:0:0:0:
250,373,31041,1,2,0:2:0:0:
193,290,31541,1,2,0:2:0:0:
94,304,32041,6,0,P|55:253|103:192,1,150,2|2,0:2|0:2,0:0:0:0:
150,197,33041,1,2,0:0:0:0:
249,201,33541,1,2,0:0:0:0:
348,208,34041,2,0,P|387:157|339:96,1,150,2|2,0:2|0:2,0:0:0:0:
292,87,35041,2,0,L|170:89,1,100,2|2,0:2|0:2,0:0:0:0:
98,123,36041,6,0,P|38:197|112:266,1,200,2|0,0:2|0:0,0:0:0:0:
193,241,37541,2,0,P|255:233|303:248,1,100,2|2,0:2|0:2,0:0:0:0:
473,344,39041,2,0,L|479:226,1,100,2|2,0:2|0:2,0:0:0:0:
389,197,40041,6,0,B|284:240|269:163|176:210,2,200,2|2|2,0:2|0:2|0:2,0:0:0:0:
74,175,46002,6,0,L|63:60,2,110.000003356934,4|0|2,1:2|0:0|0:2,0:0:0:0:
168,231,47502,1,0,1:0:0:0:
236,150,48002,2,0,P|294:155|344:124,1,110.000003356934,2|2,1:2|0:2,0:0:0:0:
374,89,48752,2,0,P|409:127|466:135,1,110.000003356934,2|0,1:2|0:0,0:0:0:0:
495,181,49502,1,2,1:2:0:0:
482,290,50002,6,0,L|358:279,1,110.000003356934,2|0,1:2|0:0,0:0:0:0:
270,321,51002,2,0,P|210:339|153:313,1,110.000003356934,2|0,0:2|1:0,0:0:0:0:
82,253,52002,2,0,L|81:123,1,110.000003356934,2|2,1:2|0:2,0:0:0:0:
55,94,52752,2,0,L|173:100,1,110.000003356934,2|4,1:2|0:3,0:0:0:0:
220,100,53502,1,2,1:2:0:0:
208,209,54002,6,0,P|140:227|96:208,2,110.000003356934,2|0|2,1:2|0:0|0:2,0:0:0:0:
306,160,55502,1,0,1:0:0:0:
350,260,56002,2,0,P|410:264|454:236,1,110.000003356934,2|2,1:2|0:2,0:0:0:0:
489,199,56752,2,0,L|474:76,1,110.000003356934,2|4,1:2|0:3,0:0:0:0:
468,35,57502,1,2,1:2:0:0:
369,83,58002,6,0,P|318:47|227:154,1,220.000006713867,2|2,1:2|0:2,0:0:0:0:
140,212,59502,1,2,1:2:0:0:
220,287,60002,2,0,B|324:259|318:353|433:321,1,220.000006713867,2|2,1:2|0:2,0:0:0:0:
466,118,62002,6,0,L|474:-16,2,100,4|2|2,1:2|0:2|0:2,0:0:0:0:
443,215,63502,1,2,1:2:0:0:
370,148,64002,2,0,P|300:121|262:136,1,100,2|2,1:2|0:2,0:0:0:0:
241,160,64752,2,0,P|178:184|131:165,1,100,2|4,1:2|0:3,0:0:0:0:
105,156,65502,1,2,1:2:0:0:
144,64,66002,6,0,L|255:69,1,100,2|2,1:2|0:2,0:0:0:0:
318,134,67002,1,2,0:2:0:0:
354,41,67502,1,2,1:2:0:0:
421,114,68002,2,0,P|408:174|431:212,1,100,2|2,1:2|0:2,0:0:0:0:
474,200,68752,2,0,P|495:261|467:305,1,100,2|4,1:2|0:3,0:0:0:0:
444,323,69502,1,2,1:2:0:0:
354,274,70002,6,0,L|236:278,1,100,2|2,1:2|0:2,0:0:0:0:
246,177,71002,2,0,L|345:173,1,100,2|2,0:2|1:2,0:0:0:0:
445,167,72002,2,0,P|460:97|444:52,1,100,2|2,1:2|0:2,0:0:0:0:
417,36,72752,2,0,P|352:48|312:35,1,100,2|4,1:2|0:3,0:0:0:0:
271,29,73502,1,2,1:2:0:0:
180,71,74002,6,0,B|86:63|86:63|45:104|75:171,1,200,2|2,1:2|0:2,0:0:0:0:
163,199,75502,2,0,P|221:187|268:201,1,100,2|2,1:2|1:2,0:0:0:0:
259,196,78002,5,2,0:2:0:0:
