osu file format v14

[General]
AudioFilename: audio.mp3
AudioLeadIn: 0
PreviewTime: 186307
Countdown: 0
SampleSet: Soft
StackLeniency: 0.3
Mode: 0
LetterboxInBreaks: 0
WidescreenStoryboard: 1

[Editor]
DistanceSpacing: 1.5
BeatDivisor: 4
GridSize: 4
TimelineZoom: 1

[Metadata]
Title:One Night
TitleUnicode:One Night
Artist:Deine Lakaien
ArtistUnicode:Deine Lakaien
Creator:Mortem
Version:Hard
Source:
Tags:Alexander Veljanov Ernst Horn german darkwave avantgarde electro experimental Chrom Records Indicator alvieee
BeatmapID:1850823
BeatmapSetID:885540

[Difficulty]
HPDrainRate:5.5
CircleSize:5.5
OverallDifficulty:6.5
ApproachRate:8
SliderMultiplier:1.8
SliderTickRate:1

[Events]
//Background and Video events
0,0,"one night.jpg",0,0
//Break Periods
2,88854,94332
2,154976,157904
2,159874,162802
//Storyboard Layer 0 (Background)
//Storyboard Layer 1 (Fail)
//Storyboard Layer 2 (Pass)
//Storyboard Layer 3 (Foreground)
//Storyboard Layer 4 (Overlay)
//Storyboard Sound Samples

[TimingPoints]
491,612.244897959184,4,2,1,7,1,0
797,-151.515151515152,4,2,1,15,0,0
1103,-151.515151515152,4,2,1,5,0,0
1256,-151.515151515152,4,2,1,5,0,0
1409,-151.515151515152,4,2,1,18,0,0
1715,-151.515151515152,4,2,1,5,0,0
1868,-151.515151515152,4,2,1,5,0,0
2021,-151.515151515152,4,2,1,21,0,0
2327,-151.515151515152,4,2,1,5,0,0
2480,-151.515151515152,4,2,1,5,0,0
2633,-151.515151515152,4,2,1,24,0,0
2939,-151.515151515152,4,2,1,5,0,0
3092,-151.515151515152,4,2,1,5,0,0
3246,-151.515151515152,4,2,1,27,0,0
3552,-151.515151515152,4,2,1,5,0,0
3705,-151.515151515152,4,2,1,5,0,0
3858,-151.515151515152,4,2,1,36,0,0
4164,-151.515151515152,4,2,1,5,0,0
4317,-151.515151515152,4,2,1,5,0,0
4470,-151.515151515152,4,2,1,27,0,0
4776,-151.515151515152,4,2,1,5,0,0
5082,-151.515151515152,4,2,1,12,0,0
5388,-151.515151515152,4,2,1,5,0,0
5695,-151.515151515152,4,2,1,15,0,0
6001,-151.515151515152,4,2,1,5,0,0
6154,-151.515151515152,4,2,1,5,0,0
6307,-151.515151515152,4,2,1,18,0,0
6613,-151.515151515152,4,2,1,5,0,0
6766,-151.515151515152,4,2,1,5,0,0
6919,-151.515151515152,4,2,1,21,0,0
7225,-151.515151515152,4,2,1,5,0,0
7378,-151.515151515152,4,2,1,5,0,0
7531,-151.515151515152,4,2,1,24,0,0
7837,-151.515151515152,4,2,1,5,0,0
7990,-151.515151515152,4,2,1,5,0,0
8144,-151.515151515152,4,2,1,27,0,0
8450,-151.515151515152,4,2,1,5,0,0
8603,-151.515151515152,4,2,1,5,0,0
8756,-151.515151515152,4,2,1,36,0,0
9062,-151.515151515152,4,2,1,5,0,0
9215,-151.515151515152,4,2,1,5,0,0
9368,-151.515151515152,4,2,1,27,0,0
9674,-151.515151515152,4,2,1,5,0,0
9980,-151.515151515152,4,2,1,12,0,0
10286,-151.515151515152,4,2,1,5,0,0
10593,-151.515151515152,4,2,1,15,0,0
10899,-151.515151515152,4,2,1,5,0,0
11052,-151.515151515152,4,2,1,5,0,0
11205,-151.515151515152,4,2,1,18,0,0
11511,-151.515151515152,4,2,1,5,0,0
11664,-151.515151515152,4,2,1,5,0,0
11817,-151.515151515152,4,2,1,21,0,0
12123,-151.515151515152,4,2,1,5,0,0
12276,-151.515151515152,4,2,1,5,0,0
12429,-151.515151515152,4,2,1,24,0,0
12735,-151.515151515152,4,2,1,5,0,0
12888,-151.515151515152,4,2,1,5,0,0
13042,-151.515151515152,4,2,1,27,0,0
13348,-151.515151515152,4,2,1,5,0,0
13501,-151.515151515152,4,2,1,5,0,0
13654,-151.515151515152,4,2,1,36,0,0
13960,-151.515151515152,4,2,1,5,0,0
14266,-151.515151515152,4,2,1,40,0,0
14572,-151.515151515152,4,2,1,5,0,0
14878,-151.515151515152,4,2,1,15,0,0
15491,-151.515151515152,4,2,1,15,0,0
15797,-151.515151515152,4,2,1,5,0,0
15950,-151.515151515152,4,2,1,5,0,0
16103,-151.515151515152,4,2,1,18,0,0
16409,-151.515151515152,4,2,1,5,0,0
16562,-151.515151515152,4,2,1,5,0,0
16715,-151.515151515152,4,2,1,21,0,0
17021,-151.515151515152,4,2,1,5,0,0
17174,-151.515151515152,4,2,1,5,0,0
17327,-151.515151515152,4,2,1,24,0,0
17633,-151.515151515152,4,2,1,5,0,0
17786,-151.515151515152,4,2,1,5,0,0
17939,-151.515151515152,4,2,1,5,0,0
17940,-151.515151515152,4,2,1,27,0,0
18246,-151.515151515152,4,2,1,5,0,0
18398,-151.515151515152,4,2,1,5,0,0
18552,-151.515151515152,4,2,1,36,0,0
18858,-151.515151515152,4,2,1,5,0,0
19011,-151.515151515152,4,2,1,5,0,0
19164,-151.515151515152,4,2,1,27,0,0
19470,-151.515151515152,4,2,1,5,0,0
19776,-151.515151515152,4,2,1,12,0,0
20082,-151.515151515152,4,2,2,15,0,0
20695,-151.515151515152,4,2,2,5,0,0
21001,-100,4,2,2,15,0,0
23143,-100,4,2,2,15,0,0
23144,-100,4,2,2,5,0,0
23450,-100,4,2,2,15,0,0
25593,-100,4,2,2,5,0,0
25899,-100,4,2,2,15,0,0
28041,-100,4,2,2,15,0,0
28042,-100,4,2,2,5,0,0
28348,-100,4,2,2,15,0,0
30490,-100,4,2,2,15,0,0
30491,-100,4,2,2,5,0,0
30797,-100,4,2,2,15,0,0
32939,-100,4,2,2,5,0,0
33246,-100,4,2,2,15,0,0
35388,-100,4,2,2,5,0,0
35695,-100,4,2,2,15,0,0
37225,-100,4,2,2,25,0,0
49470,-100,4,2,2,20,0,0
50082,-100,4,2,2,5,0,0
50388,-100,4,2,2,20,0,0
52531,-100,4,2,2,5,0,0
52837,-100,4,2,2,20,0,0
54980,-100,4,2,2,5,0,0
55286,-100,4,2,2,20,0,0
56817,-100,4,2,2,25,0,0
59725,-100,4,2,2,5,0,0
59878,-100,4,2,2,25,0,0
62174,-100,4,2,2,5,0,0
62327,-100,4,2,2,25,0,0
69062,-100,4,2,3,25,0,1
88501,-100,4,2,3,5,0,1
88654,-100,4,2,2,25,0,0
128297,-100,4,2,2,5,0,0
128450,-100,4,2,2,25,0,0
135184,-100,4,2,4,25,0,1
139470,-100,4,2,4,25,0,1
139623,-100,4,2,4,25,0,1
154623,-100,4,2,4,5,0,1
154776,-100,4,2,4,10,0,0
158654,-151.515151515152,4,2,4,10,0,0
174368,-151.515151515152,4,2,4,12,0,0
176511,-151.515151515152,4,2,4,5,0,0
176817,-151.515151515152,4,2,4,12,0,0
178960,-151.515151515152,4,2,4,5,0,0
179266,-151.515151515152,4,2,4,12,0,0
181409,-151.515151515152,4,2,4,5,0,0
181715,-151.515151515152,4,2,1,12,0,0
186307,-151.515151515152,4,2,1,10,0,0
186613,-151.515151515152,4,2,4,20,0,0
187531,-151.515151515152,4,2,4,25,0,0
187684,-151.515151515152,4,2,4,25,0,0
191204,-151.515151515152,4,2,4,25,0,0
191205,-151.515151515152,4,2,4,10,0,0
191511,-151.515151515152,4,2,4,25,0,0
193807,-151.515151515152,4,2,4,5,0,0
193960,-151.515151515152,4,2,4,25,0,0
199929,-151.515151515152,4,2,4,5,0,0
200082,-151.515151515152,4,2,4,25,0,0
203450,-151.515151515152,4,2,4,15,0,0
203603,-151.515151515152,4,2,4,15,0,0
203756,-151.515151515152,4,2,4,25,0,0
204827,-151.515151515152,4,2,4,5,0,0
204980,-151.515151515152,4,2,4,25,0,0
205899,-151.515151515152,4,2,1,20,0,0
206205,-100,4,2,4,25,0,1
225797,-100,4,2,4,10,0,0

[Colours]
Combo1 : 192,192,192
Combo2 : 128,128,128

[HitObjects]
181,337,491,5,0,0:0:0:0:
91,262,797,2,0,P|99:221|79:169,1,89.0999997280884,2|0,0:2|0:0,0:0:0:0:
121,112,1409,2,0,P|160:122|211:111,1,89.0999997280884,2|0,0:2|0:0,0:0:0:0:
276,87,2021,2,0,P|310:79|376:92,1,89.0999997280884,2|0,0:2|0:0,0:0:0:0:
426,124,2633,2,0,P|417:159|432:215,1,89.0999997280884,2|0,0:2|0:0,0:0:0:0:
383,269,3246,2,0,P|348:260|292:275,1,89.0999997280884,2|0,0:2|0:0,0:0:0:0:
228,299,3858,2,0,P|200:275|143:264,1,89.0999997280884,2|0,0:2|0:0,0:0:0:0:
100,208,4470,2,0,P|107:144|67:88,1,118.799999637451,2|2,0:2|0:2,0:0:0:0:
209,25,5388,5,0,0:0:0:0:
352,64,5695,2,0,P|343:102|358:158,1,89.0999997280884,2|0,0:2|0:0,0:0:0:0:
366,223,6307,2,0,P|328:214|272:229,1,89.0999997280884,2|0,0:2|0:0,0:0:0:0:
207,242,6919,2,0,P|216:204|201:148,1,89.0999997280884,2|0,0:2|0:0,0:0:0:0:
152,103,7531,2,0,P|114:94|58:109,1,89.0999997280884,2|0,0:2|0:0,0:0:0:0:
13,157,8144,2,0,P|4:195|19:251,1,89.0999997280884,2|0,0:2|0:0,0:0:0:0:
67,295,8756,2,0,P|112:292|154:316,1,89.0999997280884,2|0,0:2|0:0,0:0:0:0:
218,339,9368,2,0,P|260:311|337:316,1,118.799999637451,2|2,0:2|0:2,0:0:0:0:
462,252,10286,5,0,0:0:0:0:
387,123,10593,2,0,P|352:106|292:104,1,89.0999997280884,2|0,0:2|0:0,0:0:0:0:
233,130,11205,2,0,P|194:131|140:157,1,89.0999997280884,2|0,0:2|0:0,0:0:0:0:
131,222,11817,2,0,P|169:218|222:189,1,89.0999997280884,2|0,0:2|0:0,0:0:0:0:
272,241,12429,2,0,P|295:203|331:177,1,89.0999997280884,2|0,0:2|0:0,0:0:0:0:
405,177,13042,2,0,P|440:203|464:240,1,89.0999997280884,2|0,0:2|0:0,0:0:0:0:
439,310,13654,2,0,P|402:332|324:308,2,118.799999637451,2|2|2,0:2|0:2|0:2,0:0:0:0:
492,171,15184,5,0,0:0:0:0:
367,89,15491,2,0,P|333:62|274:67,1,89.0999997280884,2|0,0:2|0:0,0:0:0:0:
236,113,16103,2,0,P|263:147|258:206,1,89.0999997280884,2|0,0:2|0:0,0:0:0:0:
237,258,16715,2,0,P|203:285|144:280,1,89.0999997280884,2|0,0:2|0:0,0:0:0:0:
89,260,17327,2,0,P|62:226|67:167,1,89.0999997280884,2|0,0:2|0:0,0:0:0:0:
80,110,17939,2,0,P|114:83|173:88,1,89.0999997280884,2|0,0:2|0:0,0:0:0:0:
227,108,18552,2,0,P|254:142|249:201,1,89.0999997280884,2|0,0:2|0:0,0:0:0:0:
309,236,19164,2,0,P|291:271|320:348,1,118.799999637451,2|2,0:2|0:2,0:0:0:0:
460,274,20082,5,4,0:2:0:0:
489,151,20388,1,0,0:0:0:0:
385,79,20695,1,0,0:0:0:0:
259,71,21001,2,0,P|253:57|234:35,2,30,2|0|0,0:2|0:0|0:0,0:0:0:0:
233,128,21307,2,0,P|222:180|235:221,1,90,2|0,0:2|0:0,0:0:0:0:
303,318,21919,1,0,0:0:0:0:
407,247,22225,1,0,0:0:0:0:
349,135,22531,6,0,P|353:85|340:47,2,90,4|0|0,0:2|0:0|0:0,0:0:0:0:
284,243,23450,2,0,P|281:258|283:273,2,30,2|0|0,0:2|0:0|0:0,0:0:0:0:
255,186,23756,2,0,P|208:195|159:175,1,90,2|0,0:2|0:0,0:0:0:0:
114,68,24368,2,0,P|161:59|210:79,1,90,8|0,0:1|0:0,0:0:0:0:
319,112,24980,5,4,0:2:0:0:
433,58,25286,1,0,0:0:0:0:
434,184,25593,1,0,0:0:0:0:
319,237,25899,2,0,P|314:251|311:275,2,30,2|0|0,0:2|0:0|0:0,0:0:0:0:
278,188,26205,2,0,P|239:186|188:207,1,90,2|0,0:2|0:0,0:0:0:0:
89,276,26817,2,0,P|91:237|70:186,1,90,0|0,0:0|0:0,0:0:0:0:
167,107,27429,6,0,P|144:55|149:5,2,90,4|0|0,0:2|0:0|0:0,0:0:0:0:
245,205,28348,2,0,P|241:220|242:239,2,30,2|0|0,0:2|0:0|0:0,0:0:0:0:
292,163,28654,2,0,P|328:145|386:151,1,90,2|0,0:2|0:0,0:0:0:0:
501,165,29266,1,8,0:1:0:0:
427,62,29572,1,0,0:0:0:0:
254,159,29878,6,0,P|201:180|156:80,1,180,4|0,0:2|0:0,0:0:0:0:
273,34,30797,2,0,P|285:27|309:25,2,30,2|0|0,0:2|0:0|0:0,0:0:0:0:
303,94,31103,2,0,P|360:112|402:98,1,90,2|0,0:2|0:0,0:0:0:0:
493,20,31715,2,0,P|475:77|489:119,1,90,0|0,0:0|0:0,0:0:0:0:
456,237,32327,6,0,P|433:316|351:305,1,180,4|0,0:2|0:0,0:0:0:0:
216,288,33246,2,0,P|206:294|188:297,2,30,2|0|0,0:2|0:0|0:0,0:0:0:0:
253,232,33552,2,0,P|271:175|257:133,1,90,2|0,0:2|0:0,0:0:0:0:
352,44,34164,2,0,P|334:101|348:143,1,90,8|0,0:1|0:0,0:0:0:0:
376,259,34776,6,0,P|307:249|245:342,1,180,4|0,0:2|0:0,0:0:0:0:
118,278,35695,2,0,P|96:277|85:281,2,30,2|0|0,0:2|0:0|0:0,0:0:0:0:
168,232,36001,2,0,P|154:195|163:129,1,90,2|0,0:2|0:0,0:0:0:0:
234,35,36613,1,0,0:0:0:0:
291,157,36919,1,0,0:0:0:0:
156,145,37225,6,0,P|102:137|20:221,1,180,4|0,0:2|0:0,0:0:0:0:
92,333,38144,1,2,0:2:0:0:
221,295,38450,2,0,P|260:285|314:295,1,90,2|0,0:2|0:0,0:0:0:0:
423,222,39062,2,0,P|415:177|425:134,1,90,8|0,0:1|0:0,0:0:0:0:
319,50,39674,6,0,P|274:42|231:52,2,90,4|0|0,0:2|0:0|0:0,0:0:0:0:
425,134,40593,1,2,0:2:0:0:
362,253,40899,2,0,P|321:247|269:253,1,90,2|0,0:2|0:0,0:0:0:0:
144,292,41511,1,0,0:0:0:0:
51,194,41817,1,0,0:0:0:0:
148,100,42123,6,0,P|201:78|323:128,1,180,4|0,0:2|0:0,0:0:0:0:
425,189,43042,1,2,0:2:0:0:
359,307,43348,2,0,P|325:291|266:290,1,90,2|0,0:2|0:0,0:0:0:0:
153,227,43960,2,0,P|197:226|238:208,1,90,8|0,0:1|0:0,0:0:0:0:
354,139,44572,6,0,P|395:121|439:120,2,90,4|0|0,0:2|0:0|0:0,0:0:0:0:
257,44,45491,1,2,0:2:0:0:
142,115,45797,2,0,P|114:131|47:133,1,90,2|0,0:2|0:0,0:0:0:0:
117,256,46409,2,0,P|145:240|212:238,1,90,0|0,0:0|0:0,0:0:0:0:
335,253,47021,5,4,0:2:0:0:
464,292,47327,1,0,0:0:0:0:
421,163,47633,2,0,P|391:143|332:133,1,90,0|2,0:0|0:2,0:0:0:0:
252,222,48246,2,0,P|282:242|341:252,1,90,2|0,0:2|0:0,0:0:0:0:
421,163,48858,1,8,0:1:0:0:
355,45,49164,1,0,0:0:0:0:
252,222,49470,6,0,P|215:268|112:213,1,180,4|0,0:2|0:0,0:0:0:0:
87,97,50388,2,0,P|83:74|84:60,2,30,2|0|0,0:2|0:0|0:0,0:0:0:0:
139,140,50695,2,0,P|189:129|236:136,1,90,2|0,0:2|0:0,0:0:0:0:
336,54,51307,1,0,0:0:0:0:
455,117,51613,1,0,0:0:0:0:
352,205,51919,6,0,P|335:254|421:352,1,180,4|0,0:2|0:0,0:0:0:0:
459,226,52837,2,0,P|473:220|491:217,2,30,2|0|0,0:2|0:0|0:0,0:0:0:0:
392,213,53144,2,0,P|350:204|308:178,1,90,2|0,0:2|0:0,0:0:0:0:
273,49,53756,2,0,P|264:91|238:133,1,90,8|0,0:1|0:0,0:0:0:0:
112,176,54368,6,0,P|86:216|116:350,1,180,4|0,0:2|0:0,0:0:0:0:
241,334,55286,2,0,P|259:330|280:332,2,30,2|0|0,0:2|0:0|0:0,0:0:0:0:
179,305,55593,2,0,P|191:269|186:211,1,90,2|0,0:2|0:0,0:0:0:0:
142,90,56205,1,0,0:0:0:0:
259,22,56511,1,0,0:0:0:0:
373,93,56817,6,0,P|392:142|307:229,1,180,4|0,0:2|0:0,0:0:0:0:
187,189,57735,1,2,0:2:0:0:
70,257,58042,2,0,P|52:286|58:343,2,90,2|0|8,0:2|0:0|0:1,0:0:0:0:
188,189,58960,1,0,0:0:0:0:
292,103,59266,6,0,P|342:118|446:52,1,180,4|0,0:2|0:0,0:0:0:0:
491,181,60184,1,2,0:2:0:0:
428,301,60491,1,2,0:2:0:0:
342,196,60797,1,0,0:0:0:0:
491,181,61103,1,0,0:0:0:0:
428,301,61409,1,0,0:0:0:0:
296,332,61715,6,0,P|219:321|118:338,1,180,4|0,0:2|0:0,0:0:0:0:
16,250,62633,1,2,0:2:0:0:
100,144,62939,2,0,P|94:94|110:47,2,90,2|0|8,0:2|0:0|0:1,0:0:0:0:
176,256,63858,1,0,0:0:0:0:
288,329,64164,6,0,P|325:292|455:309,1,180,4|0,0:2|0:0,0:0:0:0:
499,176,65082,1,2,0:2:0:0:
424,63,65388,1,2,0:2:0:0:
352,177,65695,1,0,0:0:0:0:
499,176,66001,1,0,0:0:0:0:
424,63,66307,1,0,0:0:0:0:
289,69,66613,6,0,P|219:56|131:126,1,180,4|0,0:2|0:0,0:0:0:0:
52,222,67531,1,2,0:2:0:0:
139,324,67837,2,0,P|200:316|235:325,1,90,2|0,0:2|0:0,0:0:0:0:
341,249,68450,2,0,P|280:257|245:248,1,90,4|0,0:3|0:0,0:0:0:0:
131,192,69062,5,0,3:2:0:0:
252,250,69368,2,0,P|296:229|324:182,1,90,2|0,3:2|1:2,0:0:0:0:
370,75,69980,1,2,3:2:0:0:
465,170,70286,1,0,3:2:0:0:
319,196,70593,2,0,P|304:235|312:287,1,90,2|0,3:2|0:0,0:0:0:0:
439,317,71205,1,2,0:2:0:0:
465,170,71511,5,0,3:2:0:0:
319,196,71817,2,0,P|274:214|198:123,1,180,2|2,3:2|3:2,0:0:0:0:
303,46,72735,1,0,3:2:0:0:
196,129,73042,1,2,3:2:0:0:
91,214,73348,1,0,0:0:0:0:
190,304,73654,1,2,0:2:0:0:
295,219,73960,6,0,P|288:170|253:132,1,90,0|2,3:2|3:2,0:0:0:0:
156,221,74572,2,0,P|96:190|37:197,1,90,0|2,1:2|3:2,0:0:0:0:
6,72,75184,1,0,3:2:0:0:
74,188,75491,2,0,P|116:208|235:131,1,180,2|2,3:2|0:2,0:0:0:0:
309,46,76409,5,0,3:2:0:0:
227,153,76715,2,0,P|270:183|390:143,1,180,2|2,3:2|3:2,0:0:0:0:
466,43,77633,1,0,3:2:0:0:
384,150,77939,2,0,P|325:144|283:167,1,90,2|0,3:2|0:0,0:0:0:0:
211,259,78552,1,2,0:2:0:0:
94,190,78858,5,0,3:2:0:0:
157,71,79164,2,0,P|201:56|253:77,1,90,2|0,3:2|1:2,0:0:0:0:
346,152,79776,1,2,3:2:0:0:
241,67,80082,2,0,P|256:111|235:163,1,90,0|2,3:2|3:2,0:0:0:0:
165,261,80695,1,0,0:0:0:0:
58,343,81001,6,0,P|81:281|28:185,1,180,2|2,0:2|3:2,0:0:0:0:
123,88,81919,1,0,1:2:0:0:
243,149,82225,1,2,3:2:0:0:
365,92,82531,1,0,3:2:0:0:
482,158,82837,2,0,P|506:197|479:239,1,90,2|0,3:2|0:0,0:0:0:0:
389,325,83450,1,2,0:2:0:0:
275,251,83756,5,0,3:2:0:0:
174,341,84062,2,0,P|129:322|74:332,1,90,2|0,3:2|1:2,0:0:0:0:
12,214,84674,1,2,3:2:0:0:
82,98,84980,1,0,3:2:0:0:
12,214,85286,2,0,P|81:232|116:218,1,90,2|0,3:2|0:0,0:0:0:0:
213,158,85899,1,2,0:2:0:0:
321,238,86205,6,0,B|325:227|340:227|340:227|370:236|374:268|347:279|329:292|326:318,1,135,0|0,3:2|0:0,0:0:0:0:
246,317,86817,2,0,B|243:292|225:280|198:268|203:236|232:228|232:228|248:228|252:239,1,135,0|0,1:2|0:0,0:0:0:0:
216,167,87429,2,0,P|167:196|150:229,1,90,0|2,3:2|3:2,0:0:0:0:
78,337,88042,1,0,0:0:0:0:
4,224,88348,1,0,0:0:0:0:
77,111,88654,5,4,0:2:0:0:
297,119,95082,6,0,P|267:108|206:125,1,90,0|0,0:0|0:0,0:0:0:0:
123,223,95695,1,0,0:0:0:0:
258,225,96001,6,0,P|311:204|356:304,1,180,4|0,0:2|0:0,0:0:0:0:
239,350,96920,2,0,P|227:357|206:358,2,30,2|0|0,0:2|0:0|0:0,0:0:0:0:
209,290,97226,2,0,P|152:272|110:286,1,90,2|0,0:2|0:0,0:0:0:0:
19,364,97838,2,0,P|37:307|23:265,1,90,0|0,0:0|0:0,0:0:0:0:
56,147,98450,6,0,P|79:68|161:79,1,180,4|0,0:2|0:0,0:0:0:0:
296,96,99369,2,0,P|306:90|326:88,2,30,2|0|0,0:2|0:0|0:0,0:0:0:0:
259,152,99675,2,0,P|241:209|255:251,1,90,2|0,0:2|0:0,0:0:0:0:
160,340,100287,2,0,P|178:283|164:241,1,90,0|0,0:0|0:0,0:0:0:0:
136,125,100899,6,0,P|205:135|267:42,1,180,4|0,0:2|0:0,0:0:0:0:
394,106,101818,2,0,P|416:107|429:103,2,30,2|0|0,0:2|0:0|0:0,0:0:0:0:
344,152,102124,2,0,P|358:189|349:255,1,90,2|0,0:2|0:0,0:0:0:0:
278,349,102736,1,0,0:0:0:0:
221,227,103042,1,0,0:0:0:0:
356,239,103348,6,0,P|410:247|492:163,1,180,4|0,0:2|0:0,0:0:0:0:
420,51,104267,1,2,0:2:0:0:
291,89,104573,2,0,P|252:99|198:89,1,90,2|0,0:2|0:0,0:0:0:0:
89,162,105185,2,0,P|97:207|87:250,1,90,0|0,0:0|0:0,0:0:0:0:
193,334,105797,6,0,P|238:342|281:332,2,90,4|0|0,0:2|0:0|0:0,0:0:0:0:
87,250,106716,1,2,0:2:0:0:
150,131,107022,2,0,P|191:137|243:131,1,90,2|0,0:2|0:0,0:0:0:0:
368,92,107634,1,0,0:0:0:0:
461,190,107940,1,0,0:0:0:0:
364,284,108246,6,0,P|311:306|189:256,1,180,4|0,0:2|0:0,0:0:0:0:
87,195,109165,1,2,0:2:0:0:
153,77,109471,2,0,P|187:93|246:94,1,90,2|0,0:2|0:0,0:0:0:0:
359,157,110083,2,0,P|315:158|274:176,1,90,0|0,0:0|0:0,0:0:0:0:
158,245,110695,6,0,P|117:263|73:264,2,90,4|0|0,0:2|0:0|0:0,0:0:0:0:
255,340,111614,1,2,0:2:0:0:
370,269,111920,2,0,P|398:253|465:251,1,90,2|0,0:2|0:0,0:0:0:0:
395,128,112532,2,0,P|367:144|300:146,1,90,0|0,0:0|0:0,0:0:0:0:
177,131,113144,5,4,0:2:0:0:
48,92,113450,1,0,0:0:0:0:
91,221,113756,2,0,P|121:241|180:251,1,90,0|2,0:0|0:2,0:0:0:0:
260,162,114369,2,0,P|230:142|171:132,1,90,2|0,0:2|0:0,0:0:0:0:
91,221,114981,1,0,0:0:0:0:
157,339,115287,1,0,0:0:0:0:
260,162,115593,6,0,P|297:116|400:171,1,180,4|0,0:2|0:0,0:0:0:0:
425,287,116511,2,0,P|429:310|426:328,2,30,2|0|0,0:2|0:0|0:0,0:0:0:0:
373,244,116818,2,0,P|323:255|276:248,1,90,2|0,0:2|0:0,0:0:0:0:
176,330,117430,1,0,0:0:0:0:
57,267,117736,1,0,0:0:0:0:
160,179,118042,6,0,P|177:130|91:32,1,180,4|0,0:2|0:0,0:0:0:0:
53,158,118960,2,0,P|39:164|19:164,2,30,2|0|0,0:2|0:0|0:0,0:0:0:0:
120,171,119267,2,0,P|162:180|204:206,1,90,2|0,0:2|0:0,0:0:0:0:
239,335,119879,2,0,P|248:293|274:251,1,90,0|0,0:0|0:0,0:0:0:0:
400,208,120491,6,0,P|426:168|396:34,1,180,4|0,0:2|0:0,0:0:0:0:
271,50,121409,2,0,P|253:54|227:51,2,30,2|0|0,0:2|0:0|0:0,0:0:0:0:
333,79,121716,2,0,P|321:115|326:173,1,90,2|0,0:2|0:0,0:0:0:0:
370,294,122328,1,0,0:0:0:0:
253,362,122634,1,0,0:0:0:0:
139,291,122940,6,0,P|120:242|205:155,1,180,4|0,0:2|0:0,0:0:0:0:
325,195,123858,1,2,0:2:0:0:
442,127,124165,2,0,P|460:98|454:41,2,90,2|0|0,0:2|0:0|0:0,0:0:0:0:
324,195,125083,1,0,0:0:0:0:
220,281,125389,6,0,P|170:266|66:332,1,180,4|0,0:2|0:0,0:0:0:0:
21,203,126307,1,2,0:2:0:0:
84,83,126614,1,2,0:2:0:0:
170,188,126920,1,0,0:0:0:0:
21,203,127226,1,0,0:0:0:0:
84,83,127532,1,0,0:0:0:0:
216,52,127838,6,0,P|293:63|394:46,1,180,0|0,0:0|0:0,0:0:0:0:
496,134,128756,1,2,0:2:0:0:
412,240,129062,2,0,P|418:290|402:337,2,90,2|0|0,0:2|0:0|0:0,0:0:0:0:
336,128,129981,1,0,0:0:0:0:
224,55,130287,6,0,P|187:92|57:75,1,180,4|0,0:2|0:0,0:0:0:0:
13,208,131205,1,2,0:2:0:0:
88,321,131511,1,2,0:2:0:0:
160,207,131818,1,0,0:0:0:0:
13,208,132124,1,0,0:0:0:0:
88,321,132430,1,2,0:2:0:0:
223,315,132736,6,0,P|293:328|381:258,1,180,2|0,0:2|0:0,0:0:0:0:
460,162,133654,1,2,0:2:0:0:
373,60,133960,2,0,P|312:68|277:59,1,90,2|0,0:2|0:0,0:0:0:0:
171,135,134573,2,0,P|232:127|267:136,1,90,0|0,0:0|0:0,0:0:0:0:
381,192,135184,5,0,3:2:0:0:
260,134,135490,2,0,P|216:155|188:202,1,90,2|0,3:2|1:2,0:0:0:0:
142,309,136102,1,2,1:2:0:0:
47,214,136408,1,0,1:2:0:0:
193,188,136715,2,0,P|208:149|200:97,1,90,2|0,1:2|1:2,0:0:0:0:
73,67,137327,1,2,1:2:0:0:
47,214,137633,5,0,1:2:0:0:
193,188,137939,2,0,P|238:170|314:261,1,180,2|2,1:2|1:2,0:0:0:0:
209,338,138857,1,0,1:2:0:0:
316,255,139164,1,2,1:2:0:0:
421,170,139470,1,0,1:2:0:0:
322,80,139776,1,2,1:2:0:0:
217,165,140082,6,0,P|224:214|259:252,1,90,0|2,3:2|3:2,0:0:0:0:
356,163,140694,2,0,P|416:194|475:187,1,90,0|2,1:2|1:2,0:0:0:0:
506,312,141306,1,0,1:2:0:0:
438,196,141613,2,0,P|396:176|277:253,1,180,2|2,1:2|1:2,0:0:0:0:
203,338,142531,5,0,1:2:0:0:
285,231,142837,2,0,P|242:201|122:241,1,180,2|2,1:2|1:2,0:0:0:0:
46,341,143755,1,0,1:2:0:0:
128,234,144061,2,0,P|187:240|229:217,1,90,2|0,1:2|1:2,0:0:0:0:
301,125,144674,1,2,1:2:0:0:
418,194,144980,5,0,3:2:0:0:
355,313,145286,2,0,P|311:328|259:307,1,90,2|0,3:2|1:2,0:0:0:0:
166,232,145898,1,2,1:2:0:0:
271,317,146204,2,0,P|256:273|277:221,1,90,0|2,1:2|1:2,0:0:0:0:
347,123,146817,1,0,1:2:0:0:
454,41,147123,6,0,P|431:103|484:199,1,180,2|2,1:2|1:2,0:0:0:0:
389,296,148041,1,0,1:2:0:0:
268,233,148347,1,2,1:2:0:0:
147,292,148653,1,0,1:2:0:0:
30,226,148959,2,0,P|16:182|35:132,1,90,2|0,1:2|1:2,0:0:0:0:
123,59,149572,1,2,1:2:0:0:
237,133,149878,5,0,3:2:0:0:
338,43,150184,2,0,P|383:62|438:52,1,90,2|0,3:2|1:2,0:0:0:0:
500,170,150796,1,2,1:2:0:0:
430,286,151102,1,0,1:2:0:0:
500,170,151408,2,0,P|431:152|396:166,1,90,2|0,1:2|1:2,0:0:0:0:
290,208,152021,1,2,1:2:0:0:
215,129,152327,6,0,B|211:118|196:118|196:118|166:127|162:159|189:170|207:183|210:209,1,135,0|0,1:2|0:0,0:0:0:0:
290,208,152939,2,0,B|293:183|311:171|338:159|333:127|304:119|304:119|288:119|284:130,1,135,0|0,1:2|0:0,0:0:0:0:
192,58,153551,2,0,P|143:87|126:120,1,90,0|2,1:2|1:2,0:0:0:0:
128,250,154164,1,0,1:2:0:0:
224,345,154470,1,0,1:2:0:0:
320,249,154776,5,0,3:2:0:0:
340,136,158654,6,0,P|365:129|422:133,1,79.1999997583008,0|2,0:0|3:2,0:0:0:0:
461,220,159266,2,0,P|436:227|379:223,1,79.1999997583008,0|2,0:0|3:2,0:0:0:0:
72,336,163552,6,0,P|65:311|69:254,1,79.1999997583008,0|2,0:0|3:2,0:0:0:0:
156,215,164164,2,0,P|163:240|159:297,1,79.1999997583008,0|0,0:0|3:2,0:0:0:0:
157,215,166001,6,0,P|182:222|239:218,1,79.1999997583008,0|2,0:0|3:2,0:0:0:0:
278,131,166613,2,0,P|253:124|196:128,1,79.1999997583008,0|2,0:0|3:2,0:0:0:0:
455,44,168450,6,0,P|462:69|458:126,1,79.1999997583008,0|2,0:0|3:2,0:0:0:0:
371,165,169062,2,0,P|364:140|368:83,1,79.1999997583008,0|0,0:0|3:2,0:0:0:0:
293,169,170899,6,0,P|318:162|375:166,1,79.1999997583008,0|2,0:0|3:2,0:0:0:0:
414,253,171511,2,0,P|389:260|332:256,1,79.1999997583008,0|2,0:0|3:2,0:0:0:0:
428,51,173348,6,0,P|435:76|431:133,1,79.1999997583008,0|2,0:0|3:2,0:0:0:0:
373,208,173960,1,0,0:0:0:0:
211,322,174368,6,0,P|186:317|144:328,1,59.3999998187256,0|0,0:0|0:0,0:0:0:0:
33,235,174980,2,0,P|48:193|46:170,1,59.3999998187256,0|2,0:0|0:2,0:0:0:0:
96,123,175439,1,2,0:2:0:0:
96,123,175516,1,2,0:2:0:0:
96,123,175593,2,0,P|131:136|213:39,1,178.199999456177,2|0,0:2|0:0,0:0:0:0:
363,38,176817,6,0,P|397:33|430:35,2,59.3999998187256,0|0|2,0:0|0:0|0:2,0:0:0:0:
262,147,177735,2,0,P|236:142|229:142,1,29.6999999093628,2|2,0:2|0:2,0:0:0:0:
165,173,178042,2,0,P|191:198|178:327,1,178.199999456177,2|0,0:2|0:0,0:0:0:0:
91,303,179266,5,0,0:0:0:0:
59,219,179572,1,0,0:0:0:0:
102,141,179878,2,0,P|114:111|116:77,1,59.3999998187256,0|2,0:0|0:2,0:0:0:0:
169,31,180337,1,2,0:2:0:0:
169,31,180414,1,2,0:2:0:0:
169,31,180491,2,0,P|197:62|329:62,1,178.199999456177,0|0,0:0|0:0,0:0:0:0:
469,97,181715,6,0,P|458:130|459:163,1,59.3999998187256,0|0,0:0|0:0,0:0:0:0:
481,300,182327,1,0,0:0:0:0:
341,250,182633,2,0,P|316:243|307:243,1,29.6999999093628,2|2,0:2|0:2,0:0:0:0:
255,290,182939,2,0,P|223:308|103:243,1,178.199999456177,2|0,0:2|0:0,0:0:0:0:
64,111,184164,6,0,P|44:92|5:78,2,59.3999998187256,0|0|2,0:0|0:0|0:2,0:0:0:0:
185,196,185082,1,0,0:0:0:0:
299,101,185388,2,0,P|319:82|358:68,2,59.3999998187256,0|0|0,0:0|0:0|0:0,0:0:0:0:
185,196,186307,1,0,0:0:0:0:
98,316,186613,6,0,P|129:328|162:331,1,59.3999998187256,0|0,3:2|3:2,0:0:0:0:
224,305,187072,1,0,0:0:0:0:
294,326,187225,2,0,P|332:315|375:325,1,59.3999998187256,2|2,0:2|0:2,0:0:0:0:
416,336,187684,1,0,0:0:0:0:
434,272,187837,2,0,P|416:220|470:111,1,178.199999456177,2|0,3:2|0:0,0:0:0:0:
344,74,189062,6,0,P|304:90|268:84,1,59.3999998187256,0|0,3:2|3:2,0:0:0:0:
223,98,189521,1,0,0:0:0:0:
157,74,189674,2,0,P|137:68|96:68,1,59.3999998187256,2|2,0:2|0:2,0:0:0:0:
26,86,190133,1,0,0:0:0:0:
26,86,190286,2,0,P|51:163|14:261,1,178.199999456177,2|0,3:2|0:0,0:0:0:0:
149,328,191511,6,0,P|173:292|183:246,1,89.0999997280884,0|0,3:2|0:0,0:0:0:0:
199,175,192123,2,0,P|235:199|281:209,1,89.0999997280884,2|0,0:2|0:0,0:0:0:0:
342,169,192735,2,0,P|369:164|379:163,1,29.6999999093628,2|0,3:2|0:0,0:0:0:0:
442,140,193042,2,0,P|462:186|443:261,1,118.799999637451,0|0,3:2|0:0,0:0:0:0:
391,319,193960,6,0,P|342:309|296:322,1,89.0999997280884,0|0,3:2|0:0,0:0:0:0:
241,338,194572,2,0,P|216:344|176:341,1,59.3999998187256,2|2,0:2|0:2,0:0:0:0:
129,302,195031,2,0,P|149:255|105:131,1,178.199999456177,0|0,0:0|0:0,0:0:0:0:
62,83,196103,5,0,0:0:0:0:
205,45,196409,2,0,P|249:54|296:45,1,89.0999997280884,0|0,3:2|0:0,0:0:0:0:
365,35,197021,2,0,P|362:58|363:72,1,29.6999999093628,2|0,0:2|0:0,0:0:0:0:
407,123,197327,2,0,P|396:147|401:238,1,118.799999637451,2|0,0:2|3:2,0:0:0:0:
362,316,198246,2,0,P|344:300|332:294,1,29.6999999093628,2|0,0:2|0:0,0:0:0:0:
282,277,198552,6,0,P|247:299|194:290,1,89.0999997280884,0|0,0:0|0:0,0:0:0:0:
136,250,199164,1,0,3:2:0:0:
136,104,199470,2,0,P|170:88|227:89,1,89.0999997280884,2|0,0:2|0:0,0:0:0:0:
274,138,200082,2,0,P|318:137|395:244,1,178.199999456177,2|0,3:2|0:0,0:0:0:0:
286,334,201307,6,0,P|262:342|196:331,1,89.0999997280884,0|0,3:2|0:0,0:0:0:0:
136,295,201919,1,2,0:2:0:0:
217,170,202225,2,0,P|229:136|211:57,1,118.799999637451,2|0,0:2|3:2,0:0:0:0:
143,26,202991,1,0,0:0:0:0:
93,81,203144,2,0,P|81:115|94:167,1,89.0999997280884,0|0,0:0|0:0,0:0:0:0:
165,254,203756,2,0,B|153:221|104:230|87:266|103:309|144:300|169:347|169:347|196:300|234:313|247:264|232:227|185:222|176:259,1,356.399998912354,0|0,3:2|0:0,0:0:0:0:
178,251,206205,5,0,3:2:0:0:
273,155,206511,2,0,P|317:176|345:223,1,90,2|0,3:2|0:0,0:0:0:0:
389,334,207123,1,2,3:2:0:0:
478,233,207429,1,0,3:2:0:0:
340,208,207736,2,0,P|325:169|333:117,1,90,2|0,3:2|0:0,0:0:0:0:
439,67,208348,1,2,0:2:0:0:
478,233,208654,5,0,3:2:0:0:
340,208,208960,2,0,P|295:190|219:281,1,180,2|2,3:2|0:2,0:0:0:0:
332,345,209878,1,0,3:2:0:0:
217,274,210185,1,2,3:2:0:0:
100,206,210491,1,0,0:0:0:0:
180,97,210797,1,0,0:0:0:0:
287,178,211103,6,0,P|280:227|245:265,1,90,0|2,3:2|3:2,0:0:0:0:
155,163,211715,2,0,P|95:194|36:187,1,90,0|2,0:0|3:2,0:0:0:0:
0,305,212327,1,0,3:2:0:0:
73,195,212634,2,0,P|115:175|234:252,1,180,2|2,3:2|0:2,0:0:0:0:
309,338,213552,5,0,3:2:0:0:
226,229,213858,2,0,P|269:199|389:239,1,180,2|2,3:2|0:2,0:0:0:0:
466,341,214776,1,0,3:2:0:0:
383,231,215082,2,0,P|324:237|282:214,1,90,2|0,3:2|0:0,0:0:0:0:
211,125,215695,1,0,0:0:0:0:
94,194,216001,5,0,3:2:0:0:
157,313,216307,2,0,P|201:328|253:307,1,90,2|0,3:2|0:0,0:0:0:0:
346,232,216919,1,2,3:2:0:0:
241,317,217225,2,0,P|256:273|235:221,1,90,0|2,3:2|3:2,0:0:0:0:
165,123,217838,1,0,0:0:0:0:
58,41,218144,6,0,P|81:103|28:199,1,180,2|2,0:2|3:2,0:0:0:0:
123,296,219062,1,0,0:0:0:0:
244,233,219368,1,2,0:2:0:0:
365,292,219674,1,0,3:2:0:0:
482,226,219980,2,0,P|490:183|472:122,1,90,2|0,3:2|0:0,0:0:0:0:
383,44,220593,1,0,0:0:0:0:
275,133,220899,5,0,3:2:0:0:
174,43,221205,2,0,P|129:62|74:52,1,90,2|0,3:2|0:0,0:0:0:0:
12,170,221817,1,2,3:2:0:0:
82,286,222123,1,0,3:2:0:0:
12,170,222429,2,0,P|81:152|116:166,1,90,2|0,3:2|0:0,0:0:0:0:
222,208,223042,1,2,0:2:0:0:
297,129,223348,6,0,B|301:118|316:118|316:118|346:127|350:159|323:170|305:183|302:209,1,135,0|0,3:2|0:0,0:0:0:0:
222,208,223960,2,0,B|219:183|201:171|174:159|179:127|208:119|208:119|224:119|228:130,1,135,0|0,0:0|0:0,0:0:0:0:
320,58,224572,2,0,P|359:77|384:114,1,90,0|2,3:2|3:2,0:0:0:0:
384,250,225185,1,0,0:0:0:0:
288,345,225491,1,0,0:0:0:0:
192,249,225797,5,0,0:0:0:0:
