osu file format v14

[General]
AudioFilename: audio.mp3
AudioLeadIn: 0
PreviewTime: 53454
Countdown: 3
SampleSet: Normal
StackLeniency: 0.7
Mode: 0
LetterboxInBreaks: 0
WidescreenStoryboard: 0

[Editor]
DistanceSpacing: 1
BeatDivisor: 6
GridSize: 4
TimelineZoom: 1.7

[Metadata]
Title:Niconiconi
TitleUnicode:Niconiconi
Artist:Dehumanizing Itatrain Worship
ArtistUnicode:Dehumanizing Itatrain Worship
Creator:quadz
Version:Nico Nico Nii Stream
Source:
Tags:death metal metal anime brutal death metal death metal doujin metal lovelive metal slamming death metal technical death metal China
BeatmapID:1325262
BeatmapSetID:628613

[Difficulty]
HPDrainRate:4
CircleSize:4
OverallDifficulty:9
ApproachRate:10
SliderMultiplier:2
SliderTickRate:1

[Events]
//Background and Video events
0,0,"maxresdefault.jpg",0,0
//Break Periods
2,109478,128447
//Storyboard Layer 0 (Background)
//Storyboard Layer 1 (Fail)
//Storyboard Layer 2 (Pass)
//Storyboard Layer 3 (Foreground)
//Storyboard Sound Samples

[TimingPoints]
800,326.086956521739,4,1,0,100,1,0
7972,-133.333333333333,4,1,0,100,0,0
8135,-100,4,1,0,100,0,0
8950,-200,4,1,0,100,0,0
9928,-100,4,1,0,100,0,0
10907,-133.333333333333,4,1,0,100,0,0
31990,-100,4,1,0,100,0,1
42423,-100,4,1,0,100,0,0
52973,-100,4,1,0,5,0,0
54223,-200,4,1,0,100,0,1
60473,-100,4,1,0,100,0,1
60800,-200,4,1,0,100,0,1
65854,-100,4,1,0,100,0,0
97756,-200,4,1,0,100,0,0
98191,-142.857142857143,4,1,0,100,0,0
98300,-125,4,1,0,100,0,0
98408,-111.111111111111,4,1,0,100,0,0
98517,-142.857142857143,4,1,0,100,0,0
98626,-125,4,1,0,100,0,0
98734,-111.111111111111,4,1,0,100,0,0
98843,-100,4,1,0,100,0,1
109278,-200,4,1,0,100,0,0
128897,-200,4,1,0,5,0,0

[Colours]
Combo1 : 255,136,139
Combo2 : 255,106,106
Combo3 : 255,149,152
Combo4 : 145,0,0

[HitObjects]
140,96,800,6,0,L|188:76,6,33.3333333333333
20,200,1452,5,0,0:0:0:0:
192,136,1615,1,0,0:0:0:0:
240,312,1778,1,0,0:0:0:0:
120,232,1941,1,0,0:0:0:0:
288,92,2104,6,0,P|340:76|388:80,1,100
512,196,2430,1,0,0:0:0:0:
356,264,2593,1,0,0:0:0:0:
472,60,2756,1,0,0:0:0:0:
324,32,2919,2,0,P|272:44|236:84,2,100
484,144,3408,5,0,0:0:0:0:
288,196,3571,1,0,0:0:0:0:
380,44,3734,1,0,0:0:0:0:
456,264,3897,1,0,0:0:0:0:
280,336,4060,2,0,P|232:328|184:288,1,100
324,216,4386,1,0,0:0:0:0:
472,232,4550,1,0,0:0:0:0:
408,148,4713,5,0,0:0:0:0:
360,136,4794,1,0,0:0:0:0:
308,136,4876,1,0,0:0:0:0:
264,160,4957,1,0,0:0:0:0:
216,168,5039,1,0,0:0:0:0:
168,152,5120,1,0,0:0:0:0:
140,112,5202,1,0,0:0:0:0:
188,96,5285,1,0,0:0:0:0:
236,104,5365,1,0,0:0:0:0:
276,136,5446,1,0,0:0:0:0:
324,156,5528,1,0,0:0:0:0:
452,124,5691,5,0,0:0:0:0:
272,56,5854,1,0,0:0:0:0:
408,8,6017,6,0,P|468:24|508:56,1,100
192,88,6343,1,0,0:0:0:0:
328,40,6506,1,0,0:0:0:0:
136,8,6669,1,0,0:0:0:0:
280,92,6832,1,0,0:0:0:0:
300,140,6914,1,0,0:0:0:0:
304,188,6995,1,0,0:0:0:0:
144,152,7158,1,0,0:0:0:0:
264,272,7321,5,0,0:0:0:0:
136,256,7484,1,0,0:0:0:0:
308,112,7647,1,0,0:0:0:0:
192,180,7810,1,0,0:0:0:0:
332,208,7973,2,0,B|364:220|392:204|424:216,1,75.0000028610231
512,144,8300,1,0,0:0:0:0:
392,300,8463,1,0,0:0:0:0:
500,236,8626,5,0,0:0:0:0:
408,128,8789,1,0,0:0:0:0:
356,128,8870,1,0,0:0:0:0:
312,148,8952,2,0,L|288:184,2,33.3333333333333
224,136,9278,2,0,L|188:168,2,33.3333333333333
180,68,9604,2,0,L|136:64,2,33.3333333333333
72,232,9931,5,0,0:0:0:0:
116,260,10013,1,0,0:0:0:0:
164,260,10094,1,0,0:0:0:0:
292,168,10257,1,0,0:0:0:0:
148,164,10420,1,0,0:0:0:0:
280,288,10583,1,0,0:0:0:0:
328,280,10665,1,0,0:0:0:0:
372,256,10747,1,0,0:0:0:0:
396,212,10828,1,0,0:0:0:0:
396,160,10910,5,0,0:0:0:0:
168,116,11399,1,0,0:0:0:0:
352,56,11562,1,0,0:0:0:0:
80,92,12051,1,0,0:0:0:0:
240,212,12214,1,0,0:0:0:0:
112,248,13192,5,0,0:0:0:0:
252,104,13518,1,0,0:0:0:0:
364,156,13681,1,0,0:0:0:0:
196,176,13844,1,0,0:0:0:0:
344,52,14007,1,0,0:0:0:0:
284,252,14170,1,0,0:0:0:0:
56,276,14496,5,0,0:0:0:0:
184,264,14659,1,0,0:0:0:0:
36,156,14822,1,0,0:0:0:0:
224,344,15311,5,0,0:0:0:0:
416,280,15474,1,0,0:0:0:0:
176,184,15963,1,0,0:0:0:0:
316,276,16126,1,0,0:0:0:0:
376,120,16778,5,0,0:0:0:0:
280,180,16995,1,0,0:0:0:0:
236,156,17104,1,0,0:0:0:0:
212,112,17213,1,0,0:0:0:0:
224,64,17322,1,0,0:0:0:0:
268,44,17430,1,0,0:0:0:0:
424,208,17593,1,0,0:0:0:0:
376,0,17756,1,0,0:0:0:0:
228,268,18082,5,0,0:0:0:0:
88,172,18245,1,0,0:0:0:0:
316,200,18408,1,0,0:0:0:0:
168,32,18571,1,0,0:0:0:0:
212,192,18734,1,0,0:0:0:0:
264,32,18897,1,0,0:0:0:0:
400,148,19060,1,0,0:0:0:0:
192,200,19386,5,0,0:0:0:0:
212,216,19441,1,0,0:0:0:0:
236,220,19495,1,0,0:0:0:0:
260,216,19549,1,0,0:0:0:0:
284,208,19604,1,0,0:0:0:0:
304,192,19658,1,0,0:0:0:0:
328,184,19712,1,0,0:0:0:0:
332,208,19767,1,0,0:0:0:0:
316,228,19821,1,0,0:0:0:0:
292,240,19875,1,0,0:0:0:0:
268,240,19930,1,0,0:0:0:0:
244,240,19984,1,0,0:0:0:0:
224,252,20038,1,0,0:0:0:0:
80,48,20528,5,0,0:0:0:0:
272,96,20691,1,0,0:0:0:0:
484,72,21180,1,0,0:0:0:0:
320,172,21343,1,0,0:0:0:0:
52,160,22321,5,0,0:0:0:0:
240,336,22647,1,0,0:0:0:0:
268,208,22810,1,0,0:0:0:0:
120,264,22973,1,0,0:0:0:0:
256,96,23136,1,0,0:0:0:0:
120,136,23300,1,0,0:0:0:0:
504,20,23626,5,0,0:0:0:0:
392,200,23789,1,0,0:0:0:0:
392,56,23952,1,0,0:0:0:0:
464,136,24441,5,0,0:0:0:0:
264,112,24604,1,0,0:0:0:0:
84,220,25093,1,0,0:0:0:0:
276,188,25256,1,0,0:0:0:0:
172,336,25908,5,0,0:0:0:0:
240,272,26071,1,0,0:0:0:0:
276,264,26153,1,0,0:0:0:0:
312,268,26234,1,0,0:0:0:0:
352,360,26397,1,0,0:0:0:0:
316,348,26479,1,0,0:0:0:0:
296,316,26560,1,0,0:0:0:0:
460,304,26723,1,0,0:0:0:0:
480,144,26886,1,0,0:0:0:0:
220,224,27213,5,0,0:0:0:0:
372,136,27376,1,0,0:0:0:0:
236,72,27539,1,0,0:0:0:0:
304,240,27702,1,0,0:0:0:0:
356,44,27865,1,0,0:0:0:0:
184,168,28028,1,0,0:0:0:0:
448,136,28191,1,0,0:0:0:0:
264,64,28517,5,0,0:0:0:0:
241,75,28571,1,0,0:0:0:0:
216,79,28626,1,0,0:0:0:0:
192,74,28678,1,0,0:0:0:0:
169,70,28734,1,0,0:0:0:0:
145,65,28789,1,0,0:0:0:0:
144,88,28843,1,0,0:0:0:0:
160,108,28897,1,0,0:0:0:0:
184,116,28952,1,0,0:0:0:0:
208,120,29006,1,0,0:0:0:0:
232,132,29060,1,0,0:0:0:0:
252,148,29115,1,0,0:0:0:0:
252,172,29169,1,0,0:0:0:0:
32,240,30256,5,0,0:0:0:0:
228,312,30636,1,0,0:0:0:0:
396,168,31669,5,0,0:0:0:0:
272,216,31832,1,0,0:0:0:0:
376,244,31995,1,0,0:0:0:0:
408,248,32047,1,0,0:0:0:0:
444,248,32104,5,0,0:0:0:0:
476,240,32156,1,0,0:0:0:0:
500,216,32213,1,0,0:0:0:0:
472,200,32267,1,0,0:0:0:0:
440,196,32321,1,0,0:0:0:0:
408,200,32376,1,0,0:0:0:0:
376,212,32430,1,0,0:0:0:0:
344,224,32484,1,0,0:0:0:0:
312,220,32539,1,0,0:0:0:0:
280,212,32593,1,0,0:0:0:0:
256,192,32645,5,0,0:0:0:0:
244,160,32702,1,0,0:0:0:0:
252,128,32756,1,0,0:0:0:0:
276,108,32810,1,0,0:0:0:0:
308,116,32865,1,0,0:0:0:0:
340,116,32919,1,0,0:0:0:0:
372,116,32973,1,0,0:0:0:0:
400,100,33028,1,0,0:0:0:0:
428,84,33082,6,0,L|440:28,5,33.3333333333333
336,28,33408,1,0,0:0:0:0:
304,40,33463,1,0,0:0:0:0:
272,52,33517,1,0,0:0:0:0:
240,60,33571,1,0,0:0:0:0:
208,56,33626,1,0,0:0:0:0:
176,44,33680,1,0,0:0:0:0:
144,36,33734,1,0,0:0:0:0:
112,40,33789,1,0,0:0:0:0:
84,56,33843,1,0,0:0:0:0:
76,88,33897,1,0,0:0:0:0:
92,116,33952,1,0,0:0:0:0:
124,128,34006,5,0,0:0:0:0:
156,128,34060,1,0,0:0:0:0:
188,132,34115,1,0,0:0:0:0:
212,156,34169,1,0,0:0:0:0:
212,188,34223,1,0,0:0:0:0:
192,212,34278,1,0,0:0:0:0:
160,216,34332,1,0,0:0:0:0:
128,204,34386,2,0,L|96:188,5,33.3333333333333
40,276,34713,5,0,0:0:0:0:
64,300,34767,1,0,0:0:0:0:
96,312,34821,1,0,0:0:0:0:
128,320,34876,1,0,0:0:0:0:
160,316,34930,1,0,0:0:0:0:
188,296,34984,1,0,0:0:0:0:
216,280,35039,1,0,0:0:0:0:
248,272,35093,1,0,0:0:0:0:
280,272,35147,1,0,0:0:0:0:
312,284,35202,1,0,0:0:0:0:
332,300,35256,1,0,0:0:0:0:
348,328,35310,5,0,0:0:0:0:
376,348,35365,1,0,0:0:0:0:
408,348,35419,1,0,0:0:0:0:
436,328,35473,1,0,0:0:0:0:
444,296,35528,1,0,0:0:0:0:
432,264,35582,1,0,0:0:0:0:
404,244,35636,1,0,0:0:0:0:
372,256,35691,2,0,L|332:292,5,33.3333333333333
260,240,36017,5,0,0:0:0:0:
280,216,36071,1,0,0:0:0:0:
308,200,36126,1,0,0:0:0:0:
340,188,36180,1,0,0:0:0:0:
372,188,36234,1,0,0:0:0:0:
404,204,36289,1,0,0:0:0:0:
436,204,36343,1,0,0:0:0:0:
464,188,36394,1,0,0:0:0:0:
488,160,36452,1,0,0:0:0:0:
496,128,36503,1,0,0:0:0:0:
480,96,36560,1,0,0:0:0:0:
452,80,36615,1,0,0:0:0:0:
420,84,36669,6,0,L|364:104,5,33.3333333333333
292,160,36995,2,0,L|252:124,5,33.3333333333333
240,60,37321,6,0,L|200:40,5,33.3333333333333
352,88,37647,2,0,L|392:76,5,33.3333333333333
244,184,37973,2,0,L|204:192,5,33.3333333333333
364,228,38299,2,0,L|396:256,5,33.3333333333333
304,300,38626,6,0,L|272:348,5,33.3333333333333
272,188,38952,2,0,L|264:144,5,33.3333333333333
204,292,39278,2,0,L|176:320,5,33.3333333333333
128,172,39604,2,0,L|128:136,5,33.3333333333333
52,276,39930,5,0,0:0:0:0:
84,276,39984,1,0,0:0:0:0:
116,268,40039,1,0,0:0:0:0:
144,252,40093,1,0,0:0:0:0:
168,232,40147,1,0,0:0:0:0:
188,204,40202,1,0,0:0:0:0:
192,172,40256,1,0,0:0:0:0:
180,140,40310,1,0,0:0:0:0:
176,108,40365,1,0,0:0:0:0:
196,80,40419,1,0,0:0:0:0:
228,76,40473,1,0,0:0:0:0:
252,100,40528,5,0,0:0:0:0:
260,132,40582,1,0,0:0:0:0:
260,164,40636,1,0,0:0:0:0:
252,196,40691,1,0,0:0:0:0:
232,220,40745,1,0,0:0:0:0:
208,244,40799,1,0,0:0:0:0:
188,272,40854,1,0,0:0:0:0:
184,304,40908,1,0,0:0:0:0:
196,336,40963,1,0,0:0:0:0:
224,352,41017,1,0,0:0:0:0:
256,344,41071,5,0,0:0:0:0:
268,312,41126,1,0,0:0:0:0:
276,280,41180,1,0,0:0:0:0:
304,264,41234,1,0,0:0:0:0:
336,268,41289,1,0,0:0:0:0:
364,288,41343,1,0,0:0:0:0:
396,288,41397,1,0,0:0:0:0:
424,280,41448,1,0,0:0:0:0:
392,264,41506,1,0,0:0:0:0:
360,268,41557,1,0,0:0:0:0:
328,272,41615,1,0,0:0:0:0:
296,268,41669,1,0,0:0:0:0:
268,248,41723,5,0,0:0:0:0:
256,216,41778,1,0,0:0:0:0:
260,184,41832,1,0,0:0:0:0:
288,164,41886,1,0,0:0:0:0:
320,164,41941,1,0,0:0:0:0:
352,176,41995,1,0,0:0:0:0:
384,184,42049,1,0,0:0:0:0:
416,172,42104,1,0,0:0:0:0:
432,144,42158,1,0,0:0:0:0:
424,112,42213,1,0,0:0:0:0:
400,92,42267,1,0,0:0:0:0:
368,84,42321,1,0,0:0:0:0:
336,80,42376,1,0,0:0:0:0:
304,88,42430,1,0,0:0:0:0:
272,84,42484,5,0,0:0:0:0:
312,16,42647,1,0,0:0:0:0:
472,48,42810,1,0,0:0:0:0:
400,156,42973,1,0,0:0:0:0:
208,204,43136,1,0,0:0:0:0:
280,96,43299,1,0,0:0:0:0:
404,260,43463,1,0,0:0:0:0:
300,340,43626,1,0,0:0:0:0:
196,264,43730,5,0,0:0:0:0:
192,264,43785,5,0,0:0:0:0:
188,264,43839,1,0,0:0:0:0:
184,264,43893,1,0,0:0:0:0:
180,264,43948,1,0,0:0:0:0:
176,264,44002,1,0,0:0:0:0:
172,264,44056,1,0,0:0:0:0:
168,264,44111,1,0,0:0:0:0:
164,264,44165,1,0,0:0:0:0:
160,264,44219,1,0,0:0:0:0:
156,264,44274,1,0,0:0:0:0:
152,264,44328,1,0,0:0:0:0:
148,264,44382,1,0,0:0:0:0:
144,264,44437,5,0,0:0:0:0:
32,328,44604,1,0,0:0:0:0:
96,196,44767,1,0,0:0:0:0:
152,344,44930,1,0,0:0:0:0:
0,216,45093,1,0,0:0:0:0:
88,96,45256,1,0,0:0:0:0:
188,244,45419,1,0,0:0:0:0:
92,192,45582,1,0,0:0:0:0:
320,88,45745,1,0,0:0:0:0:
196,124,45908,1,0,0:0:0:0:
376,216,46071,5,0,0:0:0:0:
228,12,46234,1,0,0:0:0:0:
276,248,46397,1,0,0:0:0:0:
308,60,46560,1,0,0:0:0:0:
176,160,46723,1,0,0:0:0:0:
348,172,46886,2,0,B|384:156|412:180|460:168,1,100
156,68,47158,2,0,B|120:48|72:72|36:52,1,100
200,280,47430,2,0,L|240:288,5,33.3333333333333
372,272,47865,5,0,0:0:0:0:
260,204,48028,1,0,0:0:0:0:
436,88,48191,1,0,0:0:0:0:
356,168,48354,1,0,0:0:0:0:
512,172,48517,1,0,0:0:0:0:
304,80,48680,1,0,0:0:0:0:
468,16,48843,1,0,0:0:0:0:
260,4,49006,6,0,L|196:4,4,33.3333333333333
204,88,49332,2,0,L|156:120,4,33.3333333333333
204,192,49658,1,0,0:0:0:0:
204,196,49713,1,0,0:0:0:0:
204,200,49767,1,0,0:0:0:0:
204,204,49821,5,0,0:0:0:0:
296,124,49984,1,0,0:0:0:0:
112,28,50147,1,0,0:0:0:0:
180,120,50310,1,0,0:0:0:0:
196,0,50473,1,0,0:0:0:0:
40,192,50636,1,0,0:0:0:0:
92,100,50800,1,0,0:0:0:0:
224,256,50963,5,0,0:0:0:0:
112,268,51126,1,0,0:0:0:0:
200,80,51289,1,0,0:0:0:0:
148,176,51452,1,0,0:0:0:0:
320,256,51615,1,0,0:0:0:0:
324,256,51669,1,0,0:0:0:0:
328,256,51723,1,0,0:0:0:0:
332,256,51778,1,0,0:0:0:0:
336,256,51832,1,0,0:0:0:0:
340,256,51886,1,0,0:0:0:0:
344,256,51941,1,0,0:0:0:0:
348,256,51995,1,0,0:0:0:0:
352,256,52049,1,0,0:0:0:0:
356,256,52104,1,0,0:0:0:0:
324,352,52376,5,0,0:0:0:0:
496,244,52647,5,0,0:0:0:0:
256,192,52981,12,0,54231,0:0:0:0:
424,160,54278,5,0,0:0:0:0:
418,157,54332,1,0,0:0:0:0:
411,154,54386,1,0,0:0:0:0:
405,152,54441,1,0,0:0:0:0:
398,151,54495,1,0,0:0:0:0:
392,149,54549,1,0,0:0:0:0:
385,148,54604,1,0,0:0:0:0:
379,148,54658,1,0,0:0:0:0:
372,147,54713,1,0,0:0:0:0:
365,147,54767,1,0,0:0:0:0:
359,147,54821,1,0,0:0:0:0:
352,147,54876,1,0,0:0:0:0:
345,146,54930,1,0,0:0:0:0:
339,146,54984,1,0,0:0:0:0:
332,145,55039,1,0,0:0:0:0:
325,145,55093,1,0,0:0:0:0:
319,143,55147,1,0,0:0:0:0:
312,142,55202,1,0,0:0:0:0:
306,140,55256,1,0,0:0:0:0:
300,138,55312,1,0,0:0:0:0:
293,136,55365,1,0,0:0:0:0:
288,133,55419,1,0,0:0:0:0:
282,129,55473,1,0,0:0:0:0:
276,128,55528,1,0,0:0:0:0:
280,122,55582,5,0,0:0:0:0:
284,117,55636,1,0,0:0:0:0:
289,113,55691,1,0,0:0:0:0:
295,109,55745,1,0,0:0:0:0:
301,106,55799,1,0,0:0:0:0:
307,103,55854,1,0,0:0:0:0:
313,101,55908,1,0,0:0:0:0:
320,100,55963,1,0,0:0:0:0:
326,99,56017,1,0,0:0:0:0:
333,99,56071,1,0,0:0:0:0:
340,99,56126,1,0,0:0:0:0:
346,100,56180,1,0,0:0:0:0:
353,102,56234,1,0,0:0:0:0:
359,104,56289,1,0,0:0:0:0:
365,107,56343,1,0,0:0:0:0:
372,108,56397,1,0,0:0:0:0:
378,110,56452,1,0,0:0:0:0:
384,112,56506,1,0,0:0:0:0:
391,113,56560,1,0,0:0:0:0:
397,113,56615,1,0,0:0:0:0:
404,113,56669,1,0,0:0:0:0:
411,112,56723,1,0,0:0:0:0:
417,110,56778,1,0,0:0:0:0:
423,107,56832,1,0,0:0:0:0:
429,104,56886,5,0,0:0:0:0:
435,101,56941,1,0,0:0:0:0:
440,97,56995,1,0,0:0:0:0:
445,92,57049,1,0,0:0:0:0:
449,87,57104,1,0,0:0:0:0:
452,81,57158,1,0,0:0:0:0:
455,75,57213,1,0,0:0:0:0:
452,68,57267,1,0,0:0:0:0:
447,63,57323,1,0,0:0:0:0:
442,58,57376,1,0,0:0:0:0:
436,55,57430,1,0,0:0:0:0:
430,52,57484,1,0,0:0:0:0:
424,50,57539,1,0,0:0:0:0:
417,48,57593,1,0,0:0:0:0:
411,47,57647,1,0,0:0:0:0:
404,46,57703,1,0,0:0:0:0:
398,46,57756,1,0,0:0:0:0:
391,45,57810,1,0,0:0:0:0:
384,45,57865,1,0,0:0:0:0:
378,45,57919,1,0,0:0:0:0:
371,44,57973,1,0,0:0:0:0:
364,44,58028,1,0,0:0:0:0:
358,43,58082,1,0,0:0:0:0:
351,43,58136,1,0,0:0:0:0:
344,42,58191,5,0,0:0:0:0:
338,42,58245,1,0,0:0:0:0:
331,41,58299,1,0,0:0:0:0:
325,39,58354,1,0,0:0:0:0:
318,38,58408,1,0,0:0:0:0:
312,37,58463,1,0,0:0:0:0:
304,40,58517,1,0,0:0:0:0:
298,43,58572,1,0,0:0:0:0:
292,46,58626,1,0,0:0:0:0:
286,49,58680,1,0,0:0:0:0:
280,52,58734,1,0,0:0:0:0:
274,54,58789,1,0,0:0:0:0:
267,56,58843,1,0,0:0:0:0:
261,57,58897,1,0,0:0:0:0:
254,58,58952,1,0,0:0:0:0:
247,59,59006,1,0,0:0:0:0:
241,59,59060,1,0,0:0:0:0:
234,59,59115,1,0,0:0:0:0:
227,59,59169,1,0,0:0:0:0:
221,59,59223,1,0,0:0:0:0:
214,60,59278,1,0,0:0:0:0:
207,60,59332,1,0,0:0:0:0:
201,60,59386,1,0,0:0:0:0:
194,60,59441,1,0,0:0:0:0:
187,60,59495,5,0,0:0:0:0:
181,61,59549,1,0,0:0:0:0:
174,62,59604,1,0,0:0:0:0:
168,63,59658,1,0,0:0:0:0:
161,65,59713,1,0,0:0:0:0:
155,68,59767,1,0,0:0:0:0:
149,70,59821,1,0,0:0:0:0:
143,74,59876,1,0,0:0:0:0:
140,80,59930,1,0,0:0:0:0:
136,84,59984,1,0,0:0:0:0:
132,88,60039,1,0,0:0:0:0:
128,96,60093,1,0,0:0:0:0:
124,104,60147,1,0,0:0:0:0:
124,112,60202,1,0,0:0:0:0:
124,120,60256,1,0,0:0:0:0:
124,128,60310,1,0,0:0:0:0:
128,136,60365,1,0,0:0:0:0:
132,144,60419,1,0,0:0:0:0:
136,156,60473,6,0,L|184:156,2,33.3333333333333
76,216,60636,2,0,L|24:200,2,33.3333333333333
164,260,60799,5,0,0:0:0:0:
170,257,60854,1,0,0:0:0:0:
176,256,60908,1,0,0:0:0:0:
183,255,60963,1,0,0:0:0:0:
190,254,61017,1,0,0:0:0:0:
196,253,61071,1,0,0:0:0:0:
203,251,61126,1,0,0:0:0:0:
209,250,61181,1,0,0:0:0:0:
215,248,61234,1,0,0:0:0:0:
222,245,61289,1,0,0:0:0:0:
228,243,61343,1,0,0:0:0:0:
234,241,61397,1,0,0:0:0:0:
240,238,61452,1,0,0:0:0:0:
246,235,61507,1,0,0:0:0:0:
252,233,61560,1,0,0:0:0:0:
259,230,61616,1,0,0:0:0:0:
265,228,61669,1,0,0:0:0:0:
271,226,61724,1,0,0:0:0:0:
277,224,61778,1,0,0:0:0:0:
284,222,61832,1,0,0:0:0:0:
290,220,61886,1,0,0:0:0:0:
297,219,61942,1,0,0:0:0:0:
304,219,61995,1,0,0:0:0:0:
310,219,62049,1,0,0:0:0:0:
317,219,62104,5,0,0:0:0:0:
324,220,62158,1,0,0:0:0:0:
330,221,62213,1,0,0:0:0:0:
336,224,62267,1,0,0:0:0:0:
342,226,62321,1,0,0:0:0:0:
348,230,62376,1,0,0:0:0:0:
353,234,62430,1,0,0:0:0:0:
358,238,62485,1,0,0:0:0:0:
363,244,62539,1,0,0:0:0:0:
366,249,62593,1,0,0:0:0:0:
369,255,62647,1,0,0:0:0:0:
371,261,62702,1,0,0:0:0:0:
372,268,62756,1,0,0:0:0:0:
373,275,62810,1,0,0:0:0:0:
373,281,62865,1,0,0:0:0:0:
372,288,62919,1,0,0:0:0:0:
371,294,62974,1,0,0:0:0:0:
368,300,63028,1,0,0:0:0:0:
368,306,63082,1,0,0:0:0:0:
367,313,63136,1,0,0:0:0:0:
366,319,63191,1,0,0:0:0:0:
363,326,63245,1,0,0:0:0:0:
360,331,63299,1,0,0:0:0:0:
356,337,63354,1,0,0:0:0:0:
351,341,63408,5,0,0:0:0:0:
346,345,63463,1,0,0:0:0:0:
339,348,63517,1,0,0:0:0:0:
333,349,63571,1,0,0:0:0:0:
326,350,63626,1,0,0:0:0:0:
320,350,63680,1,0,0:0:0:0:
313,348,63734,1,0,0:0:0:0:
307,346,63789,1,0,0:0:0:0:
301,342,63843,1,0,0:0:0:0:
296,338,63897,1,0,0:0:0:0:
292,333,63952,1,0,0:0:0:0:
289,327,64006,1,0,0:0:0:0:
286,321,64060,1,0,0:0:0:0:
284,315,64115,1,0,0:0:0:0:
282,308,64169,1,0,0:0:0:0:
280,302,64223,1,0,0:0:0:0:
276,296,64278,1,0,0:0:0:0:
272,291,64333,1,0,0:0:0:0:
267,286,64386,1,0,0:0:0:0:
262,283,64441,1,0,0:0:0:0:
256,279,64495,1,0,0:0:0:0:
250,277,64550,1,0,0:0:0:0:
243,276,64604,1,0,0:0:0:0:
237,275,64659,1,0,0:0:0:0:
230,274,64713,5,0,0:0:0:0:
224,275,64767,1,0,0:0:0:0:
217,276,64821,1,0,0:0:0:0:
210,278,64876,1,0,0:0:0:0:
204,280,64930,1,0,0:0:0:0:
198,283,64984,1,0,0:0:0:0:
192,286,65039,1,0,0:0:0:0:
187,290,65093,1,0,0:0:0:0:
182,294,65147,1,0,0:0:0:0:
177,299,65202,1,0,0:0:0:0:
173,304,65256,1,0,0:0:0:0:
169,309,65310,1,0,0:0:0:0:
164,308,65365,1,0,0:0:0:0:
156,308,65419,1,0,0:0:0:0:
148,308,65473,1,0,0:0:0:0:
140,308,65528,1,0,0:0:0:0:
132,308,65582,1,0,0:0:0:0:
128,304,65636,1,0,0:0:0:0:
124,300,65691,1,0,0:0:0:0:
116,296,65745,1,0,0:0:0:0:
108,292,65799,1,0,0:0:0:0:
100,284,65854,6,0,B|128:264|152:284|184:284,1,66.6666666666667
104,184,66071,2,0,B|132:208|164:192|172:212,1,66.6666666666667
192,108,66289,2,0,B|200:148|232:156|240:188,1,66.6666666666667
324,132,66506,2,0,B|320:164|292:176|300:224,1,66.6666666666667
388,200,66723,2,0,B|352:220|376:244|340:272,1,66.6666666666667
384,328,66941,2,0,B|348:340|316:308|288:316,1,66.6666666666667
248,360,67158,2,0,P|240:320|248:276,1,66.6666666666667
168,268,67376,2,0,P|192:232|228:216,1,66.6666666666667
312,224,67593,5,0,0:0:0:0:
456,324,67865,1,0,0:0:0:0:
512,96,68191,1,0,0:0:0:0:
56,64,68843,5,0,0:0:0:0:
148,264,69332,1,0,0:0:0:0:
240,164,69495,1,0,0:0:0:0:
131,229,69658,1,0,0:0:0:0:
260,202,69821,1,0,0:0:0:0:
396,252,70147,5,0,0:0:0:0:
444,64,70473,1,0,0:0:0:0:
96,92,70799,1,0,0:0:0:0:
176,328,71343,2,0,L|192:360,2,33.3333333333333
224,224,71615,1,0,0:0:0:0:
364,248,71778,1,0,0:0:0:0:
96,116,71995,6,0,L|36:140,2,33.3333333333333
224,52,72267,1,0,0:0:0:0:
228,52,72321,1,0,0:0:0:0:
232,52,72376,1,0,0:0:0:0:
236,52,72430,1,0,0:0:0:0:
240,52,72484,1,0,0:0:0:0:
244,52,72539,1,0,0:0:0:0:
248,52,72593,1,0,0:0:0:0:
252,52,72647,1,0,0:0:0:0:
444,116,72756,5,0,0:0:0:0:
368,4,73082,1,0,0:0:0:0:
292,204,73408,1,0,0:0:0:0:
464,272,74060,5,0,0:0:0:0:
200,284,74549,2,0,B|164:300|136:272|88:292,1,100
288,112,74876,2,0,B|324:100|368:140|404:112,1,100
512,264,75202,1,0,0:0:0:0:
384,208,75365,1,0,0:0:0:0:
208,316,75691,5,0,0:0:0:0:
96,128,76017,1,0,0:0:0:0:
224,96,76669,1,0,0:0:0:0:
316,108,76832,1,0,0:0:0:0:
384,40,76995,1,0,0:0:0:0:
224,104,77158,5,0,0:0:0:0:
320,112,77321,1,0,0:0:0:0:
380,192,77484,1,0,0:0:0:0:
260,192,77647,1,0,0:0:0:0:
476,104,77810,1,0,0:0:0:0:
200,8,77973,5,0,0:0:0:0:
172,272,78299,1,0,0:0:0:0:
300,224,78626,1,0,0:0:0:0:
300,224,78952,1,0,0:0:0:0:
416,268,79278,1,0,0:0:0:0:
488,144,79767,1,0,0:0:0:0:
248,72,80256,1,0,0:0:0:0:
472,48,80582,5,0,0:0:0:0:
328,176,80745,1,0,0:0:0:0:
324,28,80908,2,0,B|284:48|268:16|216:48,1,100
80,184,81234,1,0,0:0:0:0:
252,124,81560,1,0,0:0:0:0:
216,244,81723,1,0,0:0:0:0:
160,136,81886,1,0,0:0:0:0:
128,288,82049,1,0,0:0:0:0:
296,176,82539,1,0,0:0:0:0:
204,328,83191,5,0,0:0:0:0:
204,328,83571,1,0,0:0:0:0:
312,264,83897,1,0,0:0:0:0:
312,264,84169,1,0,0:0:0:0:
156,200,84495,1,0,0:0:0:0:
292,188,84984,1,0,0:0:0:0:
336,164,85066,1,0,0:0:0:0:
352,116,85147,1,0,0:0:0:0:
192,156,85310,1,0,0:0:0:0:
296,24,85473,6,0,L|336:-4,4,33.3333333333333
76,60,85799,1,0,0:0:0:0:
176,80,85963,1,0,0:0:0:0:
96,164,86126,1,0,0:0:0:0:
224,0,86452,1,0,0:0:0:0:
296,288,86778,1,0,0:0:0:0:
440,220,86941,1,0,0:0:0:0:
280,180,87104,2,0,B|240:200|208:184|168:208,1,100
432,316,87756,1,0,0:0:0:0:
428,52,88354,5,0,0:0:0:0:
428,52,88734,1,0,0:0:0:0:
296,96,89060,1,0,0:0:0:0:
296,96,89386,1,0,0:0:0:0:
144,52,89713,5,0,0:0:0:0:
240,200,90202,1,0,0:0:0:0:
236,16,90691,1,0,0:0:0:0:
56,144,91017,5,0,0:0:0:0:
168,92,91180,1,0,0:0:0:0:
116,280,91343,1,0,0:0:0:0:
152,180,91669,1,0,0:0:0:0:
304,308,91995,1,0,0:0:0:0:
220,280,92158,5,0,0:0:0:0:
216,280,92213,1,0,0:0:0:0:
212,280,92267,1,0,0:0:0:0:
208,280,92321,1,0,0:0:0:0:
308,168,92539,1,0,0:0:0:0:
416,312,92973,1,0,0:0:0:0:
484,128,93626,5,0,0:0:0:0:
484,128,93952,1,0,0:0:0:0:
376,32,94278,1,0,0:0:0:0:
376,32,94604,1,0,0:0:0:0:
176,100,94930,5,0,0:0:0:0:
260,52,95473,1,0,0:0:0:0:
263,50,95528,1,0,0:0:0:0:
267,49,95582,1,0,0:0:0:0:
248,204,95745,1,0,0:0:0:0:
356,132,95908,1,0,0:0:0:0:
160,192,96071,5,0,0:0:0:0:
164,244,96153,1,0,0:0:0:0:
192,284,96234,1,0,0:0:0:0:
356,192,96397,1,0,0:0:0:0:
304,296,96560,1,0,0:0:0:0:
220,152,96886,1,0,0:0:0:0:
452,144,97213,1,0,0:0:0:0:
360,208,97376,5,0,0:0:0:0:
432,16,97539,1,0,0:0:0:0:
376,100,97702,1,0,0:0:0:0:
220,208,98193,5,0,0:0:0:0:
264,96,98301,1,0,0:0:0:0:
156,268,98410,1,0,0:0:0:0:
136,96,98519,1,0,0:0:0:0:
64,168,98627,1,0,0:0:0:0:
72,56,98736,1,0,0:0:0:0:
96,32,98789,5,0,0:0:0:0:
128,24,98845,1,0,0:0:0:0:
160,32,98897,1,0,0:0:0:0:
192,36,98952,1,0,0:0:0:0:
224,36,99006,1,0,0:0:0:0:
256,28,99060,1,0,0:0:0:0:
288,16,99115,1,0,0:0:0:0:
320,8,99169,1,0,0:0:0:0:
352,4,99223,1,0,0:0:0:0:
336,32,99278,5,0,0:0:0:0:
304,44,99332,1,0,0:0:0:0:
272,56,99386,1,0,0:0:0:0:
300,72,99441,1,0,0:0:0:0:
332,76,99495,1,0,0:0:0:0:
364,76,99549,1,0,0:0:0:0:
396,72,99604,1,0,0:0:0:0:
428,68,99658,1,0,0:0:0:0:
456,48,99713,1,0,0:0:0:0:
452,80,99767,1,0,0:0:0:0:
436,108,99821,1,0,0:0:0:0:
408,124,99876,1,0,0:0:0:0:
376,124,99930,5,0,0:0:0:0:
344,120,99984,1,0,0:0:0:0:
312,120,100039,1,0,0:0:0:0:
280,124,100093,1,0,0:0:0:0:
252,140,100147,1,0,0:0:0:0:
272,168,100202,1,0,0:0:0:0:
300,184,100256,1,0,0:0:0:0:
332,192,100310,1,0,0:0:0:0:
364,188,100365,1,0,0:0:0:0:
396,176,100419,1,0,0:0:0:0:
428,180,100473,1,0,0:0:0:0:
460,192,100528,1,0,0:0:0:0:
480,220,100582,5,0,0:0:0:0:
448,228,100636,1,0,0:0:0:0:
416,232,100691,1,0,0:0:0:0:
384,244,100745,1,0,0:0:0:0:
352,244,100799,1,0,0:0:0:0:
316,252,100854,2,0,L|280:284,4,33.3333333333333
428,280,101126,6,0,L|460:256,4,33.3333333333333
352,340,101397,2,0,L|320:376,3,33.3333333333333
260,308,101615,1,0,0:0:0:0:
228,316,101669,1,0,0:0:0:0:
196,324,101723,1,0,0:0:0:0:
164,320,101778,1,0,0:0:0:0:
132,312,101832,1,0,0:0:0:0:
100,316,101886,1,0,0:0:0:0:
112,284,101941,5,0,0:0:0:0:
144,268,101995,1,0,0:0:0:0:
176,272,102049,1,0,0:0:0:0:
208,260,102104,1,0,0:0:0:0:
224,232,102158,1,0,0:0:0:0:
228,200,102213,1,0,0:0:0:0:
208,172,102267,1,0,0:0:0:0:
176,160,102321,1,0,0:0:0:0:
144,164,102376,1,0,0:0:0:0:
112,160,102430,1,0,0:0:0:0:
80,148,102484,5,0,0:0:0:0:
96,120,102539,1,0,0:0:0:0:
124,104,102593,1,0,0:0:0:0:
156,92,102647,1,0,0:0:0:0:
188,96,102702,1,0,0:0:0:0:
216,112,102756,1,0,0:0:0:0:
248,128,102810,1,0,0:0:0:0:
280,128,102865,1,0,0:0:0:0:
312,116,102919,1,0,0:0:0:0:
340,100,102973,1,0,0:0:0:0:
356,72,103028,1,0,0:0:0:0:
388,60,103082,1,0,0:0:0:0:
420,60,103136,5,0,0:0:0:0:
404,32,103191,1,0,0:0:0:0:
372,28,103245,1,0,0:0:0:0:
340,32,103299,1,0,0:0:0:0:
308,36,103354,1,0,0:0:0:0:
276,40,103408,2,0,L|224:4,4,33.3333333333333
208,108,103680,2,0,L|232:140,5,33.3333333333333
120,60,104006,6,0,L|108:16,5,33.3333333333333
40,108,104332,1,0,0:0:0:0:
65,129,104386,1,0,0:0:0:0:
95,141,104441,1,0,0:0:0:0:
127,148,104495,1,0,0:0:0:0:
160,152,104549,1,0,0:0:0:0:
192,144,104604,1,0,0:0:0:0:
204,176,104658,5,0,0:0:0:0:
188,204,104713,1,0,0:0:0:0:
156,216,104767,1,0,0:0:0:0:
124,216,104822,1,0,0:0:0:0:
92,204,104876,1,0,0:0:0:0:
60,196,104930,1,0,0:0:0:0:
64,228,104984,1,0,0:0:0:0:
88,252,105039,1,0,0:0:0:0:
120,264,105093,1,0,0:0:0:0:
152,260,105148,1,0,0:0:0:0:
184,248,105202,1,0,0:0:0:0:
212,228,105256,1,0,0:0:0:0:
244,220,105310,1,0,0:0:0:0:
276,224,105365,6,0,L|264:268,6,33.3333333333333
312,136,105746,2,0,L|292:88,5,33.3333333333333
364,208,106071,2,0,L|360:260,5,33.3333333333333
404,100,106397,2,0,L|376:52,5,33.3333333333333
464,176,106723,5,0,0:0:0:0:
444,204,106778,1,0,0:0:0:0:
416,224,106832,1,0,0:0:0:0:
384,232,106886,1,0,0:0:0:0:
352,228,106941,1,0,0:0:0:0:
320,224,106995,1,0,0:0:0:0:
324,256,107050,1,0,0:0:0:0:
348,276,107104,1,0,0:0:0:0:
380,280,107158,1,0,0:0:0:0:
412,276,107213,5,0,0:0:0:0:
440,256,107267,1,0,0:0:0:0:
472,260,107321,1,0,0:0:0:0:
488,288,107376,1,0,0:0:0:0:
484,320,107430,1,0,0:0:0:0:
452,324,107485,1,0,0:0:0:0:
420,332,107539,1,0,0:0:0:0:
388,344,107593,1,0,0:0:0:0:
356,344,107647,5,0,0:0:0:0:
332,324,107702,1,0,0:0:0:0:
320,292,107756,1,0,0:0:0:0:
328,260,107810,1,0,0:0:0:0:
352,236,107865,1,0,0:0:0:0:
368,208,107919,1,0,0:0:0:0:
372,176,107973,1,0,0:0:0:0:
364,144,108028,1,0,0:0:0:0:
340,124,108082,1,0,0:0:0:0:
308,112,108136,5,0,0:0:0:0:
300,144,108191,1,0,0:0:0:0:
328,164,108245,1,0,0:0:0:0:
360,172,108299,1,0,0:0:0:0:
392,172,108354,1,0,0:0:0:0:
420,156,108408,1,0,0:0:0:0:
416,188,108463,1,0,0:0:0:0:
388,208,108517,1,0,0:0:0:0:
356,220,108571,1,0,0:0:0:0:
324,216,108626,1,0,0:0:0:0:
292,204,108680,5,0,0:0:0:0:
260,192,108734,1,0,0:0:0:0:
228,192,108789,1,0,0:0:0:0:
196,192,108843,1,0,0:0:0:0:
164,204,108897,1,0,0:0:0:0:
136,224,108952,1,0,0:0:0:0:
120,252,109006,1,0,0:0:0:0:
152,256,109060,1,0,0:0:0:0:
184,248,109115,1,0,0:0:0:0:
216,252,109169,1,0,0:0:0:0:
248,260,109223,1,0,0:0:0:0:
268,280,109278,1,0,0:0:0:0:
256,192,128897,12,0,138734,0:0:0:0:
