osu file format v14

[General]
AudioFilename: audio.mp3
AudioLeadIn: 0
PreviewTime: 168661
Countdown: 0
SampleSet: Normal
StackLeniency: 0.7
Mode: 1
LetterboxInBreaks: 0
WidescreenStoryboard: 1

[Editor]
Bookmarks: 17855,51375,84907,110049,143571,168713,185474,202236,218997,235758,252519,277686
DistanceSpacing: 1.8
BeatDivisor: 8
GridSize: 32
TimelineZoom: 5.900002

[Metadata]
Title:Knife Party (Final Sketch Remix)
TitleUnicode:Knife Party (Final Sketch Remix)
Artist:Deftones
ArtistUnicode:Deftones
Creator:-Kazu-
Version:Dysthymia
Source:
Tags:Ulqui electronic instrumental breakcore
BeatmapID:1849377
BeatmapSetID:801653

[Difficulty]
HPDrainRate:4
CircleSize:2
OverallDifficulty:7
ApproachRate:5
SliderMultiplier:1.4
SliderTickRate:1

[Events]
//Background and Video events
0,0,"bgxd.jpg",0,0
//Break Periods
//Storyboard Layer 0 (Background)
//Storyboard Layer 1 (Fail)
//Storyboard Layer 2 (Pass)
//Storyboard Layer 3 (Foreground)
//Storyboard Layer 4 (Overlay)
//Storyboard Sound Samples

[TimingPoints]
180,545.454545454546,4,1,0,20,1,0
1270,571.428571428571,4,1,0,20,1,8
1270,-95.2380952380952,4,1,0,20,0,0
2412,560.747663551402,4,1,0,20,1,0
2412,-97.0873786407767,4,1,0,20,0,0
3533,576.923076923077,4,1,0,20,1,8
3533,-94.3396226415094,4,1,0,20,0,0
4686,545.454545454546,4,1,0,20,1,0
5776,555.555555555556,4,1,0,20,1,8
5776,-98.0392156862745,4,1,0,20,0,0
6887,545.454545454546,4,1,0,20,1,0
7977,555.555555555556,4,1,0,20,1,8
7977,-98.0392156862745,4,1,0,20,0,0
9088,555.555555555556,4,1,0,20,1,0
9088,-98.0392156862745,4,1,0,20,0,0
11310,545.454545454546,4,1,0,30,1,0
12400,550.45871559633,4,1,0,30,1,8
12400,-99.009900990099,4,1,0,30,0,0
12950,555.555555555556,4,1,0,30,1,8
12950,-98.0392156862745,4,1,0,30,0,0
13505,538.599640933573,4,1,0,40,1,0
13505,-101.010101010101,4,1,0,40,0,0
15659,-100,4,1,0,60,0,0
17808,262.008733624454,4,1,0,100,1,0
17808,-95.2380952380952,4,1,0,100,0,0
34576,262.008733624454,4,1,0,100,1,8
34581,262.008733624454,4,1,0,100,1,0
34581,-95.2380952380952,4,1,0,100,0,0
34843,-102.040816326531,4,1,0,100,0,0
36677,265.486725663717,4,1,0,100,1,0
36677,-101.010101010101,4,1,0,100,0,0
38800,252.100840336134,4,1,0,100,1,0
38800,-104.166666666667,4,1,0,100,0,0
40816,258.620689655172,4,1,0,100,1,0
40816,-103.092783505155,4,1,0,100,0,0
42884,262.008733624454,4,1,0,100,1,0
42884,-102.040816326531,4,1,0,100,0,0
44980,262.008733624454,4,1,0,100,1,0
44980,-102.040816326531,4,1,0,100,0,0
47076,270.27027027027,4,1,0,100,1,0
49238,263.157894736842,4,1,0,100,1,0
49238,-102.040816326531,4,1,0,100,0,0
51333,261.894369271061,4,1,0,100,1,0
51333,-95.2380952380952,4,1,0,100,0,0
82891,-93.4579439252336,4,1,0,100,0,0
83153,-91.743119266055,4,1,0,100,0,0
83284,-90.0900900900901,4,1,0,100,0,0
83546,-88.4955752212389,4,1,0,100,0,0
83676,-86.9565217391304,4,1,0,100,0,0
84724,-85.4700854700855,4,1,0,100,0,0
84855,-83.3333333333333,4,1,0,100,0,1
86754,-76.9230769230769,4,1,0,100,0,1
86819,-71.4285714285714,4,1,0,100,0,1
86885,-66.6666666666667,4,1,0,100,0,1
86950,-62.5,4,1,0,100,0,1
87212,-76.9230769230769,4,1,0,100,0,1
89045,-62.5,4,1,0,100,0,1
89438,-71.4285714285714,4,1,0,100,0,1
89831,-83.3333333333333,4,1,0,100,0,1
90093,-90.9090909090909,4,1,0,100,0,1
92843,-95.2380952380952,4,1,0,100,0,1
92974,-100,4,1,0,100,0,1
93236,-83.3333333333333,4,1,0,100,0,1
95331,-90.9090909090909,4,1,0,100,0,1
95593,-100,4,1,0,100,0,1
95724,-105.263157894737,4,1,0,100,0,1
95855,-111.111111111111,4,1,0,100,0,1
95985,-117.647058823529,4,1,0,100,0,1
97410,-62.5,4,1,0,100,0,1
97803,-71.4285714285714,4,1,0,100,0,1
98196,-83.3333333333333,4,1,0,100,0,1
98458,-90.9090909090909,4,1,0,100,0,1
100831,-90.9090909090909,4,1,0,100,0,1
100961,-95.2380952380952,4,1,0,100,0,1
101092,-100,4,1,0,100,0,1
101223,-105.263157894737,4,1,0,100,0,1
101354,-111.111111111111,4,1,0,100,0,1
101616,-83.3333333333333,4,1,0,100,0,1
105807,-83.3333333333333,4,1,0,100,0,0
106330,-142.857142857143,4,1,0,100,0,0
106854,-133.333333333333,4,1,0,100,0,0
107378,-125,4,1,0,100,0,0
107902,-117.647058823529,4,1,0,100,0,0
108425,-111.111111111111,4,1,0,100,0,0
108949,-105.263157894737,4,1,0,100,0,0
109473,-100,4,1,0,100,0,0
109997,-95.2380952380952,4,1,0,100,0,0
142210,-93.4579439252336,4,1,0,100,0,0
142341,-91.743119266055,4,1,0,100,0,0
142603,-90.0900900900901,4,1,0,100,0,0
142734,-88.4955752212389,4,1,0,100,0,0
142996,-86.9565217391304,4,1,0,100,0,0
143257,-85.4700854700855,4,1,0,100,0,0
143519,-83.3333333333333,4,1,0,100,0,1
146007,-81.9672131147541,4,1,0,100,0,1
146138,-80.6451612903226,4,1,0,100,0,1
146313,-79.3650793650794,4,1,0,100,0,1
146487,-78.125,4,1,0,100,0,1
146662,-76.9230769230769,4,1,0,100,0,1
147710,-90.9090909090909,4,1,0,100,0,1
151114,-89.2857142857143,4,1,0,100,0,1
151245,-87.719298245614,4,1,0,100,0,1
151507,-86.2068965517241,4,1,0,100,0,1
151638,-84.7457627118644,4,1,0,100,0,1
151900,-83.3333333333333,4,1,0,100,0,1
156090,-62.5,4,1,0,100,0,1
156483,-71.4285714285714,4,1,0,100,0,1
156876,-76.9230769230769,4,1,0,100,0,1
157138,-90.9090909090909,4,1,0,100,0,1
160346,-50,4,1,0,100,0,1
160804,-83.3333333333333,4,1,0,100,0,1
164471,-83.3333333333333,4,1,0,100,0,0
168661,-95.2380952380952,4,1,0,100,0,0
184506,-94.3396226415094,4,1,0,100,0,0
184637,-93.4579439252336,4,1,0,100,0,0
184768,-92.5925925925926,4,1,0,100,0,0
185422,-90.9090909090909,4,1,0,100,0,0
202184,-86.9565217391304,4,1,0,100,0,0
216981,-89.2857142857143,4,1,0,100,0,0
217112,-90.9090909090909,4,1,0,100,0,0
217243,-92.5925925925926,4,1,0,100,0,0
217504,-96.1538461538461,4,1,0,100,0,0
217635,-100,4,1,0,100,0,0
217897,-98.0392156862745,4,1,0,100,0,0
218028,-96.1538461538461,4,1,0,100,0,0
218159,-94.3396226415094,4,1,0,100,0,0
218290,-92.5925925925926,4,1,0,100,0,0
218552,-90.9090909090909,4,1,0,100,0,0
218683,-89.2857142857143,4,1,0,100,0,0
218945,-86.9565217391304,4,1,0,100,0,0
250634,-86.2068965517241,4,1,0,100,0,0
251027,-85.4700854700855,4,1,0,100,0,0
251682,-84.7457627118644,4,1,0,100,0,0
252205,-84.0336134453781,4,1,0,100,0,0
252467,-83.3333333333333,4,1,0,100,0,1
254923,-81.3008130081301,4,1,0,100,0,1
255054,-79.3650793650794,4,1,0,100,0,1
255217,-76.9230769230769,4,1,0,100,0,1
255414,-74.6268656716418,4,1,0,100,0,1
255577,-71.4285714285714,4,1,0,100,0,1
256625,-74.0740740740741,4,1,0,100,0,1
257018,-76.9230769230769,4,1,0,100,0,1
257280,-83.3333333333333,4,1,0,100,0,1
262288,-81.10300081103,4,1,0,100,0,1
262354,-78.9889415481832,4,1,0,100,0,1
262419,-76.9230769230769,4,1,0,100,0,1
262550,-75.4716981132076,4,1,0,100,0,1
262681,-74.0740740740741,4,1,0,100,0,1
262812,-72.7272727272727,4,1,0,100,0,1
262943,-71.4285714285714,4,1,0,100,0,1
264798,-72.463768115942,4,1,0,100,0,1
264842,-73.5294117647059,4,1,0,100,0,1
264886,-74.6268656716418,4,1,0,100,0,1
264929,-75.7575757575758,4,1,0,100,0,1
264973,-76.9230769230769,4,1,0,100,0,1
265016,-78.125,4,1,0,100,0,1
265300,-80,4,1,0,100,0,1
265693,-83.3333333333333,4,1,0,100,0,1
267788,-85.1063829787234,4,1,0,100,0,1
267919,-86.9565217391304,4,1,0,100,0,1
268050,-88.8888888888889,4,1,0,100,0,1
268181,-90.9090909090909,4,1,0,100,0,1
268443,-76.9230769230769,4,1,0,100,0,1
268574,-75.7575757575758,4,1,0,100,0,1
268639,-74.6268656716418,4,1,0,100,0,1
268705,-73.5294117647059,4,1,0,100,0,1
268770,-72.463768115942,4,1,0,100,0,1
268836,-71.4285714285714,4,1,0,100,0,1
269229,-83.3333333333333,4,1,0,100,0,1
273419,-71.4285714285714,4,1,0,100,0,1
273812,-74.0740740740741,4,1,0,100,0,1
274205,-76.9230769230769,4,1,0,100,0,1
274467,-80,4,1,0,100,0,1
277347,-80.6451612903226,4,1,0,100,0,1
277478,-81.3008130081301,4,1,0,100,0,1
277609,-81.9672131147541,4,1,0,100,0,1
277740,-83.3333333333333,4,1,0,100,0,1
281800,-83.3333333333333,4,1,0,100,0,0

[HitObjects]
256,192,180,5,0,0:0:0:0:
256,192,452,1,8,0:0:0:0:
256,192,589,1,8,0:0:0:0:
256,192,725,1,8,0:0:0:0:
256,192,861,1,8,0:0:0:0:
256,192,998,1,0,0:0:0:0:
248,191,1270,1,8,0:0:0:0:
248,191,1412,1,8,0:0:0:0:
248,191,1555,1,8,0:0:0:0:
248,191,1698,1,8,0:0:0:0:
256,192,1841,1,0,0:0:0:0:
248,191,2127,1,8,0:0:0:0:
248,191,2269,1,8,0:0:0:0:
256,192,2412,1,0,0:0:0:0:
248,191,2692,1,8,0:0:0:0:
248,191,2832,1,8,0:0:0:0:
248,191,2972,1,8,0:0:0:0:
248,191,3112,1,8,0:0:0:0:
256,192,3253,1,0,0:0:0:0:
248,191,3533,1,8,0:0:0:0:
248,191,3677,1,8,0:0:0:0:
248,191,3821,1,8,0:0:0:0:
248,191,3965,1,8,0:0:0:0:
256,192,4109,1,0,0:0:0:0:
248,191,4398,1,0,0:0:0:0:
248,191,4542,1,0,0:0:0:0:
256,192,4686,1,8,0:0:0:0:
248,191,4958,1,8,0:0:0:0:
248,191,5095,1,8,0:0:0:0:
248,191,5231,1,8,0:0:0:0:
247,190,5367,1,0,0:0:0:0:
256,192,5504,1,8,0:0:0:0:
248,191,5776,1,8,0:0:0:0:
248,191,5914,1,8,0:0:0:0:
247,190,6053,1,8,0:0:0:0:
247,189,6192,1,0,0:0:0:0:
256,192,6331,1,8,0:0:0:0:
256,192,6609,1,0,0:0:0:0:
256,192,6748,1,8,0:0:0:0:
256,192,6887,1,0,0:0:0:0:
256,192,7159,1,8,0:0:0:0:
256,192,7296,1,8,0:0:0:0:
256,192,7568,1,8,0:0:0:0:
256,192,7705,1,0,0:0:0:0:
256,192,7977,1,8,0:0:0:0:
256,192,8115,1,8,0:0:0:0:
256,192,8393,1,8,0:0:0:0:
256,192,8532,1,0,0:0:0:0:
256,192,8810,1,8,0:0:0:0:
256,192,9088,1,0,0:0:0:0:
256,192,9365,1,8,0:0:0:0:
256,192,9504,1,8,0:0:0:0:
256,192,9643,1,8,0:0:0:0:
256,192,9782,1,8,0:0:0:0:
256,192,9921,1,0,0:0:0:0:
256,192,10199,1,8,0:0:0:0:
256,192,10338,1,8,0:0:0:0:
256,192,10476,1,8,0:0:0:0:
256,192,10615,1,8,0:0:0:0:
256,192,10754,1,0,0:0:0:0:
256,192,11032,1,8,0:0:0:0:
256,192,11171,1,8,0:0:0:0:
256,192,11310,1,0,0:0:0:0:
256,192,11582,1,8,0:0:0:0:
256,192,11719,1,8,0:0:0:0:
256,192,11855,1,8,0:0:0:0:
256,192,11991,1,8,0:0:0:0:
256,192,12128,1,0,0:0:0:0:
256,192,12400,1,8,0:0:0:0:
256,192,12537,1,8,0:0:0:0:
256,192,12675,1,8,0:0:0:0:
256,192,12812,1,8,0:0:0:0:
256,192,12950,1,0,0:0:0:0:
256,192,13227,1,0,0:0:0:0:
256,192,13366,1,0,0:0:0:0:
256,192,13505,1,8,0:0:0:0:
256,192,13774,1,8,0:0:0:0:
256,192,13908,1,8,0:0:0:0:
256,192,14043,1,8,0:0:0:0:
256,192,14178,1,0,0:0:0:0:
256,192,14312,1,8,0:0:0:0:
256,192,14582,1,8,0:0:0:0:
256,192,14716,1,8,0:0:0:0:
256,192,14851,1,8,0:0:0:0:
256,192,14986,1,0,0:0:0:0:
256,192,15120,1,8,0:0:0:0:
256,192,15390,1,0,0:0:0:0:
256,192,15524,1,8,0:0:0:0:
256,192,15659,1,0,0:0:0:0:
256,192,15928,1,8,0:0:0:0:
256,192,16063,1,8,0:0:0:0:
256,192,16332,1,8,0:0:0:0:
256,192,16467,1,0,0:0:0:0:
256,192,16736,1,0,0:0:0:0:
256,192,16871,1,8,0:0:0:0:
256,192,17140,1,8,0:0:0:0:
256,192,17275,1,8,0:0:0:0:
256,192,17808,5,0,0:0:0:0:
256,192,17873,1,8,0:0:0:0:
256,192,17939,1,0,0:0:0:0:
256,192,18070,1,8,0:0:0:0:
256,192,18201,1,0,0:0:0:0:
256,192,18266,1,0,0:0:0:0:
256,192,18332,1,0,0:0:0:0:
256,192,18397,1,0,0:0:0:0:
256,192,18463,1,8,0:0:0:0:
256,192,18594,1,0,0:0:0:0:
256,192,18659,1,8,0:0:0:0:
256,192,18725,1,8,0:0:0:0:
256,192,18856,1,0,0:0:0:0:
256,192,18899,1,0,0:0:0:0:
256,192,18943,1,0,0:0:0:0:
256,192,18987,1,0,0:0:0:0:
256,192,19030,1,0,0:0:0:0:
256,192,19074,1,0,0:0:0:0:
256,192,19118,1,8,0:0:0:0:
256,192,19249,1,0,0:0:0:0:
256,192,19511,1,8,0:0:0:0:
256,192,19642,1,8,0:0:0:0:
256,192,19707,1,0,0:0:0:0:
256,192,19773,1,0,0:0:0:0:
256,192,19904,1,0,0:0:0:0:
256,192,20035,1,0,0:0:0:0:
256,192,20100,1,0,0:0:0:0:
256,192,20166,1,8,0:0:0:0:
256,192,20297,1,8,0:0:0:0:
256,192,20340,1,8,0:0:0:0:
256,192,20384,1,8,0:0:0:0:
256,192,20428,1,0,0:0:0:0:
256,192,20493,1,8,0:0:0:0:
256,192,20559,1,8,0:0:0:0:
256,192,20624,1,8,0:0:0:0:
256,192,20690,1,8,0:0:0:0:
256,192,20821,1,8,0:0:0:0:
256,192,20952,1,0,0:0:0:0:
256,192,21083,1,0,0:0:0:0:
256,192,21214,1,0,0:0:0:0:
256,192,21279,1,8,0:0:0:0:
256,192,21345,1,0,0:0:0:0:
256,192,21410,1,8,0:0:0:0:
256,192,21476,1,0,0:0:0:0:
256,192,21541,1,0,0:0:0:0:
256,192,21607,1,0,0:0:0:0:
256,192,21672,1,8,0:0:0:0:
256,192,21738,1,0,0:0:0:0:
256,192,21869,1,8,0:0:0:0:
256,192,22000,1,4,0:0:0:0:
256,192,22262,1,8,0:0:0:0:
256,192,22393,1,4,0:0:0:0:
256,192,22655,1,8,0:0:0:0:
256,192,22786,1,8,0:0:0:0:
256,192,22829,1,0,0:0:0:0:
256,192,22873,1,0,0:0:0:0:
256,192,22917,1,0,0:0:0:0:
256,192,23048,1,8,0:0:0:0:
256,192,23113,1,0,0:0:0:0:
256,192,23179,1,8,0:0:0:0:
256,192,23310,1,4,0:0:0:0:
256,192,23572,1,8,0:0:0:0:
256,192,23615,1,0,0:0:0:0:
256,192,23659,1,0,0:0:0:0:
256,192,23703,1,8,0:0:0:0:
256,192,23768,1,0,0:0:0:0:
256,192,23834,1,8,0:0:0:0:
256,192,23877,1,0,0:0:0:0:
256,192,23921,1,0,0:0:0:0:
256,192,23965,1,0,0:0:0:0:
256,192,24096,1,0,0:0:0:0:
256,192,24161,1,8,0:0:0:0:
256,192,24227,1,0,0:0:0:0:
256,192,24358,1,8,0:0:0:0:
256,192,24489,1,8,0:0:0:0:
256,192,24554,1,0,0:0:0:0:
256,192,24620,1,8,0:0:0:0:
256,192,24751,1,8,0:0:0:0:
256,192,24882,1,8,0:0:0:0:
256,192,25013,1,0,0:0:0:0:
256,192,25144,1,0,0:0:0:0:
256,192,25166,1,0,0:0:0:0:
256,192,25275,1,8,0:0:0:0:
256,192,25297,1,8,0:0:0:0:
256,192,25406,1,0,0:0:0:0:
256,192,25428,1,0,0:0:0:0:
256,192,25668,1,0,0:0:0:0:
256,192,25690,1,0,0:0:0:0:
256,192,25799,1,8,0:0:0:0:
256,192,25821,1,8,0:0:0:0:
256,192,25930,1,8,0:0:0:0:
256,192,25973,1,8,0:0:0:0:
256,192,26017,1,8,0:0:0:0:
256,192,26061,1,8,0:0:0:0:
256,192,26104,1,8,0:0:0:0:
256,192,26148,1,8,0:0:0:0:
256,192,26192,1,0,0:0:0:0:
256,192,26454,1,8,0:0:0:0:
256,192,26585,1,4,0:0:0:0:
256,192,26978,1,8,0:0:0:0:
256,192,27109,1,0,0:0:0:0:
256,192,27240,1,0,0:0:0:0:
256,192,27305,1,0,0:0:0:0:
256,192,27371,1,8,0:0:0:0:
256,192,27502,1,0,0:0:0:0:
256,192,27567,1,8,0:0:0:0:
256,192,27633,1,0,0:0:0:0:
256,192,27698,1,0,0:0:0:0:
256,192,27764,1,8,0:0:0:0:
256,192,27829,1,0,0:0:0:0:
256,192,27895,1,8,0:0:0:0:
256,192,27960,1,0,0:0:0:0:
256,192,28026,1,8,0:0:0:0:
256,192,28091,1,0,0:0:0:0:
256,192,28157,1,8,0:0:0:0:
256,192,28222,1,0,0:0:0:0:
256,192,28288,1,8,0:0:0:0:
256,192,28353,1,8,0:0:0:0:
256,192,28419,1,0,0:0:0:0:
256,192,28550,1,8,0:0:0:0:
256,192,28681,1,0,0:0:0:0:
256,192,28746,1,8,0:0:0:0:
256,192,28812,1,0,0:0:0:0:
256,192,28943,1,8,0:0:0:0:
256,192,29074,1,0,0:0:0:0:
256,192,29205,1,8,0:0:0:0:
256,192,29249,1,8,0:0:0:0:
256,192,29292,1,8,0:0:0:0:
256,192,29336,1,0,0:0:0:0:
256,192,29467,1,0,0:0:0:0:
256,192,29598,1,8,0:0:0:0:
256,192,29663,1,0,0:0:0:0:
256,192,29729,1,0,0:0:0:0:
256,192,29794,1,8,0:0:0:0:
256,192,29860,1,0,0:0:0:0:
256,192,29991,1,8,0:0:0:0:
256,192,30122,1,8,0:0:0:0:
256,192,30187,1,8,0:0:0:0:
256,192,30253,1,8,0:0:0:0:
256,192,30318,1,8,0:0:0:0:
256,192,30384,1,0,0:0:0:0:
256,192,30449,1,8,0:0:0:0:
256,192,30515,1,0,0:0:0:0:
256,192,30646,1,8,0:0:0:0:
256,192,30777,1,0,0:0:0:0:
256,192,30842,1,0,0:0:0:0:
256,192,30908,1,0,0:0:0:0:
256,192,30973,1,0,0:0:0:0:
256,192,31039,1,8,0:0:0:0:
256,192,31170,1,8,0:0:0:0:
256,192,31301,1,0,0:0:0:0:
256,192,31432,1,0,0:0:0:0:
256,192,31563,1,0,0:0:0:0:
256,192,31628,1,0,0:0:0:0:
256,192,31694,1,8,0:0:0:0:
256,192,31825,1,0,0:0:0:0:
256,192,31890,1,8,0:0:0:0:
256,192,31956,1,0,0:0:0:0:
256,192,32021,1,0,0:0:0:0:
256,192,32087,1,8,0:0:0:0:
256,192,32349,1,0,0:0:0:0:
256,192,32480,1,8,0:0:0:0:
256,192,32545,1,0,0:0:0:0:
256,192,32611,1,0,0:0:0:0:
256,192,32742,1,8,0:0:0:0:
256,192,32807,1,0,0:0:0:0:
256,192,32873,1,8,0:0:0:0:
256,192,32939,1,0,0:0:0:0:
256,192,33004,1,0,0:0:0:0:
256,192,33135,1,8,0:0:0:0:
256,192,33201,1,0,0:0:0:0:
256,192,33266,1,8,0:0:0:0:
256,192,33332,1,0,0:0:0:0:
256,192,33397,1,0,0:0:0:0:
256,192,33528,1,8,0:0:0:0:
256,192,33594,1,0,0:0:0:0:
256,192,33659,1,8,0:0:0:0:
256,192,33725,1,0,0:0:0:0:
256,192,33790,1,0,0:0:0:0:
256,192,33856,1,0,0:0:0:0:
256,192,33921,1,8,0:0:0:0:
256,192,33965,1,8,0:0:0:0:
256,192,34008,1,8,0:0:0:0:
256,192,34052,1,0,0:0:0:0:
256,192,34118,1,0,0:0:0:0:
256,192,34183,1,8,0:0:0:0:
256,192,34249,1,8,0:0:0:0:
256,192,34314,1,8,0:0:0:0:
256,192,34380,1,8,0:0:0:0:
256,192,34445,1,8,0:0:0:0:
256,192,34511,1,8,0:0:0:0:
256,192,34581,1,0,0:0:0:0:
256,192,34843,1,8,0:0:0:0:
256,192,34974,1,8,0:0:0:0:
256,192,35105,1,8,0:0:0:0:
256,192,35236,1,8,0:0:0:0:
256,192,35367,1,0,0:0:0:0:
256,192,35629,1,8,0:0:0:0:
256,192,35760,1,8,0:0:0:0:
256,192,35891,1,8,0:0:0:0:
256,192,36022,1,8,0:0:0:0:
256,192,36153,1,0,0:0:0:0:
256,192,36415,1,8,0:0:0:0:
256,192,36546,1,8,0:0:0:0:
256,192,36677,1,0,0:0:0:0:
256,192,36942,1,8,0:0:0:0:
256,192,37075,1,8,0:0:0:0:
256,192,37207,1,8,0:0:0:0:
256,192,37340,1,8,0:0:0:0:
256,192,37473,1,0,0:0:0:0:
256,192,37738,1,8,0:0:0:0:
256,192,37871,1,8,0:0:0:0:
256,192,38004,1,8,0:0:0:0:
256,192,38137,1,8,0:0:0:0:
256,192,38269,1,0,0:0:0:0:
256,192,38535,1,0,0:0:0:0:
256,192,38668,1,0,0:0:0:0:
256,192,38800,1,8,0:0:0:0:
256,192,39052,1,8,0:0:0:0:
256,192,39178,1,8,0:0:0:0:
256,192,39304,1,8,0:0:0:0:
256,192,39430,1,0,0:0:0:0:
256,192,39556,1,8,0:0:0:0:
256,192,39808,1,8,0:0:0:0:
256,192,39934,1,8,0:0:0:0:
256,192,40060,1,8,0:0:0:0:
256,192,40186,1,0,0:0:0:0:
256,192,40312,1,8,0:0:0:0:
256,192,40564,1,0,0:0:0:0:
256,192,40690,1,8,0:0:0:0:
256,192,40816,1,0,0:0:0:0:
256,192,41074,1,8,0:0:0:0:
256,192,41203,1,8,0:0:0:0:
256,192,41462,1,8,0:0:0:0:
256,192,41591,1,0,0:0:0:0:
256,192,41850,1,0,0:0:0:0:
256,192,41979,1,8,0:0:0:0:
256,192,42238,1,8,0:0:0:0:
256,192,42367,1,0,0:0:0:0:
256,192,42626,1,8,0:0:0:0:
256,192,42884,1,0,0:0:0:0:
256,192,43146,1,8,0:0:0:0:
256,192,43277,1,8,0:0:0:0:
256,192,43408,1,8,0:0:0:0:
256,192,43539,1,8,0:0:0:0:
256,192,43670,1,0,0:0:0:0:
256,192,43932,1,8,0:0:0:0:
256,192,44063,1,8,0:0:0:0:
256,192,44194,1,8,0:0:0:0:
256,192,44325,1,8,0:0:0:0:
256,192,44456,1,0,0:0:0:0:
256,192,44718,1,8,0:0:0:0:
256,192,44849,1,8,0:0:0:0:
256,192,44980,1,0,0:0:0:0:
256,192,45242,1,8,0:0:0:0:
256,192,45373,1,8,0:0:0:0:
256,192,45504,1,8,0:0:0:0:
256,192,45635,1,8,0:0:0:0:
256,192,45766,1,0,0:0:0:0:
256,192,46028,1,8,0:0:0:0:
256,192,46159,1,8,0:0:0:0:
256,192,46290,1,8,0:0:0:0:
256,192,46421,1,8,0:0:0:0:
256,192,46552,1,0,0:0:0:0:
256,192,46814,1,0,0:0:0:0:
256,192,46945,1,0,0:0:0:0:
256,192,47076,1,8,0:0:0:0:
256,192,47346,1,8,0:0:0:0:
256,192,47481,1,8,0:0:0:0:
256,192,47616,1,8,0:0:0:0:
256,192,47751,1,0,0:0:0:0:
256,192,47886,1,8,0:0:0:0:
256,192,48157,1,8,0:0:0:0:
256,192,48292,1,8,0:0:0:0:
256,192,48427,1,8,0:0:0:0:
256,192,48562,1,0,0:0:0:0:
256,192,48697,1,8,0:0:0:0:
256,192,48967,1,0,0:0:0:0:
256,192,49238,1,8,0:0:0:0:
256,192,49501,1,8,0:0:0:0:
256,192,49632,1,0,0:0:0:0:
256,192,49895,1,0,0:0:0:0:
256,192,50027,1,8,0:0:0:0:
256,192,50290,12,0,51211,0:0:0:0:
105,243,51333,5,0,0:0:0:0:
184,77,51398,1,8,0:0:0:0:
172,108,51463,1,0,0:0:0:0:
172,108,51594,1,8,0:0:0:0:
170,113,51725,1,0,0:0:0:0:
170,113,51791,1,0,0:0:0:0:
170,113,51856,1,8,0:0:0:0:
184,77,51987,1,8,0:0:0:0:
143,85,52118,1,0,0:0:0:0:
143,85,52184,1,8,0:0:0:0:
143,85,52249,1,0,0:0:0:0:
143,85,52315,1,8,0:0:0:0:
143,85,52380,1,0,0:0:0:0:
143,85,52446,1,8,0:0:0:0:
143,85,52511,1,0,0:0:0:0:
143,85,52576,1,0,0:0:0:0:
143,85,52642,1,8,0:0:0:0:
196,127,52773,1,0,0:0:0:0:
196,127,52904,1,8,0:0:0:0:
202,62,53035,1,0,0:0:0:0:
202,62,53166,1,12,0:0:0:0:
176,62,53428,1,0,0:0:0:0:
134,180,53559,1,0,0:0:0:0:
149,113,53624,1,0,0:0:0:0:
134,180,53690,1,8,0:0:0:0:
151,77,53820,1,0,0:0:0:0:
151,77,53951,1,0,0:0:0:0:
151,77,54017,1,0,0:0:0:0:
151,77,54082,1,8,0:0:0:0:
153,87,54213,1,0,0:0:0:0:
194,94,54279,1,8,0:0:0:0:
194,94,54344,1,0,0:0:0:0:
196,126,54410,1,0,0:0:0:0:
196,126,54475,1,8,0:0:0:0:
195,75,54541,1,0,0:0:0:0:
195,75,54606,1,8,0:0:0:0:
195,75,54672,1,0,0:0:0:0:
195,75,54737,1,8,0:0:0:0:
176,77,54803,1,8,0:0:0:0:
176,77,54868,1,0,0:0:0:0:
176,77,54934,1,8,0:0:0:0:
176,77,54999,1,0,0:0:0:0:
176,77,55064,1,8,0:0:0:0:
176,77,55130,1,0,0:0:0:0:
176,77,55195,1,0,0:0:0:0:
176,77,55261,1,8,0:0:0:0:
188,110,55392,1,8,0:0:0:0:
188,110,55523,1,0,0:0:0:0:
184,114,55654,1,0,0:0:0:0:
186,85,55719,1,0,0:0:0:0:
184,114,55785,1,8,0:0:0:0:
159,66,55916,1,0,0:0:0:0:
160,69,55981,1,0,0:0:0:0:
158,75,56047,1,0,0:0:0:0:
186,67,56178,1,8,0:0:0:0:
226,60,56308,1,0,0:0:0:0:
226,60,56439,1,0,0:0:0:0:
226,60,56505,1,0,0:0:0:0:
226,60,56570,1,8,0:0:0:0:
226,60,56636,1,8,0:0:0:0:
226,60,56701,1,0,0:0:0:0:
204,76,56832,1,0,0:0:0:0:
204,76,56963,1,8,0:0:0:0:
217,57,57094,1,0,0:0:0:0:
199,40,57160,1,8,0:0:0:0:
217,57,57225,1,0,0:0:0:0:
199,40,57291,1,8,0:0:0:0:
217,57,57356,1,0,0:0:0:0:
210,65,57487,1,8,0:0:0:0:
174,54,57531,1,8,0:0:0:0:
210,65,57574,1,8,0:0:0:0:
210,65,57618,1,0,0:0:0:0:
204,76,57683,1,8,0:0:0:0:
204,76,57749,1,0,0:0:0:0:
192,42,57814,1,0,0:0:0:0:
206,78,57880,1,8,0:0:0:0:
172,101,58011,1,0,0:0:0:0:
186,24,58076,1,8,0:0:0:0:
183,108,58142,1,0,0:0:0:0:
215,78,58207,1,0,0:0:0:0:
164,109,58338,1,0,0:0:0:0:
164,109,58404,1,8,0:0:0:0:
189,81,58666,1,0,0:0:0:0:
170,179,58796,1,0,0:0:0:0:
170,179,58862,1,0,0:0:0:0:
170,179,58927,1,8,0:0:0:0:
171,60,59189,1,8,0:0:0:0:
171,60,59320,1,0,0:0:0:0:
171,60,59451,1,12,0:0:0:0:
197,84,59713,1,0,0:0:0:0:
181,103,59844,1,0,0:0:0:0:
181,103,59975,1,0,0:0:0:0:
183,171,60106,1,8,0:0:0:0:
183,171,60150,1,8,0:0:0:0:
183,171,60193,1,8,0:0:0:0:
281,101,60237,1,0,0:0:0:0:
260,122,60302,1,0,0:0:0:0:
260,122,60368,1,8,0:0:0:0:
260,122,60433,1,8,0:0:0:0:
260,122,60499,1,0,0:0:0:0:
230,111,60761,1,0,0:0:0:0:
230,111,60892,1,0,0:0:0:0:
221,113,60957,1,0,0:0:0:0:
235,120,61023,1,8,0:0:0:0:
186,70,61154,1,0,0:0:0:0:
194,117,61175,1,0,0:0:0:0:
186,70,61284,1,0,0:0:0:0:
194,117,61306,1,0,0:0:0:0:
177,25,61415,1,8,0:0:0:0:
194,117,61437,1,8,0:0:0:0:
177,25,61546,1,0,0:0:0:0:
225,59,61677,1,8,0:0:0:0:
225,59,61808,1,0,0:0:0:0:
144,65,61874,1,0,0:0:0:0:
186,70,61939,1,8,0:0:0:0:
186,70,62070,1,8,0:0:0:0:
127,92,62201,1,0,0:0:0:0:
127,92,62267,1,0,0:0:0:0:
127,92,62332,1,8,0:0:0:0:
256,127,62376,1,0,0:0:0:0:
256,127,62419,1,0,0:0:0:0:
127,92,62463,1,8,0:0:0:0:
204,63,62528,1,0,0:0:0:0:
204,63,62594,1,8,0:0:0:0:
213,121,62856,1,0,0:0:0:0:
191,110,62987,1,8,0:0:0:0:
179,102,63052,1,0,0:0:0:0:
182,117,63118,1,8,0:0:0:0:
147,62,63183,1,8,0:0:0:0:
147,62,63249,1,0,0:0:0:0:
147,62,63314,1,8,0:0:0:0:
147,62,63380,1,0,0:0:0:0:
146,67,63445,1,8,0:0:0:0:
146,67,63511,1,0,0:0:0:0:
146,67,63576,1,0,0:0:0:0:
150,69,63642,1,8,0:0:0:0:
184,38,63772,1,0,0:0:0:0:
184,38,63903,1,12,0:0:0:0:
206,52,64165,1,0,0:0:0:0:
206,52,64296,1,8,0:0:0:0:
206,52,64427,1,0,0:0:0:0:
193,61,64493,1,0,0:0:0:0:
191,61,64558,1,0,0:0:0:0:
193,61,64624,1,0,0:0:0:0:
191,62,64689,1,8,0:0:0:0:
176,35,64820,1,0,0:0:0:0:
164,70,64886,1,0,0:0:0:0:
176,35,64951,1,0,0:0:0:0:
176,42,65082,1,0,0:0:0:0:
176,42,65213,1,8,0:0:0:0:
195,70,65344,1,0,0:0:0:0:
195,72,65475,1,0,0:0:0:0:
221,32,65540,1,0,0:0:0:0:
195,70,65606,1,8,0:0:0:0:
195,70,65737,1,8,0:0:0:0:
191,76,65999,1,0,0:0:0:0:
191,75,66064,1,0,0:0:0:0:
190,76,66130,1,0,0:0:0:0:
195,72,66195,1,0,0:0:0:0:
190,76,66260,1,8,0:0:0:0:
146,88,66391,1,0,0:0:0:0:
209,59,66522,1,0,0:0:0:0:
146,88,66588,1,0,0:0:0:0:
209,59,66653,1,8,0:0:0:0:
173,60,66784,1,0,0:0:0:0:
173,60,66850,1,8,0:0:0:0:
173,60,66915,1,0,0:0:0:0:
173,60,67046,1,8,0:0:0:0:
197,42,67439,1,8,0:0:0:0:
197,42,67570,1,8,0:0:0:0:
196,57,67635,1,0,0:0:0:0:
191,75,67701,1,8,0:0:0:0:
196,57,67766,1,0,0:0:0:0:
191,75,67832,1,8,0:0:0:0:
196,57,67897,1,0,0:0:0:0:
191,75,67963,1,8,0:0:0:0:
191,75,68028,1,8,0:0:0:0:
191,75,68094,1,0,0:0:0:0:
226,64,68225,1,0,0:0:0:0:
226,64,68356,1,8,0:0:0:0:
247,48,68421,1,0,0:0:0:0:
188,39,68487,1,0,0:0:0:0:
188,39,68618,1,8,0:0:0:0:
240,111,68639,1,8,0:0:0:0:
146,68,68748,1,8,0:0:0:0:
224,96,68814,1,8,0:0:0:0:
155,66,68879,1,0,0:0:0:0:
156,66,69010,1,0,0:0:0:0:
154,75,69141,1,8,0:0:0:0:
256,160,69174,1,0,0:0:0:0:
160,62,69272,1,0,0:0:0:0:
256,160,69305,1,0,0:0:0:0:
160,62,69403,1,8,0:0:0:0:
256,160,69436,1,0,0:0:0:0:
160,62,69534,1,0,0:0:0:0:
256,160,69567,1,0,0:0:0:0:
160,62,69665,1,12,0:0:0:0:
196,121,70058,1,8,0:0:0:0:
196,121,70189,1,0,0:0:0:0:
176,93,70254,1,8,0:0:0:0:
170,81,70320,1,0,0:0:0:0:
170,81,70451,1,8,0:0:0:0:
176,93,70582,1,0,0:0:0:0:
167,77,70647,1,0,0:0:0:0:
176,81,70713,1,0,0:0:0:0:
176,93,70778,1,0,0:0:0:0:
176,93,70844,1,8,0:0:0:0:
183,62,70975,1,0,0:0:0:0:
183,62,71106,1,8,0:0:0:0:
183,62,71236,1,4,0:0:0:0:
193,69,71760,1,8,0:0:0:0:
251,124,71891,1,0,0:0:0:0:
251,124,71957,1,0,0:0:0:0:
117,87,72022,1,8,0:0:0:0:
155,123,72088,1,8,0:0:0:0:
117,87,72153,1,8,0:0:0:0:
115,96,72219,1,8,0:0:0:0:
155,123,72284,1,0,0:0:0:0:
156,130,72415,1,0,0:0:0:0:
156,132,72546,1,8,0:0:0:0:
169,103,72677,1,0,0:0:0:0:
169,103,72742,1,8,0:0:0:0:
169,103,72808,1,0,0:0:0:0:
189,48,72873,1,0,0:0:0:0:
169,103,72939,1,8,0:0:0:0:
150,112,73070,1,0,0:0:0:0:
189,73,73201,1,8,0:0:0:0:
189,73,73332,1,0,0:0:0:0:
168,32,73463,1,0,0:0:0:0:
181,73,73528,1,0,0:0:0:0:
168,32,73594,1,8,0:0:0:0:
148,63,73724,1,0,0:0:0:0:
148,63,73855,1,8,0:0:0:0:
143,92,73921,1,8,0:0:0:0:
143,92,73986,1,0,0:0:0:0:
141,85,74052,1,0,0:0:0:0:
143,92,74117,1,8,0:0:0:0:
206,82,74161,1,8,0:0:0:0:
206,82,74205,1,8,0:0:0:0:
160,69,74248,1,8,0:0:0:0:
160,69,74292,1,8,0:0:0:0:
203,91,74336,1,8,0:0:0:0:
203,91,74379,1,0,0:0:0:0:
168,59,74510,1,0,0:0:0:0:
168,59,74641,1,8,0:0:0:0:
188,61,74772,1,0,0:0:0:0:
170,89,74838,1,0,0:0:0:0:
188,61,74903,1,8,0:0:0:0:
255,139,74936,1,8,0:0:0:0:
191,18,75034,1,0,0:0:0:0:
191,18,75165,1,0,0:0:0:0:
213,51,75209,1,0,0:0:0:0:
150,52,75252,1,0,0:0:0:0:
150,52,75296,1,0,0:0:0:0:
198,63,75339,1,0,0:0:0:0:
150,52,75383,1,0,0:0:0:0:
150,52,75427,1,8,0:0:0:0:
198,55,75558,1,0,0:0:0:0:
198,55,75689,1,8,0:0:0:0:
183,109,75820,1,0,0:0:0:0:
183,109,75885,1,0,0:0:0:0:
183,109,75951,1,8,0:0:0:0:
176,49,76016,1,8,0:0:0:0:
175,48,76082,1,0,0:0:0:0:
175,48,76212,1,8,0:0:0:0:
180,167,76256,1,8,0:0:0:0:
180,172,76300,1,8,0:0:0:0:
184,62,76343,1,0,0:0:0:0:
240,119,76409,1,0,0:0:0:0:
237,67,76474,1,8,0:0:0:0:
207,155,76518,1,8,0:0:0:0:
207,155,76562,1,8,0:0:0:0:
206,153,76605,1,8,0:0:0:0:
178,23,76736,1,0,0:0:0:0:
206,153,76780,1,0,0:0:0:0:
206,153,76824,1,0,0:0:0:0:
206,153,76867,1,0,0:0:0:0:
191,40,76998,1,8,0:0:0:0:
191,40,77064,1,8,0:0:0:0:
98,102,77129,1,0,0:0:0:0:
98,102,77260,1,8,0:0:0:0:
238,96,77304,1,8,0:0:0:0:
238,96,77347,1,8,0:0:0:0:
238,96,77391,1,8,0:0:0:0:
238,96,77435,1,8,0:0:0:0:
238,96,77478,1,8,0:0:0:0:
238,96,77522,1,0,0:0:0:0:
188,66,77653,1,0,0:0:0:0:
188,66,77784,1,8,0:0:0:0:
186,146,77915,1,0,0:0:0:0:
192,32,77980,1,8,0:0:0:0:
192,32,78046,1,0,0:0:0:0:
180,151,78111,1,0,0:0:0:0:
180,151,78177,1,8,0:0:0:0:
211,80,78242,1,8,0:0:0:0:
180,151,78308,1,0,0:0:0:0:
180,151,78373,1,0,0:0:0:0:
180,151,78439,1,8,0:0:0:0:
180,151,78570,1,0,0:0:0:0:
200,69,78635,1,0,0:0:0:0:
200,69,78700,1,0,0:0:0:0:
200,69,78766,1,0,0:0:0:0:
200,69,78831,1,8,0:0:0:0:
190,39,78962,1,0,0:0:0:0:
211,82,79028,1,0,0:0:0:0:
190,39,79093,1,0,0:0:0:0:
186,44,79224,1,8,0:0:0:0:
214,68,79355,1,0,0:0:0:0:
211,82,79421,1,0,0:0:0:0:
214,68,79486,1,0,0:0:0:0:
214,68,79617,1,0,0:0:0:0:
210,81,80141,1,8,0:0:0:0:
201,92,80403,1,0,0:0:0:0:
206,92,80665,1,0,0:0:0:0:
173,35,80730,1,0,0:0:0:0:
189,102,80796,1,0,0:0:0:0:
189,102,80927,1,8,0:0:0:0:
173,42,81058,1,0,0:0:0:0:
173,42,81123,1,8,0:0:0:0:
173,42,81188,1,0,0:0:0:0:
158,55,81254,1,0,0:0:0:0:
158,55,81319,1,8,0:0:0:0:
209,71,81450,1,0,0:0:0:0:
209,71,81581,1,0,0:0:0:0:
209,71,81712,1,8,0:0:0:0:
209,71,81778,1,0,0:0:0:0:
209,71,81843,1,8,0:0:0:0:
209,71,81974,1,0,0:0:0:0:
168,76,82236,1,0,0:0:0:0:
256,192,82498,12,0,82629,0:0:0:0:
191,72,82760,5,8,0:0:0:0:
218,60,82891,1,0,0:0:0:0:
195,25,82956,1,0,0:0:0:0:
218,60,83022,1,8,0:0:0:0:
186,59,83153,1,8,0:0:0:0:
186,59,83284,1,0,0:0:0:0:
192,47,83349,1,0,0:0:0:0:
196,52,83415,1,8,0:0:0:0:
195,25,83546,1,0,0:0:0:0:
195,25,83676,1,0,0:0:0:0:
195,25,83742,1,0,0:0:0:0:
196,28,83807,1,8,0:0:0:0:
255,48,83873,1,8,0:0:0:0:
192,37,83938,1,0,0:0:0:0:
193,42,84004,1,8,0:0:0:0:
192,38,84069,1,0,0:0:0:0:
193,42,84135,1,0,0:0:0:0:
192,47,84200,1,8,0:0:0:0:
192,49,84266,1,8,0:0:0:0:
191,49,84331,1,0,0:0:0:0:
161,64,84397,1,0,0:0:0:0:
161,64,84462,1,0,0:0:0:0:
161,64,84528,1,0,0:0:0:0:
161,64,84593,1,8,0:0:0:0:
169,40,84724,1,8,0:0:0:0:
170,41,84855,1,4,0:0:0:0:
211,163,84986,1,0,0:0:0:0:
204,153,85051,1,0,0:0:0:0:
211,163,85117,1,8,0:0:0:0:
174,73,85248,1,4,0:0:0:0:
174,73,85379,1,0,0:0:0:0:
174,78,85444,1,0,0:0:0:0:
174,80,85510,1,8,0:0:0:0:
184,98,85641,1,0,0:0:0:0:
184,98,85706,1,0,0:0:0:0:
184,98,85772,1,8,0:0:0:0:
184,98,85837,1,8,0:0:0:0:
184,98,85903,1,0,0:0:0:0:
206,38,86034,1,8,0:0:0:0:
206,38,86164,1,0,0:0:0:0:
224,64,86295,1,0,0:0:0:0:
224,64,86361,1,0,0:0:0:0:
197,63,86426,1,8,0:0:0:0:
170,53,86557,1,0,0:0:0:0:
170,53,86688,1,8,0:0:0:0:
170,53,86754,1,0,0:0:0:0:
170,53,86819,1,8,0:0:0:0:
170,53,86885,1,0,0:0:0:0:
170,53,86950,1,8,0:0:0:0:
166,74,87212,1,12,0:0:0:0:
166,74,87343,1,0,0:0:0:0:
166,74,87474,1,12,0:0:0:0:
196,42,87605,1,0,0:0:0:0:
275,37,87670,1,0,0:0:0:0:
196,42,87736,1,8,0:0:0:0:
180,55,87867,1,8,0:0:0:0:
179,56,87998,1,4,0:0:0:0:
184,76,88260,1,0,0:0:0:0:
284,98,88303,1,0,0:0:0:0:
284,98,88347,1,0,0:0:0:0:
184,76,88391,1,8,0:0:0:0:
228,126,88456,1,8,0:0:0:0:
184,76,88522,1,0,0:0:0:0:
209,27,88652,1,0,0:0:0:0:
211,77,89045,1,4,0:0:0:0:
126,197,89438,1,4,0:0:0:0:
210,138,89831,1,4,0:0:0:0:
210,138,90093,1,8,0:0:0:0:
210,138,90224,1,0,0:0:0:0:
210,138,90355,1,0,0:0:0:0:
224,128,90420,1,8,0:0:0:0:
210,138,90486,1,0,0:0:0:0:
210,138,90551,1,8,0:0:0:0:
210,138,90617,1,0,0:0:0:0:
210,138,90682,1,8,0:0:0:0:
210,138,90748,1,0,0:0:0:0:
210,138,90813,1,0,0:0:0:0:
210,138,90879,1,8,0:0:0:0:
203,58,91009,1,0,0:0:0:0:
203,58,91140,1,0,0:0:0:0:
203,58,91206,1,0,0:0:0:0:
203,58,91271,1,8,0:0:0:0:
198,74,91402,1,0,0:0:0:0:
192,64,91468,1,0,0:0:0:0:
198,74,91533,1,8,0:0:0:0:
202,41,91599,1,8,0:0:0:0:
198,74,91664,1,0,0:0:0:0:
183,50,91795,1,8,0:0:0:0:
192,64,91861,1,8,0:0:0:0:
183,50,91926,1,0,0:0:0:0:
215,74,91992,1,8,0:0:0:0:
167,72,92057,1,0,0:0:0:0:
292,95,92101,1,0,0:0:0:0:
292,95,92144,1,0,0:0:0:0:
292,95,92188,1,8,0:0:0:0:
224,96,92253,1,8,0:0:0:0:
206,88,92319,1,0,0:0:0:0:
206,88,92450,1,8,0:0:0:0:
196,34,92515,1,0,0:0:0:0:
196,35,92581,1,0,0:0:0:0:
192,47,92712,1,0,0:0:0:0:
192,47,92843,1,8,0:0:0:0:
197,87,92974,1,0,0:0:0:0:
192,62,93236,1,4,0:0:0:0:
192,64,93367,1,0,0:0:0:0:
192,64,93432,1,0,0:0:0:0:
192,64,93497,1,8,0:0:0:0:
192,64,93628,1,4,0:0:0:0:
197,87,93759,1,0,0:0:0:0:
197,87,93825,1,0,0:0:0:0:
197,87,93890,1,8,0:0:0:0:
160,96,94021,1,8,0:0:0:0:
224,32,94087,1,0,0:0:0:0:
160,64,94152,1,8,0:0:0:0:
160,64,94283,1,4,0:0:0:0:
160,32,94414,1,0,0:0:0:0:
192,64,94545,1,8,0:0:0:0:
192,64,94676,1,0,0:0:0:0:
224,32,94807,1,4,0:0:0:0:
224,32,94938,1,0,0:0:0:0:
160,0,95069,1,8,0:0:0:0:
192,64,95331,1,4,0:0:0:0:
192,64,95593,1,12,0:0:0:0:
192,64,95724,1,0,0:0:0:0:
192,64,95855,1,12,0:0:0:0:
210,70,95985,1,0,0:0:0:0:
224,32,96378,5,8,0:0:0:0:
224,64,96640,1,0,0:0:0:0:
224,64,96902,1,8,0:0:0:0:
224,64,96968,1,8,0:0:0:0:
224,64,97033,1,8,0:0:0:0:
224,64,97099,1,0,0:0:0:0:
224,64,97164,1,0,0:0:0:0:
192,64,97295,1,8,0:0:0:0:
192,64,97426,1,4,0:0:0:0:
192,64,97819,1,4,0:0:0:0:
192,64,98212,1,4,0:0:0:0:
192,64,98473,1,8,0:0:0:0:
160,96,98604,1,0,0:0:0:0:
160,96,98735,1,8,0:0:0:0:
160,96,98801,1,0,0:0:0:0:
160,96,98866,1,8,0:0:0:0:
160,96,98932,1,0,0:0:0:0:
160,96,98997,1,8,0:0:0:0:
160,96,99063,1,8,0:0:0:0:
192,64,99128,1,0,0:0:0:0:
224,96,99172,1,0,0:0:0:0:
224,96,99216,1,0,0:0:0:0:
192,64,99259,1,8,0:0:0:0:
256,64,99390,1,0,0:0:0:0:
192,96,99521,1,0,0:0:0:0:
160,96,99587,1,0,0:0:0:0:
160,96,99652,1,8,0:0:0:0:
128,128,99783,1,8,0:0:0:0:
128,128,99914,1,8,0:0:0:0:
128,128,99979,1,0,0:0:0:0:
128,128,100045,1,8,0:0:0:0:
192,96,100110,1,8,0:0:0:0:
192,96,100176,1,0,0:0:0:0:
192,64,100307,1,0,0:0:0:0:
192,128,100569,1,0,0:0:0:0:
192,32,100634,1,0,0:0:0:0:
224,128,100700,1,8,0:0:0:0:
192,128,100831,1,8,0:0:0:0:
192,96,100961,1,0,0:0:0:0:
192,96,101092,1,8,0:0:0:0:
224,64,101223,1,8,0:0:0:0:
224,96,101354,1,0,0:0:0:0:
160,64,101616,1,4,0:0:0:0:
128,96,101747,1,0,0:0:0:0:
128,96,101813,1,0,0:0:0:0:
128,96,101878,1,8,0:0:0:0:
128,128,102009,1,4,0:0:0:0:
160,64,102140,1,0,0:0:0:0:
160,64,102205,1,0,0:0:0:0:
160,64,102271,1,8,0:0:0:0:
192,96,102402,1,8,0:0:0:0:
192,64,102664,1,8,0:0:0:0:
192,128,102697,1,0,0:0:0:0:
192,0,102795,1,0,0:0:0:0:
192,128,102827,1,0,0:0:0:0:
192,0,102926,1,8,0:0:0:0:
192,96,102958,1,0,0:0:0:0:
160,32,103057,1,0,0:0:0:0:
160,64,103089,1,0,0:0:0:0:
160,32,103188,1,8,0:0:0:0:
192,32,103220,1,8,0:0:0:0:
192,96,103319,1,8,0:0:0:0:
192,32,103351,1,0,0:0:0:0:
192,96,103449,1,8,0:0:0:0:
192,32,103482,1,8,0:0:0:0:
192,96,103580,1,8,0:0:0:0:
192,32,103613,1,0,0:0:0:0:
192,64,103711,1,8,0:0:0:0:
192,64,103842,1,0,0:0:0:0:
192,64,103908,1,0,0:0:0:0:
192,64,103973,1,8,0:0:0:0:
160,96,104104,1,0,0:0:0:0:
160,96,104235,1,0,0:0:0:0:
160,64,104301,1,0,0:0:0:0:
160,96,104366,1,8,0:0:0:0:
160,64,104497,1,0,0:0:0:0:
160,96,104563,1,0,0:0:0:0:
160,96,104628,1,0,0:0:0:0:
160,96,104759,1,8,0:0:0:0:
192,64,104890,1,0,0:0:0:0:
224,32,104955,1,0,0:0:0:0:
192,64,105021,1,0,0:0:0:0:
192,64,105086,1,0,0:0:0:0:
192,64,105152,1,8,0:0:0:0:
192,96,105283,1,0,0:0:0:0:
192,96,105414,1,0,0:0:0:0:
192,96,105545,1,8,0:0:0:0:
192,96,105807,1,4,0:0:0:0:
160,192,106330,1,8,0:0:0:0:
160,192,106854,1,8,0:0:0:0:
160,192,107378,1,8,0:0:0:0:
160,192,107902,1,8,0:0:0:0:
160,192,108425,1,8,0:0:0:0:
160,192,108949,5,8,0:0:0:0:
160,192,109473,1,8,0:0:0:0:
256,192,109997,5,0,0:0:0:0:
256,192,110128,1,8,0:0:0:0:
256,192,110193,1,0,0:0:0:0:
256,192,110259,1,8,0:0:0:0:
256,192,110390,1,0,0:0:0:0:
256,192,110521,1,0,0:0:0:0:
256,192,110586,1,0,0:0:0:0:
256,192,110652,1,8,0:0:0:0:
256,192,110783,1,0,0:0:0:0:
256,192,110848,1,8,0:0:0:0:
256,192,110913,1,0,0:0:0:0:
256,192,111044,1,0,0:0:0:0:
256,192,111306,1,0,0:0:0:0:
256,192,111568,1,0,0:0:0:0:
256,192,111612,1,0,0:0:0:0:
256,192,111656,1,0,0:0:0:0:
256,192,111765,1,0,0:0:0:0:
256,192,111830,1,8,0:0:0:0:
256,192,111961,1,0,0:0:0:0:
256,192,112092,1,0,0:0:0:0:
256,192,112157,1,0,0:0:0:0:
256,192,112223,1,8,0:0:0:0:
256,192,112288,1,0,0:0:0:0:
256,192,112354,1,8,0:0:0:0:
256,192,112485,1,0,0:0:0:0:
256,192,112616,1,8,0:0:0:0:
256,192,112681,1,8,0:0:0:0:
256,192,112747,1,8,0:0:0:0:
256,192,112812,1,8,0:0:0:0:
256,192,112878,1,0,0:0:0:0:
256,192,112943,1,8,0:0:0:0:
256,192,113009,1,0,0:0:0:0:
256,192,113074,1,0,0:0:0:0:
256,192,113140,1,8,0:0:0:0:
256,192,113401,1,8,0:0:0:0:
256,192,113532,1,0,0:0:0:0:
256,192,113794,1,8,0:0:0:0:
256,192,113925,1,0,0:0:0:0:
256,192,113991,1,0,0:0:0:0:
256,192,114056,1,8,0:0:0:0:
256,192,114187,1,0,0:0:0:0:
256,192,114318,1,8,0:0:0:0:
256,192,114384,1,0,0:0:0:0:
256,192,114449,1,0,0:0:0:0:
256,192,114515,1,0,0:0:0:0:
256,192,114580,1,0,0:0:0:0:
256,192,114711,1,8,0:0:0:0:
256,192,114842,1,0,0:0:0:0:
256,192,114973,1,8,0:0:0:0:
256,192,115038,1,8,0:0:0:0:
256,192,115104,1,0,0:0:0:0:
256,192,115235,1,8,0:0:0:0:
256,192,115300,1,0,0:0:0:0:
256,192,115366,1,0,0:0:0:0:
256,192,115497,1,0,0:0:0:0:
256,192,115628,1,0,0:0:0:0:
256,192,115693,1,0,0:0:0:0:
256,192,115759,1,8,0:0:0:0:
256,192,115802,1,8,0:0:0:0:
256,192,115846,1,8,0:0:0:0:
256,192,115889,1,8,0:0:0:0:
256,192,116020,1,0,0:0:0:0:
256,192,116064,1,0,0:0:0:0:
256,192,116108,1,0,0:0:0:0:
256,192,116151,1,0,0:0:0:0:
256,192,116282,1,0,0:0:0:0:
256,192,116413,1,8,0:0:0:0:
256,192,116479,1,0,0:0:0:0:
256,192,116544,1,8,0:0:0:0:
256,192,116675,1,8,0:0:0:0:
256,192,116806,1,0,0:0:0:0:
256,192,116872,1,0,0:0:0:0:
256,192,116937,1,8,0:0:0:0:
256,192,117068,1,8,0:0:0:0:
256,192,117199,1,8,0:0:0:0:
256,192,117264,1,0,0:0:0:0:
256,192,117330,1,8,0:0:0:0:
256,192,117461,1,8,0:0:0:0:
256,192,117592,1,0,0:0:0:0:
256,192,117657,1,0,0:0:0:0:
256,192,117723,1,8,0:0:0:0:
256,192,117854,1,0,0:0:0:0:
256,192,117919,1,8,0:0:0:0:
256,192,117985,1,0,0:0:0:0:
256,192,118028,1,0,0:0:0:0:
256,192,118072,1,0,0:0:0:0:
256,192,118116,1,8,0:0:0:0:
256,192,118377,1,0,0:0:0:0:
256,192,118508,1,8,0:0:0:0:
256,192,118574,1,0,0:0:0:0:
256,192,118639,1,0,0:0:0:0:
256,192,118770,1,0,0:0:0:0:
256,192,118836,1,8,0:0:0:0:
256,192,118901,1,0,0:0:0:0:
256,192,118967,1,0,0:0:0:0:
256,192,119032,1,8,0:0:0:0:
256,192,119163,1,8,0:0:0:0:
256,192,119294,1,0,0:0:0:0:
256,192,119425,1,0,0:0:0:0:
256,192,119491,1,0,0:0:0:0:
256,192,119556,1,0,0:0:0:0:
256,192,119621,1,0,0:0:0:0:
256,192,119687,1,8,0:0:0:0:
256,192,119731,1,8,0:0:0:0:
256,192,119818,1,0,0:0:0:0:
256,192,119949,1,8,0:0:0:0:
256,192,120080,1,8,0:0:0:0:
256,192,120211,1,8,0:0:0:0:
256,192,120254,1,0,0:0:0:0:
256,192,120342,1,8,0:0:0:0:
256,192,120385,1,0,0:0:0:0:
256,192,120473,1,8,0:0:0:0:
256,192,120516,1,0,0:0:0:0:
256,192,120604,1,0,0:0:0:0:
256,192,120669,1,0,0:0:0:0:
256,192,120735,1,8,0:0:0:0:
256,192,120865,1,8,0:0:0:0:
256,192,120931,1,0,0:0:0:0:
256,192,120996,1,0,0:0:0:0:
256,192,121062,1,0,0:0:0:0:
256,192,121127,1,8,0:0:0:0:
256,192,121258,1,0,0:0:0:0:
256,192,121389,1,0,0:0:0:0:
256,192,121520,1,12,0:0:0:0:
256,192,121782,1,8,0:0:0:0:
256,192,121913,1,0,0:0:0:0:
256,192,122044,1,4,0:0:0:0:
256,192,122175,1,8,0:0:0:0:
256,192,122306,1,8,0:0:0:0:
256,192,122371,1,0,0:0:0:0:
256,192,122437,1,0,0:0:0:0:
256,192,122568,1,4,0:0:0:0:
256,192,122830,1,8,0:0:0:0:
256,192,122961,1,0,0:0:0:0:
256,192,123092,1,8,0:0:0:0:
256,192,123124,1,0,0:0:0:0:
256,192,123223,1,8,0:0:0:0:
256,192,123255,1,0,0:0:0:0:
256,192,123353,1,0,0:0:0:0:
256,192,123386,1,0,0:0:0:0:
256,192,123484,1,0,0:0:0:0:
256,192,123517,1,0,0:0:0:0:
256,192,123615,1,0,0:0:0:0:
256,192,123648,1,8,0:0:0:0:
256,192,123746,1,0,0:0:0:0:
256,192,123779,1,8,0:0:0:0:
256,192,123877,1,8,0:0:0:0:
256,192,123910,1,8,0:0:0:0:
256,192,124008,1,8,0:0:0:0:
256,192,124041,1,8,0:0:0:0:
256,192,124139,1,8,0:0:0:0:
256,192,124172,1,0,0:0:0:0:
256,192,124270,1,8,0:0:0:0:
256,192,124303,1,0,0:0:0:0:
256,192,124401,1,0,0:0:0:0:
256,192,124532,1,0,0:0:0:0:
256,192,124663,1,0,0:0:0:0:
256,192,124728,1,8,0:0:0:0:
256,192,124794,1,8,0:0:0:0:
256,192,124925,1,8,0:0:0:0:
256,192,125056,1,0,0:0:0:0:
256,192,125121,1,8,0:0:0:0:
256,192,125187,1,8,0:0:0:0:
256,192,125318,1,8,0:0:0:0:
256,192,125449,1,0,0:0:0:0:
256,192,125580,1,8,0:0:0:0:
256,192,125645,1,8,0:0:0:0:
256,192,125711,1,0,0:0:0:0:
256,192,125841,1,8,0:0:0:0:
256,192,125907,1,0,0:0:0:0:
256,192,125972,1,8,0:0:0:0:
256,192,126103,1,0,0:0:0:0:
256,192,126234,1,8,0:0:0:0:
256,192,126300,1,8,0:0:0:0:
256,192,126365,1,0,0:0:0:0:
256,192,126496,1,12,0:0:0:0:
256,192,126758,1,4,0:0:0:0:
256,192,126889,1,0,0:0:0:0:
256,192,126954,1,0,0:0:0:0:
256,192,127020,1,8,0:0:0:0:
256,192,127151,1,8,0:0:0:0:
256,192,127216,1,0,0:0:0:0:
256,192,127282,1,8,0:0:0:0:
256,192,127347,1,8,0:0:0:0:
256,192,127413,1,0,0:0:0:0:
256,192,127478,1,8,0:0:0:0:
256,192,127544,1,0,0:0:0:0:
256,192,127675,1,0,0:0:0:0:
256,192,127806,1,8,0:0:0:0:
256,192,127937,1,0,0:0:0:0:
256,192,128002,1,8,0:0:0:0:
256,192,128068,1,0,0:0:0:0:
256,192,128198,1,8,0:0:0:0:
256,192,128329,1,8,0:0:0:0:
256,192,128395,1,8,0:0:0:0:
256,192,128460,1,0,0:0:0:0:
256,192,128591,1,8,0:0:0:0:
256,192,128722,1,8,0:0:0:0:
256,192,128766,1,8,0:0:0:0:
256,192,128810,1,8,0:0:0:0:
256,192,128853,1,0,0:0:0:0:
256,192,129115,1,0,0:0:0:0:
256,192,129181,1,0,0:0:0:0:
256,192,129246,1,0,0:0:0:0:
256,192,129312,1,0,0:0:0:0:
256,192,129377,1,0,0:0:0:0:
256,192,129442,1,0,0:0:0:0:
256,192,129508,1,0,0:0:0:0:
256,192,129573,1,0,0:0:0:0:
256,192,129639,1,0,0:0:0:0:
256,192,129704,1,0,0:0:0:0:
256,192,129770,1,0,0:0:0:0:
256,192,129835,1,0,0:0:0:0:
256,192,129901,1,8,0:0:0:0:
256,192,130032,1,0,0:0:0:0:
256,192,130097,1,8,0:0:0:0:
256,192,130163,1,0,0:0:0:0:
256,192,130228,1,8,0:0:0:0:
256,192,130294,1,8,0:0:0:0:
256,192,130425,1,0,0:0:0:0:
256,192,130490,1,8,0:0:0:0:
256,192,130556,1,0,0:0:0:0:
256,192,130621,1,0,0:0:0:0:
256,192,130686,1,8,0:0:0:0:
256,192,130730,1,0,0:0:0:0:
256,192,130774,1,0,0:0:0:0:
256,192,130817,1,8,0:0:0:0:
256,192,130883,1,8,0:0:0:0:
256,192,130948,1,0,0:0:0:0:
256,192,131079,1,0,0:0:0:0:
256,192,131123,1,0,0:0:0:0:
256,192,131167,1,0,0:0:0:0:
256,192,131210,1,8,0:0:0:0:
256,192,131341,1,0,0:0:0:0:
256,192,131472,1,8,0:0:0:0:
256,192,131538,1,8,0:0:0:0:
256,192,131603,1,0,0:0:0:0:
256,192,131669,1,8,0:0:0:0:
256,192,131734,1,0,0:0:0:0:
256,192,131800,1,0,0:0:0:0:
256,192,131865,1,8,0:0:0:0:
256,192,131996,1,8,0:0:0:0:
256,192,132061,1,8,0:0:0:0:
256,192,132127,1,0,0:0:0:0:
256,192,132258,1,0,0:0:0:0:
256,192,132389,1,8,0:0:0:0:
256,192,132520,1,8,0:0:0:0:
256,192,132585,1,0,0:0:0:0:
256,192,132651,1,8,0:0:0:0:
256,192,132716,1,0,0:0:0:0:
256,192,132782,1,0,0:0:0:0:
256,192,133044,1,4,0:0:0:0:
256,192,133109,12,0,133305,0:0:0:0:
256,192,133436,5,0,0:0:0:0:
256,192,133567,1,8,0:0:0:0:
256,192,133633,1,0,0:0:0:0:
256,192,133698,1,8,0:0:0:0:
256,192,133764,1,0,0:0:0:0:
256,192,133829,1,0,0:0:0:0:
256,192,133960,1,8,0:0:0:0:
256,192,134026,1,0,0:0:0:0:
256,192,134091,1,8,0:0:0:0:
256,192,134157,1,8,0:0:0:0:
256,192,134222,1,0,0:0:0:0:
256,192,134353,1,0,0:0:0:0:
256,192,134418,1,8,0:0:0:0:
256,192,134484,1,8,0:0:0:0:
256,192,134549,1,8,0:0:0:0:
256,192,134615,1,0,0:0:0:0:
256,192,134746,1,8,0:0:0:0:
256,192,134877,1,12,0:0:0:0:
256,192,135139,1,4,0:0:0:0:
256,192,135270,1,0,0:0:0:0:
256,192,135335,1,0,0:0:0:0:
256,192,135401,1,8,0:0:0:0:
256,192,135532,1,0,0:0:0:0:
256,192,135597,1,8,0:0:0:0:
256,192,135662,1,0,0:0:0:0:
256,192,135728,1,0,0:0:0:0:
256,192,135793,1,8,0:0:0:0:
256,192,135924,1,0,0:0:0:0:
256,192,135990,1,8,0:0:0:0:
256,192,136055,1,0,0:0:0:0:
256,192,136121,1,0,0:0:0:0:
256,192,136186,1,0,0:0:0:0:
256,192,136317,1,0,0:0:0:0:
256,192,136383,1,0,0:0:0:0:
256,192,136448,1,8,0:0:0:0:
256,192,136579,1,0,0:0:0:0:
256,192,136645,1,8,0:0:0:0:
256,192,136710,1,0,0:0:0:0:
256,192,136776,1,0,0:0:0:0:
256,192,136841,1,8,0:0:0:0:
256,192,136906,1,0,0:0:0:0:
256,192,136972,1,8,0:0:0:0:
256,192,137103,1,0,0:0:0:0:
256,192,137234,1,8,0:0:0:0:
256,192,137299,1,0,0:0:0:0:
256,192,137365,1,8,0:0:0:0:
256,192,137496,1,8,0:0:0:0:
256,192,137627,1,0,0:0:0:0:
256,192,137692,1,8,0:0:0:0:
256,192,137758,1,0,0:0:0:0:
256,192,137823,1,8,0:0:0:0:
256,192,137889,1,8,0:0:0:0:
256,192,138020,1,4,0:0:0:0:
256,192,138281,1,0,0:0:0:0:
256,192,138412,1,0,0:0:0:0:
256,192,138478,1,8,0:0:0:0:
256,192,138543,1,0,0:0:0:0:
256,192,138609,1,0,0:0:0:0:
256,192,138674,1,8,0:0:0:0:
256,192,138718,1,0,0:0:0:0:
256,192,138762,1,0,0:0:0:0:
256,192,138805,1,0,0:0:0:0:
256,192,138871,1,0,0:0:0:0:
256,192,138936,1,8,0:0:0:0:
256,192,139067,1,8,0:0:0:0:
256,192,139329,1,4,0:0:0:0:
256,192,139853,1,8,0:0:0:0:
256,192,139918,1,0,0:0:0:0:
256,192,139984,1,0,0:0:0:0:
256,192,140115,1,0,0:0:0:0:
256,192,140246,1,8,0:0:0:0:
256,192,140311,1,0,0:0:0:0:
256,192,140377,1,8,0:0:0:0:
256,192,140442,1,0,0:0:0:0:
256,192,140508,1,8,0:0:0:0:
256,192,140573,1,0,0:0:0:0:
256,192,140638,1,0,0:0:0:0:
256,192,140704,1,0,0:0:0:0:
256,192,140769,1,0,0:0:0:0:
256,192,140835,1,8,0:0:0:0:
256,192,140900,1,8,0:0:0:0:
256,192,141031,1,8,0:0:0:0:
256,192,141162,1,0,0:0:0:0:
256,192,141206,1,8,0:0:0:0:
256,192,141250,1,8,0:0:0:0:
256,192,141293,1,0,0:0:0:0:
256,192,141424,1,4,0:0:0:0:
256,192,141686,1,8,0:0:0:0:
256,192,141817,1,4,0:0:0:0:
256,192,142079,1,8,0:0:0:0:
256,192,142210,1,4,0:0:0:0:
256,192,142341,1,0,0:0:0:0:
256,192,142406,1,8,0:0:0:0:
256,192,142472,1,0,0:0:0:0:
256,192,142603,1,8,0:0:0:0:
256,192,142734,1,8,0:0:0:0:
256,192,142799,1,8,0:0:0:0:
256,192,142865,1,0,0:0:0:0:
256,192,142996,1,8,0:0:0:0:
256,192,143257,1,8,0:0:0:0:
256,192,143519,1,0,0:0:0:0:
256,192,143585,1,0,0:0:0:0:
256,192,143650,1,8,0:0:0:0:
256,192,143781,1,8,0:0:0:0:
256,192,143912,1,0,0:0:0:0:
256,192,143978,1,0,0:0:0:0:
256,192,144043,1,8,0:0:0:0:
256,192,144174,1,8,0:0:0:0:
256,192,144305,1,0,0:0:0:0:
256,192,144370,1,8,0:0:0:0:
256,192,144436,1,8,0:0:0:0:
256,192,144567,1,0,0:0:0:0:
256,192,144632,1,8,0:0:0:0:
256,192,144698,1,0,0:0:0:0:
256,192,144763,1,8,0:0:0:0:
256,192,144829,1,0,0:0:0:0:
256,192,144894,1,0,0:0:0:0:
256,192,144960,1,0,0:0:0:0:
256,192,145091,1,0,0:0:0:0:
256,192,145156,1,0,0:0:0:0:
256,192,145222,1,8,0:0:0:0:
256,192,145353,1,0,0:0:0:0:
256,192,145614,1,0,0:0:0:0:
256,192,145658,1,0,0:0:0:0:
256,192,145702,1,0,0:0:0:0:
256,192,145745,1,8,0:0:0:0:
256,192,145811,1,8,0:0:0:0:
256,192,145876,1,8,0:0:0:0:
256,192,146007,1,8,0:0:0:0:
256,192,146138,1,8,0:0:0:0:
256,192,146313,1,8,0:0:0:0:
256,192,146487,1,8,0:0:0:0:
256,192,146662,1,8,0:0:0:0:
256,192,146706,1,0,0:0:0:0:
256,192,146749,1,0,0:0:0:0:
256,192,146793,1,8,0:0:0:0:
256,192,146858,1,0,0:0:0:0:
256,192,146924,1,8,0:0:0:0:
256,192,146957,1,8,0:0:0:0:
256,192,147055,1,8,0:0:0:0:
256,192,147099,1,0,0:0:0:0:
256,192,147142,1,0,0:0:0:0:
256,192,147186,1,8,0:0:0:0:
256,192,147251,1,0,0:0:0:0:
256,192,147317,1,8,0:0:0:0:
256,192,147350,1,8,0:0:0:0:
256,192,147448,1,12,0:0:0:0:
256,192,147710,1,4,0:0:0:0:
256,192,147841,1,0,0:0:0:0:
256,192,147906,1,0,0:0:0:0:
256,192,147972,1,8,0:0:0:0:
256,192,148102,1,0,0:0:0:0:
256,192,148168,1,0,0:0:0:0:
256,192,148299,1,0,0:0:0:0:
256,192,148364,1,8,0:0:0:0:
256,192,148495,1,8,0:0:0:0:
256,192,148561,1,0,0:0:0:0:
256,192,148626,1,0,0:0:0:0:
256,192,148757,1,8,0:0:0:0:
256,192,148823,1,8,0:0:0:0:
256,192,148888,1,0,0:0:0:0:
256,192,148954,1,0,0:0:0:0:
256,192,149019,1,8,0:0:0:0:
256,192,149085,1,0,0:0:0:0:
256,192,149150,1,8,0:0:0:0:
256,192,149216,1,0,0:0:0:0:
256,192,149281,1,8,0:0:0:0:
256,192,149325,1,8,0:0:0:0:
256,192,149368,1,8,0:0:0:0:
256,192,149412,1,0,0:0:0:0:
256,192,149477,1,0,0:0:0:0:
256,192,149543,1,8,0:0:0:0:
256,192,149608,1,0,0:0:0:0:
256,192,149674,1,8,0:0:0:0:
256,192,149805,1,0,0:0:0:0:
256,192,149936,1,8,0:0:0:0:
256,192,150001,1,0,0:0:0:0:
256,192,150067,1,8,0:0:0:0:
256,192,150198,1,8,0:0:0:0:
256,192,150263,1,8,0:0:0:0:
256,192,150329,1,0,0:0:0:0:
256,192,150394,1,8,0:0:0:0:
256,192,150460,1,0,0:0:0:0:
256,192,150525,1,0,0:0:0:0:
256,192,150590,1,8,0:0:0:0:
256,192,150721,1,0,0:0:0:0:
256,192,150852,1,0,0:0:0:0:
256,192,150918,1,8,0:0:0:0:
256,192,150983,1,0,0:0:0:0:
256,192,151114,1,8,0:0:0:0:
256,192,151245,1,0,0:0:0:0:
256,192,151311,1,0,0:0:0:0:
256,192,151376,1,8,0:0:0:0:
256,192,151507,1,0,0:0:0:0:
256,192,151638,1,8,0:0:0:0:
256,192,151682,1,0,0:0:0:0:
256,192,151725,1,0,0:0:0:0:
256,192,151769,1,0,0:0:0:0:
256,192,151900,1,0,0:0:0:0:
256,192,151965,1,8,0:0:0:0:
256,192,152031,1,0,0:0:0:0:
256,192,152162,1,8,0:0:0:0:
256,192,152293,1,0,0:0:0:0:
256,192,152358,1,0,0:0:0:0:
256,192,152424,1,0,0:0:0:0:
256,192,152489,1,0,0:0:0:0:
256,192,152555,1,8,0:0:0:0:
256,192,152620,1,0,0:0:0:0:
256,192,152686,1,8,0:0:0:0:
256,192,152817,1,0,0:0:0:0:
256,192,152948,1,8,0:0:0:0:
256,192,153013,1,0,0:0:0:0:
256,192,153078,1,0,0:0:0:0:
256,192,153144,1,8,0:0:0:0:
256,192,153209,1,0,0:0:0:0:
256,192,153275,1,8,0:0:0:0:
256,192,153340,1,0,0:0:0:0:
256,192,153471,1,8,0:0:0:0:
256,192,153504,1,0,0:0:0:0:
256,192,153602,1,8,0:0:0:0:
256,192,153635,1,0,0:0:0:0:
256,192,153733,1,8,0:0:0:0:
256,192,153766,1,0,0:0:0:0:
256,192,153864,1,8,0:0:0:0:
256,192,153897,1,0,0:0:0:0:
256,192,153995,1,8,0:0:0:0:
256,192,154061,1,0,0:0:0:0:
256,192,154126,1,8,0:0:0:0:
256,192,154170,1,8,0:0:0:0:
256,192,154213,1,8,0:0:0:0:
256,192,154257,1,0,0:0:0:0:
256,192,154388,1,8,0:0:0:0:
256,192,154421,1,8,0:0:0:0:
256,192,154650,1,0,0:0:0:0:
256,192,154781,1,8,0:0:0:0:
256,192,154814,1,8,0:0:0:0:
256,192,155043,1,0,0:0:0:0:
256,192,155174,1,8,0:0:0:0:
256,192,155206,1,8,0:0:0:0:
256,192,155436,1,0,0:0:0:0:
256,192,155566,1,8,0:0:0:0:
256,192,155599,1,8,0:0:0:0:
256,192,155828,1,0,0:0:0:0:
256,192,155861,1,0,0:0:0:0:
256,192,156090,1,12,0:0:0:0:
256,192,156483,1,12,0:0:0:0:
256,192,156876,1,4,0:0:0:0:
256,192,157138,1,8,0:0:0:0:
256,192,157203,1,8,0:0:0:0:
256,192,157269,1,0,0:0:0:0:
256,192,157334,1,8,0:0:0:0:
256,192,157400,1,0,0:0:0:0:
256,192,157465,1,0,0:0:0:0:
256,192,157531,1,8,0:0:0:0:
256,192,157596,1,0,0:0:0:0:
256,192,157662,1,8,0:0:0:0:
256,192,157727,1,0,0:0:0:0:
256,192,157793,1,8,0:0:0:0:
256,192,157858,1,0,0:0:0:0:
256,192,157924,1,8,0:0:0:0:
256,192,157989,1,8,0:0:0:0:
256,192,158054,1,0,0:0:0:0:
256,192,158185,1,0,0:0:0:0:
256,192,158251,1,0,0:0:0:0:
256,192,158316,1,8,0:0:0:0:
256,192,158382,1,0,0:0:0:0:
256,192,158447,1,8,0:0:0:0:
256,192,158513,1,8,0:0:0:0:
256,192,158578,1,8,0:0:0:0:
256,192,158622,1,8,0:0:0:0:
256,192,158666,1,8,0:0:0:0:
256,192,158709,1,0,0:0:0:0:
256,192,158775,1,0,0:0:0:0:
256,192,158840,1,8,0:0:0:0:
256,192,158971,1,0,0:0:0:0:
256,192,159102,1,0,0:0:0:0:
256,192,159146,1,0,0:0:0:0:
256,192,159189,1,0,0:0:0:0:
256,192,159233,1,8,0:0:0:0:
256,192,159364,1,0,0:0:0:0:
256,192,159429,1,8,0:0:0:0:
256,192,159495,1,8,0:0:0:0:
256,192,159560,1,8,0:0:0:0:
256,192,159626,1,0,0:0:0:0:
256,192,159691,1,8,0:0:0:0:
256,192,159757,1,0,0:0:0:0:
256,192,159822,1,0,0:0:0:0:
256,192,159888,1,8,0:0:0:0:
256,192,159953,1,8,0:0:0:0:
256,192,160019,1,0,0:0:0:0:
256,192,160084,1,8,0:0:0:0:
256,192,160150,1,8,0:0:0:0:
256,192,160281,1,0,0:0:0:0:
256,192,160346,12,0,160673,0:0:0:0:
256,192,160804,5,0,0:0:0:0:
256,192,160848,1,0,0:0:0:0:
256,192,160892,1,0,0:0:0:0:
256,192,160935,1,0,0:0:0:0:
256,192,160979,1,0,0:0:0:0:
256,192,161023,1,0,0:0:0:0:
256,192,161066,1,8,0:0:0:0:
256,192,161197,1,8,0:0:0:0:
256,192,161328,1,0,0:0:0:0:
256,192,161394,1,8,0:0:0:0:
256,192,161459,1,0,0:0:0:0:
256,192,161590,1,8,0:0:0:0:
256,192,161721,1,0,0:0:0:0:
256,192,161786,1,8,0:0:0:0:
256,192,161852,1,8,0:0:0:0:
256,192,161917,1,0,0:0:0:0:
256,192,161983,1,8,0:0:0:0:
256,192,162114,1,0,0:0:0:0:
256,192,162179,1,0,0:0:0:0:
256,192,162245,1,8,0:0:0:0:
256,192,162376,1,8,0:0:0:0:
256,192,162507,1,0,0:0:0:0:
256,192,162572,1,8,0:0:0:0:
256,192,162638,1,0,0:0:0:0:
256,192,162769,1,8,0:0:0:0:
256,192,162834,1,0,0:0:0:0:
256,192,162900,1,0,0:0:0:0:
256,192,162965,1,8,0:0:0:0:
256,192,163030,1,0,0:0:0:0:
256,192,163161,1,8,0:0:0:0:
256,192,163292,1,0,0:0:0:0:
256,192,163423,1,8,0:0:0:0:
256,192,163489,1,8,0:0:0:0:
256,192,163554,1,0,0:0:0:0:
256,192,163620,1,8,0:0:0:0:
256,192,163685,1,0,0:0:0:0:
256,192,163751,1,0,0:0:0:0:
256,192,163816,1,8,0:0:0:0:
256,192,163882,1,0,0:0:0:0:
256,192,163947,1,0,0:0:0:0:
256,192,164013,1,0,0:0:0:0:
256,192,164078,1,8,0:0:0:0:
256,192,164143,1,8,0:0:0:0:
256,192,164209,1,0,0:0:0:0:
256,192,164471,1,4,0:0:0:0:
192,224,168661,1,0,0:0:0:0:
192,96,168792,1,0,0:0:0:0:
192,96,168858,1,8,0:0:0:0:
192,96,168923,1,8,0:0:0:0:
192,64,169054,1,8,0:0:0:0:
192,64,169119,1,0,0:0:0:0:
192,64,169185,1,0,0:0:0:0:
192,64,169250,1,8,0:0:0:0:
192,64,169316,1,0,0:0:0:0:
224,32,169447,1,0,0:0:0:0:
224,32,169578,1,8,0:0:0:0:
192,96,169709,1,8,0:0:0:0:
192,64,169840,1,0,0:0:0:0:
192,64,169905,1,8,0:0:0:0:
192,64,169971,1,0,0:0:0:0:
192,64,170102,1,0,0:0:0:0:
224,96,170167,1,0,0:0:0:0:
192,64,170233,1,8,0:0:0:0:
288,96,170265,1,8,0:0:0:0:
256,128,170363,1,8,0:0:0:0:
256,128,170396,1,8,0:0:0:0:
288,128,170494,1,0,0:0:0:0:
224,64,170756,1,8,0:0:0:0:
224,64,171018,1,8,0:0:0:0:
224,96,171040,1,8,0:0:0:0:
192,64,171149,1,8,0:0:0:0:
224,96,171171,1,0,0:0:0:0:
192,64,171280,1,0,0:0:0:0:
229,124,171302,1,0,0:0:0:0:
192,96,171411,1,8,0:0:0:0:
192,32,171804,1,4,0:0:0:0:
192,32,171935,1,0,0:0:0:0:
192,32,172066,1,8,0:0:0:0:
192,64,172197,1,4,0:0:0:0:
192,64,172328,1,0,0:0:0:0:
192,64,172459,1,8,0:0:0:0:
192,64,172590,1,4,0:0:0:0:
288,96,172851,1,0,0:0:0:0:
224,96,172982,1,0,0:0:0:0:
224,96,173048,1,0,0:0:0:0:
192,64,173113,1,8,0:0:0:0:
192,64,173244,1,0,0:0:0:0:
192,64,173375,1,0,0:0:0:0:
192,64,173506,1,8,0:0:0:0:
192,32,173637,1,0,0:0:0:0:
256,96,173681,1,0,0:0:0:0:
256,96,173724,1,0,0:0:0:0:
256,96,173768,1,0,0:0:0:0:
256,96,173812,1,0,0:0:0:0:
256,96,173855,1,0,0:0:0:0:
192,32,173899,1,8,0:0:0:0:
192,128,173965,1,0,0:0:0:0:
192,128,174030,1,8,0:0:0:0:
160,32,174161,1,0,0:0:0:0:
224,64,174423,1,8,0:0:0:0:
224,96,174554,1,8,0:0:0:0:
224,96,174685,1,0,0:0:0:0:
192,96,174947,1,8,0:0:0:0:
192,96,175209,1,8,0:0:0:0:
128,128,175230,1,8,0:0:0:0:
192,96,175339,1,8,0:0:0:0:
233,93,175361,1,0,0:0:0:0:
192,96,175470,1,0,0:0:0:0:
233,93,175492,1,0,0:0:0:0:
160,64,175601,1,12,0:0:0:0:
160,64,175732,1,0,0:0:0:0:
192,96,175994,1,0,0:0:0:0:
192,96,176125,1,0,0:0:0:0:
192,96,176256,1,8,0:0:0:0:
160,64,176387,1,0,0:0:0:0:
160,64,176453,1,0,0:0:0:0:
160,64,176518,1,8,0:0:0:0:
192,32,176649,1,0,0:0:0:0:
192,32,176780,1,8,0:0:0:0:
192,64,176845,1,0,0:0:0:0:
192,64,176911,1,8,0:0:0:0:
192,64,177042,1,8,0:0:0:0:
160,64,177173,1,0,0:0:0:0:
160,96,177238,1,0,0:0:0:0:
160,96,177304,1,0,0:0:0:0:
160,64,177435,1,8,0:0:0:0:
256,96,177467,1,8,0:0:0:0:
165,69,177566,1,0,0:0:0:0:
192,32,177631,1,0,0:0:0:0:
192,32,177697,1,8,0:0:0:0:
160,32,177827,1,0,0:0:0:0:
192,32,177893,1,0,0:0:0:0:
192,32,177958,1,8,0:0:0:0:
192,32,178024,1,8,0:0:0:0:
192,32,178089,1,0,0:0:0:0:
192,64,178351,1,0,0:0:0:0:
192,64,178482,1,8,0:0:0:0:
160,96,178515,1,8,0:0:0:0:
224,96,178613,1,0,0:0:0:0:
224,96,178875,1,8,0:0:0:0:
160,96,178908,1,8,0:0:0:0:
224,96,179137,1,0,0:0:0:0:
192,96,179399,1,0,0:0:0:0:
192,96,179530,1,8,0:0:0:0:
192,96,179595,1,0,0:0:0:0:
192,96,179661,1,8,0:0:0:0:
192,96,179726,1,8,0:0:0:0:
192,96,179792,1,0,0:0:0:0:
224,64,179923,1,8,0:0:0:0:
288,96,179966,1,0,0:0:0:0:
288,96,180010,1,0,0:0:0:0:
256,96,180054,1,8,0:0:0:0:
192,128,180119,1,8,0:0:0:0:
224,64,180185,1,0,0:0:0:0:
192,64,180315,1,0,0:0:0:0:
192,64,180446,1,8,0:0:0:0:
160,64,180577,1,0,0:0:0:0:
160,64,180708,1,0,0:0:0:0:
160,64,180774,1,0,0:0:0:0:
160,64,180839,1,8,0:0:0:0:
192,128,180970,1,0,0:0:0:0:
224,96,181014,1,0,0:0:0:0:
171,59,181058,1,0,0:0:0:0:
192,128,181101,1,8,0:0:0:0:
192,128,181232,1,4,0:0:0:0:
160,96,181494,1,8,0:0:0:0:
160,96,181625,1,4,0:0:0:0:
160,96,181887,1,8,0:0:0:0:
219,88,181909,1,8,0:0:0:0:
160,96,182018,1,8,0:0:0:0:
181,78,182040,1,0,0:0:0:0:
160,96,182149,1,0,0:0:0:0:
168,57,182171,1,0,0:0:0:0:
128,96,182280,1,8,0:0:0:0:
128,96,182411,1,0,0:0:0:0:
128,96,182476,1,0,0:0:0:0:
128,96,182542,1,0,0:0:0:0:
128,96,182607,1,0,0:0:0:0:
128,96,182673,1,8,0:0:0:0:
160,96,182803,1,8,0:0:0:0:
160,96,182934,1,0,0:0:0:0:
160,96,183065,1,8,0:0:0:0:
160,96,183196,1,8,0:0:0:0:
160,96,183327,1,0,0:0:0:0:
192,32,183589,1,0,0:0:0:0:
192,32,183720,1,8,0:0:0:0:
224,96,183742,1,8,0:0:0:0:
224,96,183851,1,0,0:0:0:0:
160,64,183873,1,0,0:0:0:0:
224,96,183982,1,0,0:0:0:0:
160,64,184004,1,0,0:0:0:0:
224,96,184113,1,8,0:0:0:0:
192,32,184375,5,0,0:0:0:0:
192,96,184506,1,0,0:0:0:0:
192,96,184637,1,8,0:0:0:0:
160,64,184768,1,0,0:0:0:0:
160,64,184833,1,8,0:0:0:0:
160,64,184899,1,0,0:0:0:0:
256,96,184942,1,0,0:0:0:0:
256,96,184986,1,8,0:0:0:0:
256,96,185030,1,0,0:0:0:0:
160,128,185095,1,0,0:0:0:0:
256,96,185161,1,8,0:0:0:0:
256,96,185204,1,8,0:0:0:0:
256,96,185248,1,8,0:0:0:0:
256,96,185291,1,0,0:0:0:0:
256,192,185422,5,0,0:0:0:0:
256,192,185488,1,0,0:0:0:0:
256,192,185553,1,8,0:0:0:0:
256,192,185684,1,0,0:0:0:0:
256,192,185750,1,8,0:0:0:0:
256,192,185815,1,8,0:0:0:0:
256,192,185946,1,0,0:0:0:0:
256,192,186012,1,8,0:0:0:0:
256,192,186143,1,8,0:0:0:0:
256,192,186208,1,0,0:0:0:0:
256,192,186274,1,8,0:0:0:0:
256,192,186339,1,8,0:0:0:0:
256,192,186470,1,0,0:0:0:0:
256,192,186535,1,8,0:0:0:0:
256,192,186666,1,8,0:0:0:0:
256,192,186732,1,0,0:0:0:0:
256,192,186797,1,8,0:0:0:0:
256,192,186928,1,8,0:0:0:0:
256,192,186994,1,0,0:0:0:0:
256,192,187125,1,0,0:0:0:0:
256,192,187256,1,12,0:0:0:0:
256,192,187518,1,0,0:0:0:0:
256,192,187583,1,8,0:0:0:0:
256,192,187649,1,8,0:0:0:0:
256,192,187779,1,0,0:0:0:0:
256,192,187845,1,8,0:0:0:0:
256,192,187976,1,8,0:0:0:0:
256,192,188041,1,0,0:0:0:0:
256,192,188172,1,8,0:0:0:0:
256,192,188303,1,0,0:0:0:0:
256,192,188369,1,8,0:0:0:0:
256,192,188434,1,8,0:0:0:0:
256,192,188565,1,0,0:0:0:0:
256,192,188631,1,8,0:0:0:0:
256,192,188696,1,8,0:0:0:0:
256,192,188762,1,8,0:0:0:0:
256,192,188827,1,0,0:0:0:0:
256,192,188893,1,8,0:0:0:0:
256,192,188958,1,8,0:0:0:0:
256,192,189023,1,8,0:0:0:0:
256,192,189089,1,0,0:0:0:0:
256,192,189133,1,0,0:0:0:0:
256,192,189176,1,0,0:0:0:0:
256,192,189220,1,8,0:0:0:0:
256,192,189285,1,8,0:0:0:0:
256,192,189351,1,0,0:0:0:0:
256,192,189394,1,0,0:0:0:0:
256,192,189438,1,0,0:0:0:0:
256,192,189482,1,8,0:0:0:0:
256,192,189547,1,8,0:0:0:0:
256,192,189613,1,0,0:0:0:0:
256,192,189744,1,8,0:0:0:0:
256,192,189875,1,0,0:0:0:0:
256,192,189940,1,8,0:0:0:0:
256,192,190006,1,8,0:0:0:0:
256,192,190137,1,0,0:0:0:0:
256,192,190202,1,8,0:0:0:0:
256,192,190333,1,8,0:0:0:0:
256,192,190398,1,0,0:0:0:0:
256,192,190464,1,8,0:0:0:0:
256,192,190529,1,8,0:0:0:0:
256,192,190660,1,0,0:0:0:0:
256,192,190704,1,0,0:0:0:0:
256,192,190748,1,0,0:0:0:0:
256,192,190791,1,0,0:0:0:0:
256,192,190922,1,8,0:0:0:0:
256,192,191053,1,0,0:0:0:0:
256,192,191119,1,8,0:0:0:0:
256,192,191184,1,0,0:0:0:0:
256,192,191315,1,8,0:0:0:0:
256,192,191446,1,8,0:0:0:0:
256,192,191490,1,8,0:0:0:0:
256,192,191533,1,8,0:0:0:0:
256,192,191577,1,0,0:0:0:0:
256,192,191708,1,0,0:0:0:0:
256,192,191773,1,8,0:0:0:0:
256,192,191904,1,8,0:0:0:0:
256,192,191970,1,0,0:0:0:0:
256,192,192035,1,8,0:0:0:0:
256,192,192101,1,8,0:0:0:0:
256,192,192232,1,0,0:0:0:0:
256,192,192363,1,8,0:0:0:0:
256,192,192428,1,8,0:0:0:0:
256,192,192494,1,0,0:0:0:0:
256,192,192559,1,8,0:0:0:0:
256,192,192625,1,8,0:0:0:0:
256,192,192755,1,12,0:0:0:0:
256,192,192886,1,0,0:0:0:0:
256,192,193017,1,12,0:0:0:0:
256,192,193148,1,0,0:0:0:0:
256,192,193279,1,12,0:0:0:0:
256,192,193410,1,0,0:0:0:0:
256,192,193541,1,12,0:0:0:0:
256,192,193672,1,0,0:0:0:0:
256,192,193803,1,0,0:0:0:0:
256,192,193847,1,0,0:0:0:0:
256,192,193890,1,0,0:0:0:0:
256,192,193934,1,0,0:0:0:0:
256,192,194065,1,8,0:0:0:0:
256,192,194109,1,8,0:0:0:0:
256,192,194152,1,8,0:0:0:0:
256,192,194196,1,8,0:0:0:0:
256,192,194327,1,0,0:0:0:0:
256,192,194458,1,8,0:0:0:0:
256,192,194523,1,8,0:0:0:0:
256,192,194589,1,0,0:0:0:0:
256,192,194720,1,8,0:0:0:0:
256,192,194851,1,4,0:0:0:0:
256,192,194982,1,8,0:0:0:0:
256,192,195047,1,8,0:0:0:0:
256,192,195113,1,8,0:0:0:0:
256,192,195243,1,8,0:0:0:0:
256,192,195374,1,0,0:0:0:0:
256,192,195505,1,0,0:0:0:0:
256,192,195571,1,8,0:0:0:0:
256,192,195636,1,8,0:0:0:0:
256,192,195767,1,8,0:0:0:0:
256,192,195833,1,0,0:0:0:0:
256,192,195898,1,8,0:0:0:0:
256,192,196029,1,8,0:0:0:0:
256,192,196160,1,0,0:0:0:0:
256,192,196226,1,0,0:0:0:0:
256,192,196291,1,8,0:0:0:0:
256,192,196422,1,0,0:0:0:0:
256,192,196487,1,0,0:0:0:0:
256,192,196553,1,0,0:0:0:0:
256,192,196684,1,0,0:0:0:0:
256,192,196749,1,0,0:0:0:0:
256,192,196815,1,8,0:0:0:0:
256,192,196880,1,8,0:0:0:0:
256,192,196946,1,0,0:0:0:0:
256,192,197011,1,8,0:0:0:0:
256,192,197077,1,8,0:0:0:0:
256,192,197142,1,8,0:0:0:0:
256,192,197208,1,0,0:0:0:0:
256,192,197273,1,8,0:0:0:0:
256,192,197339,1,8,0:0:0:0:
256,192,197404,1,8,0:0:0:0:
256,192,197470,1,0,0:0:0:0:
256,192,197731,1,0,0:0:0:0:
256,192,197993,1,0,0:0:0:0:
256,192,198059,1,8,0:0:0:0:
256,192,198124,1,8,0:0:0:0:
256,192,198255,1,0,0:0:0:0:
256,192,198321,1,8,0:0:0:0:
256,192,198452,1,8,0:0:0:0:
256,192,198517,1,0,0:0:0:0:
256,192,198648,1,8,0:0:0:0:
256,192,198779,1,0,0:0:0:0:
256,192,198845,1,8,0:0:0:0:
256,192,198910,1,8,0:0:0:0:
256,192,199041,1,0,0:0:0:0:
256,192,199085,1,0,0:0:0:0:
256,192,199128,1,0,0:0:0:0:
256,192,199172,1,8,0:0:0:0:
256,192,199303,1,8,0:0:0:0:
256,192,199434,1,0,0:0:0:0:
256,192,199499,1,8,0:0:0:0:
256,192,199565,1,0,0:0:0:0:
256,192,199630,1,8,0:0:0:0:
256,192,199696,1,8,0:0:0:0:
256,192,199827,1,8,0:0:0:0:
256,192,199958,1,0,0:0:0:0:
256,192,200089,1,0,0:0:0:0:
256,192,200154,1,8,0:0:0:0:
256,192,200285,1,8,0:0:0:0:
256,192,200350,1,0,0:0:0:0:
256,192,200416,1,8,0:0:0:0:
256,192,200547,1,8,0:0:0:0:
256,192,200612,1,0,0:0:0:0:
256,192,200678,1,0,0:0:0:0:
256,192,200743,1,8,0:0:0:0:
256,192,200874,1,8,0:0:0:0:
256,192,201005,1,0,0:0:0:0:
256,192,201136,1,12,0:0:0:0:
256,192,201267,1,0,0:0:0:0:
256,192,201398,1,12,0:0:0:0:
256,192,201529,1,0,0:0:0:0:
256,192,201660,1,12,0:0:0:0:
256,192,201922,1,12,0:0:0:0:
192,224,202184,1,4,0:0:0:0:
192,160,202315,1,0,0:0:0:0:
192,160,202446,1,8,0:0:0:0:
192,64,202576,1,4,0:0:0:0:
192,96,202838,1,8,0:0:0:0:
192,96,202969,1,4,0:0:0:0:
224,128,203231,1,0,0:0:0:0:
224,128,203362,1,8,0:0:0:0:
224,128,203493,1,0,0:0:0:0:
224,128,203624,1,8,0:0:0:0:
224,128,203755,1,0,0:0:0:0:
224,128,203820,1,8,0:0:0:0:
224,128,203886,1,0,0:0:0:0:
224,128,203951,1,0,0:0:0:0:
224,128,204017,1,0,0:0:0:0:
224,128,204148,1,8,0:0:0:0:
160,32,204279,1,0,0:0:0:0:
160,64,204344,1,0,0:0:0:0:
160,64,204410,1,8,0:0:0:0:
160,64,204475,1,0,0:0:0:0:
160,64,204541,1,8,0:0:0:0:
160,64,204606,1,0,0:0:0:0:
160,64,204672,1,8,0:0:0:0:
160,64,204737,1,0,0:0:0:0:
160,64,204803,1,8,0:0:0:0:
160,64,204868,1,0,0:0:0:0:
160,64,204934,1,8,0:0:0:0:
192,64,204999,1,0,0:0:0:0:
192,64,205064,1,8,0:0:0:0:
160,32,205130,1,8,0:0:0:0:
160,32,205195,1,8,0:0:0:0:
160,32,205261,1,8,0:0:0:0:
160,32,205326,1,4,0:0:0:0:
224,96,205588,1,8,0:0:0:0:
224,96,205719,1,4,0:0:0:0:
224,96,205981,1,8,0:0:0:0:
224,96,206112,1,12,0:0:0:0:
224,96,206374,1,0,0:0:0:0:
224,96,206505,1,8,0:0:0:0:
224,96,206570,1,0,0:0:0:0:
224,96,206636,1,8,0:0:0:0:
224,96,206701,1,8,0:0:0:0:
160,64,206767,1,0,0:0:0:0:
160,64,206832,1,8,0:0:0:0:
160,64,206898,1,0,0:0:0:0:
160,64,206963,1,0,0:0:0:0:
160,64,207029,1,8,0:0:0:0:
160,64,207160,1,8,0:0:0:0:
160,64,207225,1,0,0:0:0:0:
160,64,207291,1,8,0:0:0:0:
192,96,207356,1,8,0:0:0:0:
192,32,207422,1,0,0:0:0:0:
192,32,207552,1,0,0:0:0:0:
192,32,207618,1,0,0:0:0:0:
192,32,207683,1,8,0:0:0:0:
192,32,207749,1,0,0:0:0:0:
192,32,207814,1,8,0:0:0:0:
192,96,207880,1,8,0:0:0:0:
160,64,207945,1,0,0:0:0:0:
160,32,208011,1,0,0:0:0:0:
160,32,208076,1,0,0:0:0:0:
192,64,208207,1,8,0:0:0:0:
192,64,208338,1,8,0:0:0:0:
224,64,208404,1,8,0:0:0:0:
192,64,208469,1,0,0:0:0:0:
160,64,208600,1,0,0:0:0:0:
192,96,208666,1,0,0:0:0:0:
160,64,208731,1,8,0:0:0:0:
128,96,208862,1,0,0:0:0:0:
128,96,208993,1,0,0:0:0:0:
192,96,209058,1,0,0:0:0:0:
160,96,209124,1,8,0:0:0:0:
192,64,209255,1,0,0:0:0:0:
224,160,209386,1,0,0:0:0:0:
192,96,209451,1,0,0:0:0:0:
224,160,209517,1,8,0:0:0:0:
160,128,209582,1,8,0:0:0:0:
160,96,209648,1,0,0:0:0:0:
192,64,209779,1,0,0:0:0:0:
192,64,209910,1,8,0:0:0:0:
192,64,209975,1,8,0:0:0:0:
192,64,210040,1,0,0:0:0:0:
192,64,210171,1,0,0:0:0:0:
192,64,210237,1,0,0:0:0:0:
192,64,210302,1,0,0:0:0:0:
160,64,210564,1,0,0:0:0:0:
192,96,210695,1,8,0:0:0:0:
320,96,210728,1,8,0:0:0:0:
192,64,210826,1,0,0:0:0:0:
192,64,210957,1,0,0:0:0:0:
192,64,211088,1,8,0:0:0:0:
224,128,211132,1,8,0:0:0:0:
224,128,211175,1,8,0:0:0:0:
224,64,211219,1,0,0:0:0:0:
224,64,211284,1,8,0:0:0:0:
224,64,211350,1,0,0:0:0:0:
288,96,211612,1,0,0:0:0:0:
256,96,211656,1,0,0:0:0:0:
256,96,211699,1,0,0:0:0:0:
256,96,211743,1,0,0:0:0:0:
256,96,211786,1,0,0:0:0:0:
256,96,211830,1,0,0:0:0:0:
288,96,211874,1,8,0:0:0:0:
256,96,211939,1,0,0:0:0:0:
256,96,212005,1,8,0:0:0:0:
256,96,212070,1,8,0:0:0:0:
256,96,212136,1,0,0:0:0:0:
288,128,212168,1,0,0:0:0:0:
160,64,212267,1,0,0:0:0:0:
288,96,212299,1,0,0:0:0:0:
160,64,212398,1,0,0:0:0:0:
224,96,212441,1,0,0:0:0:0:
224,96,212485,1,0,0:0:0:0:
288,96,212528,1,8,0:0:0:0:
288,96,212572,1,8,0:0:0:0:
288,96,212616,1,8,0:0:0:0:
288,64,212659,1,0,0:0:0:0:
224,96,212790,1,0,0:0:0:0:
192,32,212856,1,0,0:0:0:0:
224,96,212921,1,8,0:0:0:0:
192,64,213052,1,0,0:0:0:0:
192,96,213183,1,0,0:0:0:0:
192,96,213314,1,8,0:0:0:0:
224,64,213707,1,8,0:0:0:0:
192,128,213838,1,0,0:0:0:0:
192,96,213903,1,0,0:0:0:0:
192,128,213969,1,8,0:0:0:0:
224,64,214100,1,0,0:0:0:0:
224,64,214165,1,0,0:0:0:0:
224,64,214231,1,0,0:0:0:0:
224,96,214362,1,0,0:0:0:0:
224,96,214427,1,0,0:0:0:0:
160,64,214493,1,8,0:0:0:0:
224,64,214624,1,0,0:0:0:0:
224,64,214689,1,0,0:0:0:0:
224,64,214755,1,0,0:0:0:0:
224,64,214886,1,0,0:0:0:0:
224,96,215016,1,8,0:0:0:0:
192,64,215082,1,8,0:0:0:0:
192,64,215147,1,0,0:0:0:0:
192,64,215278,1,8,0:0:0:0:
288,128,215311,1,8,0:0:0:0:
256,96,215409,1,8,0:0:0:0:
288,128,215442,1,8,0:0:0:0:
256,96,215540,1,0,0:0:0:0:
224,96,215671,1,0,0:0:0:0:
224,96,215802,1,8,0:0:0:0:
224,64,215933,1,8,0:0:0:0:
224,64,215999,1,0,0:0:0:0:
224,64,216064,1,8,0:0:0:0:
192,64,216195,1,0,0:0:0:0:
192,64,216326,1,8,0:0:0:0:
192,64,216457,1,0,0:0:0:0:
224,64,216522,1,8,0:0:0:0:
192,64,216588,1,0,0:0:0:0:
192,32,216850,1,0,0:0:0:0:
224,32,216981,1,0,0:0:0:0:
192,64,217112,1,8,0:0:0:0:
192,64,217243,1,0,0:0:0:0:
192,64,217504,1,8,0:0:0:0:
192,64,217635,1,0,0:0:0:0:
224,64,217897,5,0,0:0:0:0:
160,32,218028,1,8,0:0:0:0:
224,64,218159,1,8,0:0:0:0:
224,64,218290,1,0,0:0:0:0:
160,64,218552,1,8,0:0:0:0:
160,64,218683,1,8,0:0:0:0:
256,192,218945,5,0,0:0:0:0:
256,192,219010,1,0,0:0:0:0:
256,192,219141,1,0,0:0:0:0:
256,192,219207,1,8,0:0:0:0:
256,192,219338,1,0,0:0:0:0:
256,192,219403,1,0,0:0:0:0:
256,192,219469,1,0,0:0:0:0:
256,192,219534,1,0,0:0:0:0:
256,192,219600,1,8,0:0:0:0:
256,192,219731,1,0,0:0:0:0:
256,192,219796,1,0,0:0:0:0:
256,192,219862,1,0,0:0:0:0:
256,192,219927,1,0,0:0:0:0:
256,192,219992,1,8,0:0:0:0:
256,192,220123,1,0,0:0:0:0:
256,192,220189,1,0,0:0:0:0:
256,192,220254,1,0,0:0:0:0:
256,192,220385,1,8,0:0:0:0:
256,192,220516,1,0,0:0:0:0:
256,192,220582,1,8,0:0:0:0:
256,192,220647,1,0,0:0:0:0:
256,192,220713,1,0,0:0:0:0:
256,192,220778,1,8,0:0:0:0:
256,192,220909,1,0,0:0:0:0:
256,192,220975,1,8,0:0:0:0:
256,192,221040,1,0,0:0:0:0:
256,192,221171,1,8,0:0:0:0:
256,192,221302,1,8,0:0:0:0:
256,192,221367,1,8,0:0:0:0:
256,192,221433,1,0,0:0:0:0:
256,192,221564,1,8,0:0:0:0:
256,192,221629,1,0,0:0:0:0:
256,192,221695,1,8,0:0:0:0:
256,192,221760,1,8,0:0:0:0:
256,192,221826,1,0,0:0:0:0:
256,192,221957,1,0,0:0:0:0:
256,192,222088,1,8,0:0:0:0:
256,192,222153,1,8,0:0:0:0:
256,192,222219,1,0,0:0:0:0:
256,192,222284,1,8,0:0:0:0:
256,192,222350,1,0,0:0:0:0:
256,192,222415,1,0,0:0:0:0:
256,192,222480,1,8,0:0:0:0:
256,192,222546,1,8,0:0:0:0:
256,192,222611,1,0,0:0:0:0:
256,192,222677,1,8,0:0:0:0:
256,192,222742,1,0,0:0:0:0:
256,192,222808,1,0,0:0:0:0:
256,192,222873,1,8,0:0:0:0:
256,192,222917,1,8,0:0:0:0:
256,192,222961,1,8,0:0:0:0:
256,192,223004,1,8,0:0:0:0:
256,192,223048,1,8,0:0:0:0:
256,192,223092,1,8,0:0:0:0:
256,192,223135,1,0,0:0:0:0:
256,192,223266,1,0,0:0:0:0:
256,192,223310,1,0,0:0:0:0:
256,192,223353,1,0,0:0:0:0:
256,192,223397,1,0,0:0:0:0:
256,192,223463,1,0,0:0:0:0:
256,192,223528,1,8,0:0:0:0:
256,192,223659,1,0,0:0:0:0:
256,192,223724,1,8,0:0:0:0:
256,192,223790,1,0,0:0:0:0:
256,192,223921,1,8,0:0:0:0:
256,192,223986,1,0,0:0:0:0:
256,192,224052,1,8,0:0:0:0:
256,192,224117,1,0,0:0:0:0:
256,192,224183,1,8,0:0:0:0:
256,192,224248,1,8,0:0:0:0:
256,192,224314,1,0,0:0:0:0:
256,192,224379,1,8,0:0:0:0:
256,192,224445,1,0,0:0:0:0:
256,192,224510,1,0,0:0:0:0:
256,192,224576,1,8,0:0:0:0:
256,192,224641,1,8,0:0:0:0:
256,192,224707,1,0,0:0:0:0:
256,192,224772,1,8,0:0:0:0:
256,192,224838,1,0,0:0:0:0:
256,192,224903,1,8,0:0:0:0:
256,192,224968,1,8,0:0:0:0:
256,192,225099,1,0,0:0:0:0:
256,192,225165,1,0,0:0:0:0:
256,192,225230,1,8,0:0:0:0:
256,192,225361,1,0,0:0:0:0:
256,192,225492,1,0,0:0:0:0:
256,192,225558,1,0,0:0:0:0:
256,192,225623,1,8,0:0:0:0:
256,192,225754,1,0,0:0:0:0:
256,192,225820,1,8,0:0:0:0:
256,192,225885,1,8,0:0:0:0:
256,192,225951,1,0,0:0:0:0:
256,192,226016,1,8,0:0:0:0:
256,192,226147,1,0,0:0:0:0:
256,192,226278,1,0,0:0:0:0:
256,192,226343,1,0,0:0:0:0:
256,192,226409,1,8,0:0:0:0:
256,192,226540,1,8,0:0:0:0:
256,192,226605,1,0,0:0:0:0:
256,192,226671,1,0,0:0:0:0:
256,192,226736,1,0,0:0:0:0:
256,192,226802,1,8,0:0:0:0:
256,192,226933,1,8,0:0:0:0:
256,192,226998,1,0,0:0:0:0:
256,192,227064,1,8,0:0:0:0:
256,192,227107,1,8,0:0:0:0:
256,192,227151,1,8,0:0:0:0:
256,192,227195,1,8,0:0:0:0:
256,192,227326,1,0,0:0:0:0:
256,192,227587,1,8,0:0:0:0:
256,192,227718,1,0,0:0:0:0:
256,192,227784,1,0,0:0:0:0:
256,192,227849,1,0,0:0:0:0:
256,192,227915,1,0,0:0:0:0:
256,192,227980,1,8,0:0:0:0:
256,192,228111,1,0,0:0:0:0:
256,192,228177,1,0,0:0:0:0:
256,192,228242,1,0,0:0:0:0:
256,192,228308,1,0,0:0:0:0:
256,192,228373,1,8,0:0:0:0:
256,192,228504,1,8,0:0:0:0:
256,192,228570,1,8,0:0:0:0:
256,192,228635,1,8,0:0:0:0:
256,192,228700,1,0,0:0:0:0:
256,192,228766,1,8,0:0:0:0:
256,192,228897,1,8,0:0:0:0:
256,192,228962,1,8,0:0:0:0:
256,192,229028,1,0,0:0:0:0:
256,192,229093,1,0,0:0:0:0:
256,192,229159,1,8,0:0:0:0:
256,192,229290,1,8,0:0:0:0:
256,192,229421,1,4,0:0:0:0:
256,192,229683,1,8,0:0:0:0:
256,192,229814,1,4,0:0:0:0:
256,192,230075,1,8,0:0:0:0:
256,192,230206,1,0,0:0:0:0:
256,192,230250,1,0,0:0:0:0:
256,192,230294,1,0,0:0:0:0:
256,192,230337,1,0,0:0:0:0:
256,192,230381,1,0,0:0:0:0:
256,192,230425,1,0,0:0:0:0:
256,192,230468,1,8,0:0:0:0:
256,192,230534,1,8,0:0:0:0:
256,192,230599,1,8,0:0:0:0:
256,192,230665,1,0,0:0:0:0:
256,192,230730,1,8,0:0:0:0:
256,192,230861,1,0,0:0:0:0:
256,192,230927,1,8,0:0:0:0:
256,192,230992,1,8,0:0:0:0:
256,192,231058,1,0,0:0:0:0:
256,192,231123,1,8,0:0:0:0:
256,192,231254,1,12,0:0:0:0:
256,192,231516,1,0,0:0:0:0:
256,192,231581,1,0,0:0:0:0:
256,192,231647,1,8,0:0:0:0:
256,192,231712,1,8,0:0:0:0:
256,192,231778,1,0,0:0:0:0:
256,192,231843,1,8,0:0:0:0:
256,192,231909,1,0,0:0:0:0:
256,192,231974,1,0,0:0:0:0:
256,192,232040,1,8,0:0:0:0:
256,192,232083,1,8,0:0:0:0:
256,192,232127,1,8,0:0:0:0:
256,192,232171,1,0,0:0:0:0:
256,192,232302,1,0,0:0:0:0:
256,192,232432,1,8,0:0:0:0:
256,192,232498,1,0,0:0:0:0:
256,192,232563,1,0,0:0:0:0:
256,192,232629,1,8,0:0:0:0:
256,192,232694,1,0,0:0:0:0:
256,192,232760,1,8,0:0:0:0:
256,192,232825,1,8,0:0:0:0:
256,192,232891,1,0,0:0:0:0:
256,192,232956,1,8,0:0:0:0:
256,192,233087,1,0,0:0:0:0:
256,192,233153,1,8,0:0:0:0:
256,192,233218,1,8,0:0:0:0:
256,192,233284,1,0,0:0:0:0:
256,192,233349,1,8,0:0:0:0:
256,192,233480,1,0,0:0:0:0:
256,192,233524,1,0,0:0:0:0:
256,192,233567,1,0,0:0:0:0:
256,192,233611,1,0,0:0:0:0:
256,192,233742,1,0,0:0:0:0:
256,192,233873,1,8,0:0:0:0:
256,192,234004,1,0,0:0:0:0:
256,192,234266,1,8,0:0:0:0:
256,192,234397,1,0,0:0:0:0:
256,192,234659,1,0,0:0:0:0:
256,192,234920,1,0,0:0:0:0:
256,192,234964,1,0,0:0:0:0:
256,192,235008,1,0,0:0:0:0:
256,192,235051,1,0,0:0:0:0:
256,192,235117,1,0,0:0:0:0:
256,192,235182,1,8,0:0:0:0:
256,192,235248,1,8,0:0:0:0:
256,192,235313,1,0,0:0:0:0:
256,192,235379,1,8,0:0:0:0:
256,192,235444,1,8,0:0:0:0:
256,192,235575,1,8,0:0:0:0:
192,128,235706,5,0,0:0:0:0:
160,128,235903,1,0,0:0:0:0:
160,128,235968,1,8,0:0:0:0:
160,128,236099,1,0,0:0:0:0:
160,128,236230,1,8,0:0:0:0:
192,160,236361,1,0,0:0:0:0:
192,160,236492,1,8,0:0:0:0:
160,96,236557,1,8,0:0:0:0:
160,96,236623,1,0,0:0:0:0:
160,96,236688,1,0,0:0:0:0:
160,96,236754,1,8,0:0:0:0:
192,32,236885,1,0,0:0:0:0:
192,32,236950,1,0,0:0:0:0:
192,32,237016,1,0,0:0:0:0:
192,32,237081,1,0,0:0:0:0:
192,32,237147,1,8,0:0:0:0:
192,32,237278,1,0,0:0:0:0:
192,32,237343,1,0,0:0:0:0:
192,32,237408,1,0,0:0:0:0:
192,32,237474,1,0,0:0:0:0:
192,32,237539,1,8,0:0:0:0:
192,128,237670,1,0,0:0:0:0:
192,128,237736,1,8,0:0:0:0:
192,128,237801,1,0,0:0:0:0:
192,128,237932,1,0,0:0:0:0:
192,128,238063,1,8,0:0:0:0:
192,64,238194,1,0,0:0:0:0:
192,96,238260,1,0,0:0:0:0:
192,64,238325,1,8,0:0:0:0:
192,96,238391,1,0,0:0:0:0:
192,96,238456,1,8,0:0:0:0:
192,96,238522,1,0,0:0:0:0:
192,96,238587,1,8,0:0:0:0:
160,96,238652,1,0,0:0:0:0:
160,96,238718,1,0,0:0:0:0:
160,96,238783,1,0,0:0:0:0:
160,96,238849,1,8,0:0:0:0:
192,96,238980,1,0,0:0:0:0:
192,96,239045,1,0,0:0:0:0:
192,96,239111,1,0,0:0:0:0:
160,128,239176,1,0,0:0:0:0:
192,96,239242,1,8,0:0:0:0:
160,96,239373,1,0,0:0:0:0:
160,96,239504,1,0,0:0:0:0:
160,128,239635,1,8,0:0:0:0:
160,128,239896,1,0,0:0:0:0:
160,128,240027,1,0,0:0:0:0:
160,32,240093,1,0,0:0:0:0:
160,128,240158,1,8,0:0:0:0:
160,128,240289,1,0,0:0:0:0:
160,128,240420,1,0,0:0:0:0:
160,128,240551,1,8,0:0:0:0:
128,64,240682,1,0,0:0:0:0:
128,64,240748,1,8,0:0:0:0:
128,96,240813,1,0,0:0:0:0:
128,64,240879,1,0,0:0:0:0:
128,96,240944,1,8,0:0:0:0:
160,64,241075,1,0,0:0:0:0:
224,64,241140,1,8,0:0:0:0:
160,64,241206,1,0,0:0:0:0:
160,96,241337,1,8,0:0:0:0:
160,96,241468,1,0,0:0:0:0:
160,64,241533,1,8,0:0:0:0:
160,96,241599,1,0,0:0:0:0:
160,96,241730,1,8,0:0:0:0:
160,96,241861,1,8,0:0:0:0:
160,96,241992,1,4,0:0:0:0:
160,96,242253,1,8,0:0:0:0:
160,96,242384,1,0,0:0:0:0:
192,64,242450,1,0,0:0:0:0:
160,96,242515,1,0,0:0:0:0:
160,96,242581,1,0,0:0:0:0:
160,96,242646,1,8,0:0:0:0:
160,96,242908,1,0,0:0:0:0:
192,64,243039,1,8,0:0:0:0:
192,96,243170,1,0,0:0:0:0:
192,96,243301,1,0,0:0:0:0:
160,64,243367,1,0,0:0:0:0:
160,64,243432,1,8,0:0:0:0:
192,64,243563,1,0,0:0:0:0:
192,64,243694,1,0,0:0:0:0:
192,64,243825,1,12,0:0:0:0:
192,64,244087,1,4,0:0:0:0:
192,64,244349,1,8,0:0:0:0:
192,64,244414,1,8,0:0:0:0:
192,64,244480,1,0,0:0:0:0:
192,64,244545,1,8,0:0:0:0:
192,64,244611,1,0,0:0:0:0:
192,64,244676,1,0,0:0:0:0:
192,96,244741,1,8,0:0:0:0:
160,96,244807,1,0,0:0:0:0:
192,32,244872,1,0,0:0:0:0:
192,32,244938,1,8,0:0:0:0:
192,32,245003,1,0,0:0:0:0:
256,128,245036,1,0,0:0:0:0:
192,64,245134,1,8,0:0:0:0:
224,64,245265,1,0,0:0:0:0:
224,64,245331,1,0,0:0:0:0:
224,64,245396,1,0,0:0:0:0:
192,32,245462,1,0,0:0:0:0:
192,96,245527,1,8,0:0:0:0:
192,64,245658,1,0,0:0:0:0:
192,64,245724,1,0,0:0:0:0:
192,64,245789,1,0,0:0:0:0:
192,64,245855,1,0,0:0:0:0:
192,64,245920,1,8,0:0:0:0:
192,128,246182,1,4,0:0:0:0:
192,128,246444,1,8,0:0:0:0:
192,128,246575,1,4,0:0:0:0:
224,64,246837,1,8,0:0:0:0:
224,64,246968,1,0,0:0:0:0:
224,128,247011,1,0,0:0:0:0:
224,128,247055,1,0,0:0:0:0:
224,128,247099,1,0,0:0:0:0:
224,128,247142,1,0,0:0:0:0:
224,128,247186,1,0,0:0:0:0:
192,96,247229,1,8,0:0:0:0:
192,96,247360,1,0,0:0:0:0:
192,96,247426,1,8,0:0:0:0:
192,96,247491,1,8,0:0:0:0:
160,64,247622,1,0,0:0:0:0:
160,64,247753,1,8,0:0:0:0:
160,64,247819,1,0,0:0:0:0:
160,64,247884,1,8,0:0:0:0:
192,64,248015,1,0,0:0:0:0:
192,64,248146,1,8,0:0:0:0:
160,96,248277,1,0,0:0:0:0:
160,128,248539,1,8,0:0:0:0:
160,128,248670,1,0,0:0:0:0:
192,128,248932,1,8,0:0:0:0:
192,128,249063,1,8,0:0:0:0:
192,96,249194,1,0,0:0:0:0:
192,96,249325,1,8,0:0:0:0:
192,64,249456,1,0,0:0:0:0:
192,64,249521,1,0,0:0:0:0:
160,96,249587,1,0,0:0:0:0:
192,64,249652,1,0,0:0:0:0:
160,64,249717,1,8,0:0:0:0:
192,128,249848,1,0,0:0:0:0:
192,128,249914,1,0,0:0:0:0:
192,128,249979,1,0,0:0:0:0:
192,32,250045,1,0,0:0:0:0:
192,128,250110,1,8,0:0:0:0:
192,32,250241,1,0,0:0:0:0:
320,96,250285,1,8,0:0:0:0:
256,192,250329,1,8,0:0:0:0:
192,32,250372,1,0,0:0:0:0:
160,128,250634,1,8,0:0:0:0:
160,128,250765,1,0,0:0:0:0:
160,160,251027,1,8,0:0:0:0:
160,160,251158,1,0,0:0:0:0:
160,160,251289,1,8,0:0:0:0:
160,160,251420,1,0,0:0:0:0:
224,128,251682,1,8,0:0:0:0:
224,128,251813,1,0,0:0:0:0:
256,192,251944,1,8,0:0:0:0:
256,192,252205,1,8,0:0:0:0:
288,256,252467,5,4,0:0:0:0:
224,160,252598,1,0,0:0:0:0:
192,96,252664,1,0,0:0:0:0:
224,160,252729,1,8,0:0:0:0:
160,128,252860,1,4,0:0:0:0:
192,96,252991,1,0,0:0:0:0:
192,96,253057,1,0,0:0:0:0:
192,128,253122,1,8,0:0:0:0:
192,128,253253,1,0,0:0:0:0:
160,128,253319,1,0,0:0:0:0:
160,128,253384,1,8,0:0:0:0:
160,128,253449,1,8,0:0:0:0:
160,128,253515,1,0,0:0:0:0:
160,160,253580,1,0,0:0:0:0:
160,160,253646,1,0,0:0:0:0:
160,160,253711,1,0,0:0:0:0:
160,160,253777,1,8,0:0:0:0:
224,96,253908,1,8,0:0:0:0:
224,96,254039,1,0,0:0:0:0:
192,64,254170,1,8,0:0:0:0:
192,64,254235,1,8,0:0:0:0:
192,64,254301,1,0,0:0:0:0:
192,64,254563,1,8,0:0:0:0:
288,128,254606,1,8,0:0:0:0:
160,32,254650,1,0,0:0:0:0:
192,64,254693,1,8,0:0:0:0:
192,96,254759,1,8,0:0:0:0:
192,96,254824,1,0,0:0:0:0:
224,128,254955,1,0,0:0:0:0:
224,128,255086,1,0,0:0:0:0:
96,192,255261,1,0,0:0:0:0:
96,192,255436,1,0,0:0:0:0:
96,192,255610,1,0,0:0:0:0:
203,87,255654,1,0,0:0:0:0:
203,87,255697,1,0,0:0:0:0:
192,128,255741,1,8,0:0:0:0:
204,104,255807,1,8,0:0:0:0:
160,64,255872,1,0,0:0:0:0:
209,49,255905,1,0,0:0:0:0:
192,64,256003,1,0,0:0:0:0:
205,109,256047,1,0,0:0:0:0:
205,109,256090,1,0,0:0:0:0:
192,64,256134,1,8,0:0:0:0:
278,168,256199,1,8,0:0:0:0:
278,168,256265,1,0,0:0:0:0:
155,6,256298,1,0,0:0:0:0:
192,32,256396,1,8,0:0:0:0:
192,96,256658,1,4,0:0:0:0:
192,96,257051,1,4,0:0:0:0:
192,96,257312,1,0,0:0:0:0:
192,96,257378,1,0,0:0:0:0:
192,96,257443,5,8,0:0:0:0:
192,96,257574,1,0,0:0:0:0:
192,96,257705,1,8,0:0:0:0:
192,160,257836,1,0,0:0:0:0:
192,160,257902,1,0,0:0:0:0:
192,160,257967,1,8,0:0:0:0:
192,160,258033,1,0,0:0:0:0:
192,160,258098,1,8,0:0:0:0:
192,160,258164,1,0,0:0:0:0:
192,160,258229,1,8,0:0:0:0:
256,160,258262,1,8,0:0:0:0:
149,62,258360,1,0,0:0:0:0:
288,192,258425,1,0,0:0:0:0:
288,192,258491,1,8,0:0:0:0:
384,128,258556,1,8,0:0:0:0:
192,128,258622,1,0,0:0:0:0:
192,128,258753,1,0,0:0:0:0:
192,128,258818,1,0,0:0:0:0:
192,128,258884,1,8,0:0:0:0:
192,128,259015,1,8,0:0:0:0:
192,128,259146,1,8,0:0:0:0:
192,96,259211,1,8,0:0:0:0:
192,128,259277,1,0,0:0:0:0:
192,96,259342,1,0,0:0:0:0:
160,128,259408,1,8,0:0:0:0:
192,96,259473,1,0,0:0:0:0:
160,128,259539,1,8,0:0:0:0:
192,96,259604,1,8,0:0:0:0:
160,128,259669,1,0,0:0:0:0:
192,128,259735,1,8,0:0:0:0:
160,128,259800,1,0,0:0:0:0:
160,128,259931,1,0,0:0:0:0:
224,32,259997,1,0,0:0:0:0:
160,128,260062,1,8,0:0:0:0:
160,128,260193,1,0,0:0:0:0:
160,128,260324,1,8,0:0:0:0:
224,32,260390,1,0,0:0:0:0:
160,128,260455,1,8,0:0:0:0:
160,128,260586,1,0,0:0:0:0:
224,64,260848,1,4,0:0:0:0:
160,96,260979,1,0,0:0:0:0:
160,96,261044,1,0,0:0:0:0:
160,96,261110,1,8,0:0:0:0:
160,64,261241,1,4,0:0:0:0:
160,64,261372,1,0,0:0:0:0:
160,64,261437,1,0,0:0:0:0:
160,64,261503,1,8,0:0:0:0:
192,0,261634,1,0,0:0:0:0:
192,64,261699,1,0,0:0:0:0:
192,0,261765,1,8,0:0:0:0:
192,64,261830,1,8,0:0:0:0:
192,32,261896,1,0,0:0:0:0:
224,128,261928,1,0,0:0:0:0:
160,64,262027,1,0,0:0:0:0:
224,128,262059,1,0,0:0:0:0:
160,64,262157,1,8,0:0:0:0:
224,96,262288,1,0,0:0:0:0:
192,32,262354,1,0,0:0:0:0:
224,96,262419,1,8,0:0:0:0:
256,128,262452,1,8,0:0:0:0:
160,96,262550,1,8,0:0:0:0:
256,128,262583,1,8,0:0:0:0:
160,96,262681,1,8,0:0:0:0:
256,128,262714,1,8,0:0:0:0:
256,128,262812,1,8,0:0:0:0:
160,32,262845,1,8,0:0:0:0:
192,32,262943,1,0,0:0:0:0:
160,64,263205,1,8,0:0:0:0:
160,64,263336,1,0,0:0:0:0:
160,64,263467,1,0,0:0:0:0:
192,0,263532,1,0,0:0:0:0:
160,64,263598,1,8,0:0:0:0:
192,32,263729,1,8,0:0:0:0:
160,64,263860,1,0,0:0:0:0:
160,64,263925,1,0,0:0:0:0:
160,64,263991,1,0,0:0:0:0:
192,96,264122,1,0,0:0:0:0:
192,96,264253,1,8,0:0:0:0:
224,96,264384,1,0,0:0:0:0:
224,32,264449,1,0,0:0:0:0:
224,96,264515,1,8,0:0:0:0:
192,64,264645,1,0,0:0:0:0:
192,64,264711,1,0,0:0:0:0:
192,64,264776,1,8,0:0:0:0:
192,128,264820,1,8,0:0:0:0:
192,128,264864,1,8,0:0:0:0:
192,128,264907,1,8,0:0:0:0:
224,128,264951,1,8,0:0:0:0:
224,128,264995,1,8,0:0:0:0:
192,96,265038,1,4,0:0:0:0:
224,64,265300,1,8,0:0:0:0:
224,64,265431,1,4,0:0:0:0:
224,64,265693,1,8,0:0:0:0:
224,64,265824,1,0,0:0:0:0:
192,64,265955,1,0,0:0:0:0:
192,64,266086,1,8,0:0:0:0:
192,96,266217,1,0,0:0:0:0:
192,96,266282,1,8,0:0:0:0:
192,96,266348,1,0,0:0:0:0:
192,96,266413,1,8,0:0:0:0:
192,96,266479,1,0,0:0:0:0:
192,96,266544,1,0,0:0:0:0:
192,96,266610,1,8,0:0:0:0:
192,96,266675,1,0,0:0:0:0:
192,96,266741,1,8,0:0:0:0:
192,96,266806,1,8,0:0:0:0:
192,96,266872,1,0,0:0:0:0:
192,96,266937,1,8,0:0:0:0:
192,96,267003,1,0,0:0:0:0:
192,96,267068,1,0,0:0:0:0:
192,96,267133,1,8,0:0:0:0:
224,32,267199,1,0,0:0:0:0:
224,32,267264,1,8,0:0:0:0:
224,32,267330,1,0,0:0:0:0:
224,32,267395,1,8,0:0:0:0:
192,32,267526,1,0,0:0:0:0:
192,224,267592,1,0,0:0:0:0:
192,32,267657,1,0,0:0:0:0:
192,32,267788,1,8,0:0:0:0:
192,256,267919,1,0,0:0:0:0:
192,256,268050,1,0,0:0:0:0:
192,256,268181,1,8,0:0:0:0:
192,256,268443,1,8,0:0:0:0:
160,128,268574,1,0,0:0:0:0:
160,128,268639,1,8,0:0:0:0:
160,128,268705,1,0,0:0:0:0:
160,128,268770,1,0,0:0:0:0:
160,128,268836,1,8,0:0:0:0:
160,128,268967,1,0,0:0:0:0:
160,128,269229,1,4,0:0:0:0:
192,64,269360,1,0,0:0:0:0:
224,64,269425,1,0,0:0:0:0:
192,64,269491,1,8,0:0:0:0:
192,160,269523,1,8,0:0:0:0:
192,160,269621,1,0,0:0:0:0:
224,128,269654,1,0,0:0:0:0:
192,64,269752,1,0,0:0:0:0:
224,64,269785,1,0,0:0:0:0:
192,64,269883,1,8,0:0:0:0:
224,64,269916,1,8,0:0:0:0:
192,160,270014,1,0,0:0:0:0:
224,96,270145,1,8,0:0:0:0:
192,64,270276,1,0,0:0:0:0:
288,128,270320,1,0,0:0:0:0:
288,128,270363,1,0,0:0:0:0:
288,128,270407,1,0,0:0:0:0:
288,128,270451,1,0,0:0:0:0:
288,128,270494,1,0,0:0:0:0:
192,64,270538,1,8,0:0:0:0:
192,64,270669,1,0,0:0:0:0:
192,64,270735,1,0,0:0:0:0:
192,64,270800,1,8,0:0:0:0:
192,96,270865,1,0,0:0:0:0:
160,64,270931,1,8,0:0:0:0:
192,64,271062,1,0,0:0:0:0:
192,96,271193,1,0,0:0:0:0:
160,64,271258,1,0,0:0:0:0:
192,64,271324,1,8,0:0:0:0:
192,96,271389,1,0,0:0:0:0:
192,96,271455,1,8,0:0:0:0:
192,96,271520,1,8,0:0:0:0:
192,96,271586,1,0,0:0:0:0:
192,96,271651,1,0,0:0:0:0:
192,96,271717,1,8,0:0:0:0:
224,32,271848,1,0,0:0:0:0:
224,32,271979,1,8,0:0:0:0:
160,96,272109,1,0,0:0:0:0:
192,128,272371,1,0,0:0:0:0:
160,96,272502,1,0,0:0:0:0:
160,96,272568,1,0,0:0:0:0:
160,96,272633,1,8,0:0:0:0:
160,96,272699,1,8,0:0:0:0:
160,96,272764,1,0,0:0:0:0:
160,96,272830,1,8,0:0:0:0:
160,96,272895,1,0,0:0:0:0:
224,32,272961,1,0,0:0:0:0:
224,32,273026,1,8,0:0:0:0:
224,32,273157,1,8,0:0:0:0:
224,64,273419,1,4,0:0:0:0:
192,128,273812,1,4,0:0:0:0:
192,128,274205,1,12,0:0:0:0:
224,96,274467,1,0,0:0:0:0:
224,96,274597,1,0,0:0:0:0:
224,96,274663,1,0,0:0:0:0:
224,96,274728,1,8,0:0:0:0:
192,96,274859,1,0,0:0:0:0:
192,96,274925,1,0,0:0:0:0:
192,96,274990,1,0,0:0:0:0:
192,96,275056,1,0,0:0:0:0:
192,96,275121,1,8,0:0:0:0:
224,96,275252,1,0,0:0:0:0:
224,96,275383,1,8,0:0:0:0:
224,96,275514,1,0,0:0:0:0:
224,96,275580,1,8,0:0:0:0:
224,96,275645,1,0,0:0:0:0:
224,96,275711,1,0,0:0:0:0:
224,96,275776,1,8,0:0:0:0:
224,32,275907,1,0,0:0:0:0:
224,32,276038,1,8,0:0:0:0:
192,64,276169,1,0,0:0:0:0:
192,64,276234,1,0,0:0:0:0:
192,64,276300,1,8,0:0:0:0:
288,128,276343,1,8,0:0:0:0:
288,128,276387,1,8,0:0:0:0:
192,32,276431,1,8,0:0:0:0:
288,128,276474,1,8,0:0:0:0:
288,128,276518,1,8,0:0:0:0:
192,32,276562,1,0,0:0:0:0:
192,64,276693,1,0,0:0:0:0:
192,64,276824,1,8,0:0:0:0:
192,32,276954,1,0,0:0:0:0:
192,64,277020,1,0,0:0:0:0:
192,32,277085,1,0,0:0:0:0:
192,64,277151,1,0,0:0:0:0:
192,64,277216,1,8,0:0:0:0:
192,64,277347,1,0,0:0:0:0:
192,64,277478,1,8,0:0:0:0:
224,32,277609,1,4,0:0:0:0:
192,64,277740,1,0,0:0:0:0:
256,96,277784,1,0,0:0:0:0:
256,96,277827,1,0,0:0:0:0:
192,64,277871,1,8,0:0:0:0:
224,32,277937,1,8,0:0:0:0:
256,96,278002,1,0,0:0:0:0:
224,32,278068,1,8,0:0:0:0:
256,96,278133,1,0,0:0:0:0:
256,96,278177,1,0,0:0:0:0:
256,96,278220,1,0,0:0:0:0:
256,96,278264,1,8,0:0:0:0:
224,64,278395,1,8,0:0:0:0:
192,64,278526,1,0,0:0:0:0:
192,64,278591,1,0,0:0:0:0:
192,64,278657,1,0,0:0:0:0:
192,64,278788,1,0,0:0:0:0:
192,64,278853,1,0,0:0:0:0:
192,64,278919,1,8,0:0:0:0:
192,64,279050,1,0,0:0:0:0:
192,96,279115,1,0,0:0:0:0:
192,64,279181,1,8,0:0:0:0:
192,96,279246,1,8,0:0:0:0:
192,64,279312,1,8,0:0:0:0:
192,96,279377,1,8,0:0:0:0:
192,64,279442,1,0,0:0:0:0:
192,64,279508,1,0,0:0:0:0:
192,64,279573,1,0,0:0:0:0:
192,64,279639,1,0,0:0:0:0:
192,64,279704,1,8,0:0:0:0:
192,32,279966,1,0,0:0:0:0:
192,32,280097,1,8,0:0:0:0:
192,32,280228,1,0,0:0:0:0:
160,64,280294,1,0,0:0:0:0:
160,32,280359,1,8,0:0:0:0:
192,64,280490,1,0,0:0:0:0:
192,64,280621,1,8,0:0:0:0:
224,64,280686,1,8,0:0:0:0:
192,64,280752,1,0,0:0:0:0:
256,64,280817,1,8,0:0:0:0:
224,64,280883,1,0,0:0:0:0:
256,64,280948,1,0,0:0:0:0:
224,64,281014,1,8,0:0:0:0:
224,96,281145,1,0,0:0:0:0:
224,96,281210,1,0,0:0:0:0:
224,96,281276,1,8,0:0:0:0:
288,128,281308,1,8,0:0:0:0:
320,192,281407,1,0,0:0:0:0:
224,128,281472,1,8,0:0:0:0:
224,96,281538,1,0,0:0:0:0:
224,96,281603,1,0,0:0:0:0:
224,96,281669,1,8,0:0:0:0:
160,128,281800,1,4,0:0:0:0:
