osu file format v14

[General]
AudioFilename: audio.ogg
AudioLeadIn: 0
PreviewTime: 15
Countdown: 0
SampleSet: Normal
StackLeniency: 0.7
Mode: 0
LetterboxInBreaks: 0
WidescreenStoryboard: 1

[Editor]
Bookmarks: 208016
DistanceSpacing: 0.1
BeatDivisor: 1
GridSize: 8
TimelineZoom: 1.76

[Metadata]
Title:Be Quiet and Drive (Far Away)
TitleUnicode:Be Quiet and Drive (Far Away)
Artist:Deftones
ArtistUnicode:Deftones
Creator:aishiteiru-
Version:florescence's hard
Source:
Tags:english around the fur nu metal alternative rock mirash semaphore riffy myahkey godsenger florescence
BeatmapID:3678468
BeatmapSetID:1701335

[Difficulty]
HPDrainRate:4.5
CircleSize:3.6
OverallDifficulty:6
ApproachRate:8
SliderMultiplier:1.99999990463257
SliderTickRate:1

[Events]
//Background and Video events
0,0,"21782.jpg",0,0
//Break Periods
//Storyboard Layer 0 (Background)
//Storyboard Layer 1 (Fail)
//Storyboard Layer 2 (Pass)
//Storyboard Layer 3 (Foreground)
//Storyboard Layer 4 (Overlay)
//Storyboard Sound Samples

[TimingPoints]
24042,674.157303370787,4,1,1,65,1,0
24042,-66.6666666666667,4,1,1,65,0,0
24716,-133.333333333333,4,1,1,65,0,0
25394,689.655172413793,4,1,1,65,1,0
25394,-66.6666666666667,4,1,1,65,0,0
26762,689.655172413793,4,1,1,65,1,0
26762,-66.6666666666667,4,1,1,65,0,0
27279,-100,4,1,1,65,0,0
28110,666.666666666667,4,1,1,65,1,0
29466,674.157303370786,4,1,1,65,1,0
29466,-66.6666666666667,4,1,1,65,0,0
30140,-100,4,1,1,65,0,0
30802,681.818181818182,4,1,1,65,1,0
30802,-66.6666666666667,4,1,1,65,0,0
31483,-100,4,1,1,65,0,0
32122,657.534246575342,4,1,1,65,1,0
32122,-66.6666666666667,4,1,1,65,0,0
32779,-100,4,1,1,65,0,0
34772,677.966101694915,4,1,1,65,1,0
34772,-66.6666666666667,4,1,1,65,0,0
35449,-100,4,1,1,65,0,0
36094,677.966101694915,4,1,1,65,1,0
37439,666.666666666666,4,1,1,65,1,0
37439,-66.6666666666667,4,1,1,65,0,0
38105,652.173913043479,4,1,1,65,1,0
40067,655.737704918032,4,1,1,65,1,0
40067,-66.6666666666667,4,1,1,65,0,0
40722,-100,4,1,1,65,0,0
41370,652.173913043479,4,1,1,65,1,0
42680,666.666666666666,4,1,1,65,1,0
42680,-66.6666666666667,4,1,1,65,0,0
43346,-100,4,1,1,65,0,0
44003,646.900269541779,4,1,1,65,1,0
44649,681.818181818183,4,1,1,65,1,0
45329,674.157303370787,4,1,1,65,1,0
45329,-66.6666666666667,4,1,1,65,0,0
46003,659.340659340661,4,1,1,65,1,0
47969,655.737704918034,4,1,1,65,1,0
47969,-66.6666666666667,4,1,1,65,0,0
48624,-100,4,1,1,65,0,0
49288,643.43163538874,4,1,1,65,1,0
50574,628.272251308902,4,1,1,65,1,0
50574,-66.6666666666667,4,1,1,65,0,0
51202,652.173913043479,4,1,1,65,1,0
53158,659.34065934066,4,1,1,65,1,0
53158,-66.6666666666667,4,1,1,65,0,0
53817,-100,4,1,1,65,0,0
54466,638.297872340427,4,1,1,65,1,0
55734,674.157303370788,4,1,1,65,1,0
55734,-66.6666666666667,4,1,1,65,0,0
56408,-100,4,1,1,65,0,0
57066,652.173913043479,4,1,1,65,1,0
58362,662.983425414365,4,1,1,65,1,0
58362,-66.6666666666667,4,1,1,65,0,0
59024,-100,4,1,1,65,0,0
59686,641.711229946524,4,1,1,65,1,0
60969,-66.6666666666667,4,1,1,65,0,0
61611,-100,4,1,1,65,0,0
62231,648.648648648649,4,1,1,65,1,0
63530,638.297872340425,4,1,1,65,1,0
66083,655.737704918034,4,1,1,65,1,0
66083,-66.6666666666667,4,1,1,65,0,0
67232,659.34065934066,4,1,1,65,1,0
68070,625,4,1,1,65,1,0
68718,648.648648648649,4,1,1,65,1,0
68718,-66.6666666666667,4,1,1,65,0,0
69366,-100,4,1,1,65,0,0
69997,655.737704918034,4,1,1,65,1,0
71307,638.297872340426,4,1,1,65,1,0
71307,-66.6666666666667,4,1,1,65,0,0
71945,-100,4,1,1,65,0,0
72444,625,4,1,1,65,1,0
73233,648.648648648649,4,1,1,65,1,0
73854,634.920634920636,4,1,1,65,1,0
75123,670.391061452514,4,1,1,65,1,0
75785,645.161290322581,4,1,1,65,1,0
76439,659.34065934066,4,1,1,65,1,0
77770,662.983425414365,4,1,1,65,1,0
79096,648.648648648649,4,1,1,65,1,0
79096,-66.6666666666667,4,1,1,65,0,0
79744,-100,4,1,1,65,0,0
81680,650.406504065041,4,1,1,65,1,0
81680,-66.6666666666667,4,1,1,65,0,0
82330,-100,4,1,1,65,0,0
84262,641.711229946524,4,1,1,65,1,0
86828,612.244897959184,4,1,1,65,1,0
86828,-66.6666666666667,4,1,1,65,0,0
87440,646.900269541779,4,1,1,65,1,0
89380,643.43163538874,4,1,1,65,1,0
89380,-66.6666666666667,4,1,1,65,0,0
90023,-100,4,1,1,65,0,0
91956,641.711229946524,4,1,1,65,1,0
91956,-66.6666666666667,4,1,1,65,0,0
92597,-100,4,1,1,65,0,0
93881,631.578947368422,4,1,1,65,1,0
94506,628.272251308901,4,1,1,65,1,0
95758,645.161290322581,4,1,1,65,1,0
97052,655.737704918033,4,1,1,55,1,0
99019,645.161290322581,4,1,1,55,1,0
99664,641.711229946525,4,1,1,55,1,0
102220,662.983425414365,4,1,1,55,1,0
103533,634.920634920636,4,1,1,55,1,0
104796,634.920634920635,4,1,1,55,1,0
106700,621.761658031089,4,1,1,55,1,0
107321,653.950953678475,4,1,1,55,1,0
108612,631.578947368422,4,1,1,55,1,0
109875,662.983425414365,4,1,1,55,1,0
111170,625.000000000001,4,1,1,55,1,0
112426,638.297872340426,4,1,1,55,1,0
113682,645.161290322581,4,1,1,55,1,0
114962,631.578947368421,4,1,1,55,1,0
116237,652.173913043479,4,1,1,55,1,0
116889,-100,4,1,1,65,0,0
117541,655.737704918033,4,1,1,65,1,0
117541,-66.6666666666667,4,1,1,65,0,0
118196,-100,4,1,1,65,0,0
118694,641.711229946524,4,1,1,65,1,0
119500,648.648648648649,4,1,1,65,1,0
120154,634.920634920636,4,1,1,65,1,0
120154,-66.6666666666667,4,1,1,65,0,0
120788,-100,4,1,1,65,0,0
121265,638.297872340426,4,1,1,65,1,0
122062,625,4,1,1,65,1,0
122687,652.173913043479,4,1,1,65,1,0
122687,-66.6666666666667,4,1,1,65,0,0
123339,-100,4,1,1,65,0,0
123828,615.384615384616,4,1,1,65,1,0
124597,618.556701030928,4,1,1,65,1,0
125215,640,4,1,1,65,1,0
127135,625,4,1,1,65,1,0
127760,666.666666666667,4,1,1,65,1,0
127760,-66.6666666666667,4,1,1,65,0,0
128426,-100,4,1,1,65,0,0
129760,655.737704918034,4,1,1,65,1,0
130415,648.648648648649,4,1,1,65,1,0
130415,-66.6666666666667,4,1,1,65,0,0
131712,638.297872340426,4,1,1,65,1,0
132988,662.983425414365,4,1,1,65,1,0
132988,-66.6666666666667,4,1,1,65,0,0
133650,-100,4,1,1,65,0,0
134297,640,4,1,1,65,1,0
136217,652.173913043479,4,1,1,65,1,0
136869,638.297872340426,4,1,1,65,1,0
138135,640,4,1,1,65,1,0
138135,-66.6666666666667,4,1,1,65,0,0
138775,-100,4,1,1,65,0,0
140055,631.578947368421,4,1,1,65,1,0
140689,641.711229946524,4,1,1,65,1,0
140689,-66.6666666666667,4,1,1,65,0,0
141330,-100,4,1,1,65,0,0
142614,631.578947368422,4,1,1,65,1,0
143245,634.920634920636,4,1,1,65,1,0
143245,-66.6666666666667,4,1,1,65,0,0
143879,-100,4,1,1,65,0,0
145149,641.711229946524,4,1,1,65,1,0
145790,631.578947368422,4,1,1,65,1,0
146421,612.244897959184,4,1,1,65,1,0
147048,618.556701030928,4,1,1,65,1,0
147678,609.137055837564,4,1,1,65,1,0
148304,653.950953678475,4,1,1,55,1,0
150886,666.666666666667,4,1,1,55,1,0
152212,631.578947368421,4,1,1,55,1,0
153458,652.173913043479,4,1,1,55,1,0
154746,631.578947368422,4,1,1,55,1,0
155998,620.15503875969,4,1,1,55,1,0
158482,674.157303370787,4,1,1,55,1,0
159794,631.578947368422,4,1,1,55,1,0
161052,659.34065934066,4,1,1,55,1,0
162348,625.000000000001,4,1,1,55,1,0
163590,659.34065934066,4,1,1,55,1,0
164872,638.297872340426,4,1,1,55,1,0
166142,631.578947368422,4,1,1,55,1,0
167410,618.556701030928,4,1,1,55,1,0
168028,-100,4,1,1,65,0,0
168652,681.818181818182,4,1,1,65,1,1
168652,-66.6666666666667,4,1,1,65,0,1
169333,-100,4,1,1,65,0,1
169810,645.161290322581,4,1,1,65,1,1
170616,638.297872340426,4,1,1,65,1,1
171258,618.556701030928,4,1,1,65,1,1
171258,-66.6666666666667,4,1,1,65,0,1
171876,-100,4,1,1,65,0,1
172498,631.578947368421,4,1,1,65,1,1
173750,652.173913043479,4,1,1,65,1,1
173750,-66.6666666666667,4,1,1,65,0,1
174402,-100,4,1,1,65,0,1
174860,631.578947368422,4,1,1,65,1,1
176264,612.244897959184,4,1,1,65,1,1
177500,631.578947368421,4,1,1,65,1,1
177978,606.060606060606,4,1,1,65,1,1
178738,615.384615384615,4,1,1,65,1,1
178738,-66.6666666666667,4,1,1,65,0,1
179353,-100,4,1,1,65,0,1
179840,600,4,1,1,65,1,1
181200,631.578947368422,4,1,1,65,1,1
181200,-66.6666666666667,4,1,1,65,0,1
181831,-100,4,1,1,65,0,1
182456,625,4,1,1,65,1,1
183698,638.297872340426,4,1,1,65,1,1
183698,-66.6666666666667,4,1,1,65,0,1
184336,-100,4,1,1,65,0,1
184820,618.556701030928,4,1,1,65,1,1
185593,606.060606060606,4,1,1,65,1,1
186206,645.161290322581,4,1,1,65,1,1
186851,-83.3333333333333,4,1,1,65,0,1
187476,631.578947368422,4,1,1,65,1,1
188107,645.161290322581,4,1,1,65,1,1
188744,759.493670886077,4,1,1,65,1,0
189456,689.655172413794,4,1,1,65,1,0
190130,689.655172413793,4,1,1,65,1,0
190788,666.666666666667,4,1,1,65,1,0
191472,664.819944598338,4,1,1,65,1,0
192777,646.900269541779,4,1,1,65,1,0
194078,668.523676880223,4,1,1,65,1,0
195415,674.157303370787,4,1,1,65,1,0
196763,666.666666666667,4,1,1,65,1,0
198088,638.297872340426,4,1,1,65,1,0
199372,683.760683760684,4,1,1,65,1,0
200720,681.818181818182,4,1,1,65,1,0
200720,-83.3333333333333,4,1,1,65,0,0
202088,659.34065934066,4,1,1,65,1,0
202892,681.818181818182,4,1,1,65,1,0
203384,625,4,1,1,65,1,0
204646,685.714285714286,4,1,1,65,1,0
206016,674.157303370787,4,1,1,65,1,0
207350,666.666666666667,4,1,1,65,1,0
208668,638.297872340426,4,1,1,65,1,0
209306,662.983425414366,4,1,1,65,1,0
210134,-100,4,2,1,5,0,0
221158,697.674418604651,4,1,1,65,1,0
221158,-66.6666666666667,4,1,1,65,0,1
222324,652.173913043479,4,1,1,65,1,1
223139,612.244897959184,4,1,1,65,1,1
223778,638.297872340426,4,1,1,65,1,1
225022,625,4,1,1,65,1,1
226280,645.161290322581,4,1,1,65,1,1
226280,-66.6666666666667,4,1,1,65,0,1
227388,625,4,1,1,65,1,1
228169,638.297872340426,4,1,1,65,1,1
228796,615.384615384616,4,1,1,65,1,1
229866,625,4,1,1,65,1,1
230494,674.157303370787,4,1,1,65,1,1
231128,638.297872340426,4,1,1,65,1,1
231287,625,4,1,1,65,1,1
231287,-66.6666666666667,4,1,1,65,0,1
232390,594.059405940595,4,1,1,65,1,1
233132,625,4,1,1,65,1,1
233757,625,4,1,1,65,1,1
234842,615.384615384616,4,1,1,65,1,1
235611,645.161290322581,4,1,1,65,1,1
236256,560.747663551402,4,1,1,65,1,1
236256,-66.6666666666667,4,1,1,65,0,1
236816,-100,4,1,1,65,0,1
237276,594.059405940595,4,1,1,65,1,1
238028,594.059405940594,4,1,1,65,1,1
239072,606.060606060606,4,1,1,65,1,1
239954,566.037735849057,4,1,1,65,1,1
240452,588.235294117648,4,1,1,65,1,1
241040,631.578947368422,4,1,1,65,1,1
241040,-66.6666666666667,4,1,1,65,0,1
242126,631.578947368422,4,1,1,65,1,1
242915,600,4,1,1,65,1,1
243510,606.060606060606,4,1,1,65,1,1
244408,606.060606060606,4,1,1,65,1,1
245938,615.384615384616,4,1,1,65,1,1
245938,-66.6666666666667,4,1,1,65,0,1
247016,618.556701030928,4,1,1,65,1,1
247798,594.059405940594,4,1,1,65,1,1
248392,618.556701030928,4,1,1,65,1,1
249642,594.059405940595,4,1,1,65,1,1
250100,576.923076923077,4,1,1,65,1,1
250556,645.161290322581,4,1,1,65,1,1
250878,631.578947368422,4,1,1,65,1,1
250878,-66.6666666666667,4,1,1,65,0,1
251996,582.52427184466,4,1,1,65,1,1
252722,606.060606060606,4,1,1,65,1,1
253328,612.244897959184,4,1,1,65,1,1
254552,591.133004926108,4,1,1,65,1,1
255746,607.594936708862,4,1,1,65,1,1
255746,-66.6666666666667,4,1,1,65,0,1
256961,-100,4,1,1,65,0,1
258176,606.060606060606,4,1,1,65,1,1
259414,594.059405940594,4,1,1,65,1,1
260618,631.578947368422,4,1,1,65,1,1
260618,-66.6666666666667,4,1,1,65,0,1
261730,555.555555555556,4,1,1,65,1,1
262466,612.244897959184,4,1,1,65,1,1
263078,612.244897959184,4,1,1,65,1,1
263078,-66.6666666666667,4,1,1,65,0,1
264438,612.244897959184,4,1,1,65,1,1
264897,594.059405940595,4,1,1,65,1,1
265500,618.556701030928,4,1,1,65,1,1
265500,-66.6666666666667,4,1,1,65,0,1
266418,594.059405940595,4,1,1,65,1,1
266892,576.923076923077,4,1,1,65,1,1
267324,631.578947368421,4,1,1,65,1,1
267948,582.52427184466,4,1,1,65,1,1
268974,638.297872340426,4,1,1,65,1,1
269452,618.556701030928,4,1,1,65,1,1
270379,582.524271844661,4,1,1,60,1,1
270966,618.556701030928,4,1,1,60,1,1
270966,-71.4285714285714,4,1,1,60,0,1
271429,-71.4285714285714,4,1,1,55,0,1
271739,-100,4,1,1,55,0,1
272178,612.244897959184,4,1,1,55,1,1
272790,606.060606060606,4,1,1,55,1,1
272790,-71.4285714285714,4,1,1,55,0,1
273396,-100,4,1,1,55,0,1
274153,588.235294117647,4,1,1,55,1,1
274748,638.297872340426,4,1,1,50,1,1
275236,609.137055837564,4,1,1,50,1,1
276298,625,4,1,1,50,1,1
276298,-125,4,1,1,50,0,1
277079,625,4,1,1,45,1,1
277704,576.923076923077,4,1,1,45,1,1
277704,-125,4,1,1,45,0,1
278600,588.235294117647,4,1,1,40,1,1
278600,-133.333333333333,4,1,1,40,0,1
279502,618.556701030928,4,1,1,35,1,1
280120,-100,4,1,1,35,0,0
280275,-100,4,2,1,5,0,0

[Colours]
Combo1 : 255,149,149
Combo2 : 255,186,130
Combo3 : 226,184,254
Combo4 : 187,219,255

[HitObjects]
3,340,24042,6,0,P|116:344|234:353,1,224.999997854233,4|0,2:0|0:0,0:0:0:0:
313,308,24716,2,0,L|353:304,2,37.4999996423721,8|0|0,2:0|0:0|0:0,0:0:0:0:
229,252,25221,5,0,0:0:0:0:
229,252,25390,1,0,0:0:0:0:
439,247,25911,1,0,0:0:0:0:
392,170,26083,1,8,2:0:0:0:
432,90,26256,1,0,0:0:0:0:
454,255,26600,5,0,0:0:0:0:
420,343,26762,2,0,P|320:337|181:333,1,224.999997854233,4|0,2:0|0:0,0:0:0:0:
73,373,27451,2,0,L|125:376,1,49.9999976158143,8|0,2:0|0:0,0:0:0:0:
86,129,27968,5,0,0:0:0:0:
86,129,28110,2,0,P|120:164|132:267,1,149.999992847443
195,335,28776,1,8,2:0:0:0:
144,270,28943,2,0,L|30:281,1,99.9999952316285
164,177,29466,6,0,P|279:168|409:158,1,224.999997854233,4|0,2:0|0:0,0:0:0:0:
470,97,30140,1,8,2:0:0:0:
470,97,30308,1,0,0:0:0:0:
498,268,30645,5,0,0:0:0:0:
498,268,30802,1,0,0:0:0:0:
388,158,31313,1,0,0:0:0:0:
388,158,31483,2,0,L|315:165,2,49.9999976158143,8|0|2,2:0|0:0|2:0,0:0:0:0:
470,97,31995,5,0,0:0:0:0:
370,56,32122,2,0,B|297:67|297:67|137:28,1,224.999997854233,4|0,2:0|0:0,0:0:0:0:
0,137,32779,2,0,P|65:110|102:112,1,99.9999952316285,8|0,2:0|0:0,0:0:0:0:
193,153,33272,6,0,L|206:213,2,49.9999976158143
370,56,33930,1,0,0:0:0:0:
370,56,34094,2,0,L|363:128,1,49.9999976158143,8|0,2:0|0:0,0:0:0:0:
470,211,34587,5,0,0:0:0:0:
497,292,34772,2,0,B|445:310|445:310|248:271,1,224.999997854233,4|0,2:0|0:0,0:0:0:0:
117,311,35449,2,0,L|107:388,1,49.9999976158143,8|0,2:0|0:0,0:0:0:0:
145,109,35958,5,0,0:0:0:0:
224,124,36094,2,0,L|232:192,2,49.9999976158143,0|0|2,0:0|0:0|2:0,0:0:0:0:
242,42,36602,1,0,0:0:0:0:
155,25,36771,1,8,2:0:0:0:
137,112,36941,1,0,0:0:0:0:
363,72,37280,5,0,0:0:0:0:
449,37,37439,2,0,P|432:122|423:270,1,224.999997854233,4|0,2:0|0:0,0:0:0:0:
447,360,38105,1,8,2:0:0:0:
343,339,38268,2,0,P|335:278|323:227,1,99.9999952316285
248,175,38757,6,0,L|178:170,1,49.9999976158143
140,354,39246,2,0,L|82:365,2,49.9999976158143,0|8|0,0:0|2:0|0:0,0:0:0:0:
340,240,39898,5,0,1:0:0:0:
340,240,40067,2,0,B|302:277|302:277|123:250,1,224.999997854233,12|0,2:0|0:0,0:0:0:0:
42,187,40722,1,8,2:0:0:0:
95,113,40886,2,0,L|211:92,1,99.9999952316285
264,164,41370,5,0,0:0:0:0:
353,117,41533,1,0,0:0:0:0:
335,19,41696,1,2,2:0:0:0:
236,5,41859,1,0,0:0:0:0:
193,95,42022,1,8,2:0:0:0:
193,95,42185,2,0,L|59:121,1,99.9999952316285
264,164,42680,6,0,P|312:296|291:390,1,224.999997854233,4|0,2:0|0:0,0:0:0:0:
396,346,43346,2,0,L|458:358,1,49.9999976158143,8|0,2:0|0:0,0:0:0:0:
210,303,43846,5,0,0:0:0:0:
210,303,44003,2,0,L|123:325,1,49.9999976158143,8|8,2:0|2:0,0:0:0:0:
357,197,44488,5,0,0:0:0:0:
444,221,44649,1,8,3:0:0:0:
481,143,44819,1,0,0:0:0:0:
394,103,44989,1,10,2:0:0:0:
358,187,45160,1,0,0:0:0:0:
452,228,45329,6,0,P|368:242|210:290,1,224.999997854233,4|0,2:0|0:0,0:0:0:0:
186,352,46003,1,8,2:0:0:0:
29,234,46332,5,2,2:0:0:0:
67,306,46497,1,0,0:0:0:0:
139,270,46662,2,0,P|125:202|117:129,1,99.9999952316285,0|2,0:0|2:0,0:0:0:0:
140,89,47156,1,0,0:0:0:0:
55,70,47321,2,0,L|37:151,2,49.9999976158143,8|0|2,2:0|0:0|2:0,0:0:0:0:
148,79,47816,5,0,0:0:0:0:
235,44,47969,2,0,P|285:44|473:4,1,224.999997854233,4|0,2:0|0:0,0:0:0:0:
512,94,48624,2,0,P|432:118|378:127,1,99.9999952316285,8|2,2:0|2:0,0:0:0:0:
234,153,49288,5,0,0:0:0:0:
234,153,49448,1,0,0:0:0:0:
351,76,49770,1,0,0:0:0:0:
331,155,49931,1,8,2:0:0:0:
388,223,50092,2,0,P|323:231|285:247,1,99.9999952316285
278,267,50574,6,0,P|169:259|32:241,1,224.999997854233
0,185,51202,1,8,2:0:0:0:
0,185,51365,2,0,P|25:115|36:61,1,99.9999952316285
3,14,51854,1,0,0:0:0:0:
159,23,52180,6,0,P|157:55|147:81,1,49.9999976158143,2|0,2:0|0:0,0:0:0:0:
223,123,52506,2,0,P|207:177|208:209,1,49.9999976158143,8|0,2:0|0:0,0:0:0:0:
263,227,52832,1,2,2:0:0:0:
186,248,52995,1,0,0:0:0:0:
132,161,53158,6,0,P|103:276|91:392,1,224.999997854233,4|0,2:0|0:0,0:0:0:0:
102,371,53817,2,0,P|95:309|89:269,1,99.9999952316285,8|2,2:0|2:0,0:0:0:0:
8,143,54466,5,0,0:0:0:0:
8,143,54625,1,0,0:0:0:0:
153,216,54944,1,0,0:0:0:0:
225,182,55104,1,8,2:0:0:0:
292,233,55263,1,0,0:0:0:0:
471,123,55583,5,0,0:0:0:0:
471,123,55734,2,0,P|447:227|430:358,1,224.999997854233
358,370,56408,1,8,2:0:0:0:
325,286,56576,2,0,P|275:296|200:328,1,99.9999952316285
152,276,57066,6,0,P|209:222|274:162,1,149.999992847443,4|0,2:0|0:0,0:0:0:0:
330,112,57718,2,0,L|283:93,1,49.9999976158143,8|0,2:0|0:0,0:0:0:0:
97,210,58207,5,0,0:0:0:0:
152,276,58362,2,0,P|231:303|434:273,1,224.999997854233
480,261,59024,2,0,L|458:399,1,99.9999952316285,8|2,2:0|2:0,0:0:0:0:
440,189,59686,5,0,0:0:0:0:
477,119,59846,1,0,0:0:0:0:
266,13,60167,1,0,0:0:0:0:
334,67,60327,1,8,2:0:0:0:
411,28,60488,1,0,0:0:0:0:
265,195,60808,2,0,L|304:182,1,24.9999988079071
258,205,60969,2,0,P|216:164|42:110,1,224.999997854233,4|0,2:0|0:0,0:0:0:0:
127,70,61611,1,8,2:0:0:0:
136,154,61771,1,0,0:0:0:0:
62,305,62092,5,0,0:0:0:0:
15,231,62231,1,0,0:0:0:0:
289,131,62717,1,0,0:0:0:0:
317,49,62879,2,0,P|394:64|449:69,1,99.9999952316285,8|2,2:0|2:0,0:0:0:0:
495,156,63366,5,0,0:0:0:0:
424,200,63530,1,8,2:0:0:0:
355,244,63689,1,0,0:0:0:0:
151,265,64008,5,0,0:0:0:0:
222,309,64168,1,8,2:0:0:0:
291,353,64327,1,0,0:0:0:0:
342,142,64647,5,0,0:0:0:0:
249,107,64806,1,8,2:0:0:0:
179,162,64966,1,0,0:0:0:0:
370,288,65285,5,0,0:0:0:0:
452,268,65444,1,8,3:0:0:0:
471,348,65604,1,0,0:0:0:0:
391,367,65764,1,10,2:0:0:0:
277,315,65923,5,0,0:0:0:0:
277,315,66083,2,0,P|276:224|267:149,1,149.999998569489,4|2,2:0|2:0,0:0:0:0:
338,42,66574,1,0,0:0:0:0:
338,42,66738,2,0,P|353:128|379:211,1,149.999998569489,8|2,2:0|2:0,0:0:0:0:
465,128,67232,5,8,2:0:0:0:
465,128,67396,1,0,0:0:0:0:
478,236,67561,2,0,P|465:307|472:347,1,99.9999952316285,8|0,2:0|0:0,0:0:0:0:
346,333,68070,2,0,L|201:357,1,99.9999952316285,8|2,2:0|2:0,0:0:0:0:
145,257,68538,5,0,0:0:0:0:
145,257,68718,2,0,P|227:251|378:222,1,224.999997854233,4|0,2:0|0:0,0:0:0:0:
403,73,69366,2,0,P|378:122|327:144,1,99.9999952316285,8|2,2:0|2:0,0:0:0:0:
339,142,69853,1,0,0:0:0:0:
449,192,69997,6,0,L|525:211,2,49.9999976158143,0|8|2,0:0|2:0|2:0,0:0:0:0:
368,225,70488,1,0,0:0:0:0:
337,135,70652,2,0,L|222:164,1,99.9999952316285,8|2,2:0|2:0,0:0:0:0:
101,117,71144,5,0,0:0:0:0:
101,117,71307,2,0,P|134:186|151:341,1,224.999997854233,4|0,2:0|0:0,0:0:0:0:
40,384,71945,1,8,2:0:0:0:
62,298,72104,1,0,0:0:0:0:
252,275,72444,6,0,L|275:358,1,49.9999976158143,8|0,2:0|0:0,0:0:0:0:
342,384,72756,2,0,L|365:287,1,99.9999952316285,8|0,2:0|0:0,0:0:0:0:
386,289,73233,2,0,L|419:154,1,99.9999952316285,8|2,2:0|2:0,0:0:0:0:
442,80,73719,5,0,0:0:0:0:
348,98,73854,1,8,2:0:0:0:
373,184,74012,1,8,2:0:0:0:
185,252,74330,1,0,0:0:0:0:
269,275,74488,2,0,L|241:379,1,99.9999952316285,8|2,2:0|2:0,0:0:0:0:
240,377,74965,5,0,0:0:0:0:
153,384,75123,1,8,2:0:0:0:
99,316,75290,1,8,2:0:0:0:
14,342,75458,5,2,2:0:0:0:
7,321,75625,1,0,0:0:0:0:
1,300,75785,1,8,3:0:0:0:
90,233,75946,2,0,L|111:165,1,49.9999976158143,0|10,0:0|2:0,0:0:0:0:
33,88,76268,5,0,0:0:0:0:
0,11,76439,1,0,0:0:0:0:
252,156,76933,5,0,0:0:0:0:
278,236,77098,2,0,L|346:247,1,49.9999976158143,8|0,2:0|0:0,0:0:0:0:
443,174,77592,1,0,0:0:0:0:
443,174,77770,2,0,P|483:206|495:287,1,99.9999952316285,0|2,0:0|2:0,0:0:0:0:
450,360,78267,1,0,0:0:0:0:
450,360,78432,2,0,L|499:365,2,49.9999976158143,8|0|2,2:0|0:0|2:0,0:0:0:0:
314,361,78930,5,0,0:0:0:0:
314,361,79096,2,0,P|227:338|80:350,1,224.999997854233,4|0,2:0|0:0,0:0:0:0:
67,245,79744,2,0,L|258:222,1,149.999992847443,8|0,2:0|0:0,0:0:0:0:
296,168,80393,6,0,P|346:136|368:95,1,99.9999952316285,0|2,0:0|2:0,0:0:0:0:
313,43,80879,1,0,0:0:0:0:
361,109,81041,1,8,2:0:0:0:
434,67,81204,1,0,0:0:0:0:
189,88,81528,5,0,0:0:0:0:
189,88,81680,2,0,L|2:132,1,149.999998569489,4|2,2:0|2:0,0:0:0:0:
29,210,82167,1,0,0:0:0:0:
29,210,82330,2,0,L|25:269,1,49.9999976158143,8|0,2:0|0:0,0:0:0:0:
168,367,82818,5,0,0:0:0:0:
168,367,82980,1,0,0:0:0:0:
326,256,83468,1,0,0:0:0:0:
326,256,83631,2,0,P|297:210|246:193,1,99.9999952316285,8|2,2:0|2:0,0:0:0:0:
497,124,84262,6,0,L|467:200,1,49.9999976158143,8|0,2:0|0:0,0:0:0:0:
447,346,84743,1,0,0:0:0:0:
447,346,84903,2,0,P|463:297|504:253,1,99.9999952316285,8|2,2:0|2:0,0:0:0:0:
319,259,85545,6,0,L|244:282,1,49.9999976158143
279,144,86187,1,8,2:0:0:0:
357,169,86347,1,0,0:0:0:0:
387,88,86508,1,10,2:0:0:0:
297,55,86668,1,0,0:0:0:0:
266,142,86828,6,0,P|278:225|278:345,1,149.999998569489,4|0,2:0|0:0,0:0:0:0:
357,378,87287,1,0,0:0:0:0:
357,378,87440,2,0,L|362:314,1,49.9999976158143,8|0,2:0|0:0,0:0:0:0:
193,348,87925,5,0,0:0:0:0:
193,348,88086,2,0,P|178:277|113:182,1,149.999992847443
200,149,88733,1,8,2:0:0:0:
134,213,88895,1,0,0:0:0:0:
71,149,89057,1,2,2:0:0:0:
133,84,89218,1,0,0:0:0:0:
211,157,89380,6,0,B|250:188|250:188|389:200,1,149.999998569489,0|2,0:0|2:0,0:0:0:0:
434,131,89862,1,0,0:0:0:0:
434,131,90023,2,0,L|520:129,1,49.9999976158143,8|0,2:0|0:0,0:0:0:0:
456,307,90666,5,0,0:0:0:0:
456,307,90827,1,10,2:0:0:0:
349,196,91149,2,0,L|293:188,1,49.9999976158143,0|8,0:0|2:0,0:0:0:0:
233,41,91792,5,0,0:0:0:0:
190,107,91956,2,0,P|213:208|218:330,1,224.999997854233,4|0,2:0|0:0,0:0:0:0:
126,318,92597,2,0,L|79:336,2,49.9999976158143,8|0|2,2:0|0:0|2:0,0:0:0:0:
231,337,93078,5,0,0:0:0:0:
231,337,93239,2,0,P|303:328|374:330,1,99.9999952316285,0|2,0:0|2:0,0:0:0:0:
419,357,93720,1,0,0:0:0:0:
460,283,93881,2,0,P|456:228|432:140,1,99.9999952316285,8|2,2:0|2:0,0:0:0:0:
350,117,94354,5,0,0:0:0:0:
266,154,94506,1,8,2:0:0:0:
266,154,94663,1,0,0:0:0:0:
80,77,94977,5,0,0:0:0:0:
80,77,95134,2,0,P|76:126|87:185,1,99.9999952316285,8|2,2:0|2:0,0:0:0:0:
140,253,95605,5,0,0:0:0:0:
23,242,95758,2,0,P|36:295|38:340,1,99.9999952316285,8|2,2:0|2:0,0:0:0:0:
48,354,96241,1,0,0:0:0:0:
74,354,96403,1,8,3:0:0:0:
99,373,96564,1,0,0:0:0:0:
196,340,96725,5,12,2:0:0:0:
264,295,96887,1,0,0:0:0:0:
332,353,97052,2,0,P|378:300|463:173,1,199.999990463257,4|8,2:0|2:0,0:0:0:0:
285,49,98363,6,0,L|303:115,1,49.9999976158143
298,97,99019,1,8,2:0:0:0:
173,264,99664,5,8,2:0:0:0:
163,341,99824,1,0,0:0:0:0:
171,45,100305,2,0,P|118:92|11:134,1,149.999992847443,8|0,2:0|0:0,0:0:0:0:
6,124,100947,1,0,0:0:0:0:
4,164,101107,1,0,0:0:0:0:
256,192,101589,5,8,2:0:0:0:
446,259,102070,1,0,0:0:0:0:
468,229,102220,2,0,L|473:295,2,49.9999976158143,8|0|0,2:0|0:0|0:0,0:0:0:0:
508,84,102882,6,0,P|368:113|339:128,1,149.999992847443,8|0,2:0|0:0,0:0:0:0:
340,113,103533,2,0,L|270:100,2,49.9999976158143
458,216,104167,2,0,L|472:332,1,99.9999952316285,8|0,2:0|0:0,0:0:0:0:
351,384,104796,5,0,0:0:0:0:
327,374,104954,2,0,L|338:307,1,49.9999976158143
259,198,105430,2,0,P|252:137|225:15,1,149.999992847443,8|0,2:0|0:0,0:0:0:0:
221,57,106065,6,0,P|257:103|270:107,1,49.9999976158143
470,42,106700,2,0,P|407:40|327:88,1,149.999992847443,8|0,2:0|0:0,0:0:0:0:
233,45,107321,6,0,L|186:27,1,49.9999976158143,8|0,2:0|0:0,0:0:0:0:
21,137,107974,2,0,P|96:147|196:181,1,149.999992847443,8|0,2:0|0:0,0:0:0:0:
284,220,108612,6,0,L|292:153,1,49.9999976158143
289,170,109243,1,8,2:0:0:0:
55,313,109875,5,0,0:0:0:0:
39,237,110040,1,0,0:0:0:0:
177,375,110537,2,0,P|298:342|342:355,1,149.999992847443,8|0,2:0|0:0,0:0:0:0:
427,348,111170,2,0,L|485:320,1,49.9999976158143
267,249,111795,5,8,2:0:0:0:
428,206,112263,1,0,0:0:0:0:
428,206,112426,2,0,L|489:175,2,49.9999976158143,8|0|0,2:0|0:0|0:0,0:0:0:0:
261,261,113064,6,0,P|213:275|81:285,1,149.999992847443,8|0,2:0|0:0,0:0:0:0:
34,184,113682,1,0,0:0:0:0:
34,184,113843,2,0,L|121:177,1,49.9999976158143
224,132,114327,2,0,P|294:152|333:228,1,149.999992847443,8|0,2:0|0:0,0:0:0:0:
417,274,114962,5,0,0:0:0:0:
436,188,115119,2,0,L|448:64,1,99.9999952316285
383,39,115593,1,8,2:0:0:0:
155,92,116067,5,0,0:0:0:0:
105,151,116237,2,0,P|131:215|147:303,1,149.999992847443,8|0,2:0|0:0,0:0:0:0:
108,369,116889,5,8,2:0:0:0:
95,288,117052,1,0,0:0:0:0:
151,207,117215,1,10,2:0:0:0:
148,119,117378,1,0,0:0:0:0:
229,26,117541,6,0,L|457:109,1,224.999997854233,12|0,2:0|0:0,0:0:0:0:
446,213,118196,2,0,L|525:233,2,49.9999976158143,8|0|2,2:0|0:0|2:0,0:0:0:0:
321,154,118694,5,8,2:0:0:0:
321,154,118854,2,0,L|387:168,1,49.9999976158143,0|2,0:0|2:0,0:0:0:0:
146,234,119335,1,0,0:0:0:0:
91,174,119500,2,0,P|36:205|25:264,1,99.9999952316285,8|2,2:0|2:0,0:0:0:0:
46,318,119986,5,0,0:0:0:0:
46,318,120154,2,0,B|115:334|233:355,1,149.999998569489,0|2,0:0|2:0,0:0:0:0:
271,296,120630,1,0,0:0:0:0:
271,296,120788,2,0,P|329:324|362:348,1,99.9999952316285,8|2,2:0|2:0,0:0:0:0:
464,184,121424,5,0,0:0:0:0:
394,238,121584,1,0,0:0:0:0:
312,173,121743,2,0,L|241:186,1,49.9999976158143
162,221,122062,1,8,2:0:0:0:
162,221,122218,2,0,L|151:83,1,99.9999952316285
119,21,122687,6,0,P|219:37|323:60,1,149.999998569489,12|0,2:0|0:0,0:0:0:0:
386,30,123176,1,0,0:0:0:0:
467,91,123339,2,0,P|412:112|366:133,1,99.9999952316285,8|2,2:0|2:0,0:0:0:0:
253,166,123828,6,0,L|239:254,1,49.9999976158143,8|0,2:0|0:0,0:0:0:0:
220,289,124135,2,0,L|227:239,1,49.9999976158143,10|0,2:0|0:0,0:0:0:0:
327,235,124443,5,0,0:0:0:0:
370,308,124597,2,0,P|414:284|463:273,1,99.9999952316285,8|0,2:0|0:0,0:0:0:0:
464,194,125060,5,0,0:0:0:0:
505,109,125215,1,8,2:0:0:0:
405,134,125375,2,0,L|332:117,1,49.9999976158143,8|2,2:0|2:0,0:0:0:0:
266,54,125695,5,0,0:0:0:0:
266,54,125855,2,0,P|211:47|142:32,1,99.9999952316285,8|2,2:0|2:0,0:0:0:0:
97,104,126335,5,0,0:0:0:0:
97,104,126495,2,0,L|145:117,1,49.9999976158143,8|0,2:0|0:0,0:0:0:0:
266,238,126975,5,8,2:0:0:0:
214,311,127135,1,8,3:0:0:0:
131,268,127291,1,0,0:0:0:0:
185,196,127447,1,10,2:0:0:0:
185,196,127603,1,0,0:0:0:0:
274,251,127760,6,0,P|353:241|434:223,1,149.999998569489,4|2,2:0|2:0,0:0:0:0:
474,130,128260,1,0,0:0:0:0:
474,130,128426,2,0,L|398:114,1,49.9999976158143,8|0,2:0|0:0,0:0:0:0:
319,36,128760,2,0,L|253:25,1,49.9999976158143
210,97,129093,6,0,P|130:119|50:160,1,149.999992847443
150,227,129760,2,0,L|203:246,2,49.9999976158143,8|0|2,2:0|0:0|2:0,0:0:0:0:
68,279,130251,5,0,0:0:0:0:
120,345,130415,2,0,P|197:333|287:348,1,149.999998569489,0|2,0:0|2:0,0:0:0:0:
321,276,130901,1,0,0:0:0:0:
321,276,131063,2,0,B|338:230|338:230|308:103,1,149.999998569489,8|2,2:0|2:0,0:0:0:0:
167,154,131712,6,0,P|215:157|246:165,1,49.9999976158143,8|0,2:0|0:0,0:0:0:0:
399,83,132190,1,0,0:0:0:0:
478,107,132350,1,8,2:0:0:0:
450,190,132509,2,0,L|467:304,1,99.9999952316285
359,384,132988,6,0,P|360:319|345:216,1,149.999998569489,4|2,2:0|2:0,0:0:0:0:
254,149,133485,1,0,0:0:0:0:
254,149,133650,2,0,P|253:203|240:282,1,99.9999952316285,8|2,2:0|2:0,0:0:0:0:
235,273,134148,5,0,0:0:0:0:
246,305,134297,1,8,2:0:0:0:
154,343,134457,2,0,L|76:337,2,49.9999976158143,0|2|0,0:0|2:0|0:0,0:0:0:0:
288,382,134937,6,0,P|361:345|431:340,1,149.999992847443,8|0,2:0|0:0,0:0:0:0:
396,252,135577,2,0,P|432:206|450:166,1,99.9999952316285,8|2,2:0|2:0,0:0:0:0:
384,103,136057,5,0,0:0:0:0:
384,103,136217,2,0,L|211:134,1,149.999992847443,8|0,2:0|0:0,0:0:0:0:
197,38,136869,6,0,L|144:24,2,49.9999976158143,8|0|2,2:0|0:0|2:0,0:0:0:0:
236,129,137347,1,0,0:0:0:0:
173,198,137507,1,8,2:0:0:0:
86,158,137666,1,0,0:0:0:0:
236,129,137986,5,0,0:0:0:0:
236,129,138135,2,0,P|231:215|251:308,1,149.999998569489,4|2,2:0|2:0,0:0:0:0:
157,327,138615,1,0,0:0:0:0:
157,327,138775,2,0,P|102:350|51:351,1,99.9999952316285,8|2,2:0|2:0,0:0:0:0:
32,258,139255,5,0,0:0:0:0:
32,258,139415,2,0,L|24:153,1,99.9999952316285,0|2,0:0|2:0,0:0:0:0:
51,67,139895,1,0,0:0:0:0:
15,151,140055,1,8,2:0:0:0:
108,130,140212,2,0,P|159:131|221:137,1,99.9999952316285
305,210,140689,6,0,P|396:196|504:202,1,149.999998569489,0|2,0:0|2:0,0:0:0:0:
511,256,141170,1,0,0:0:0:0:
446,192,141330,2,0,P|447:141|454:88,1,99.9999952316285,8|2,2:0|2:0,0:0:0:0:
292,1,141972,5,0,0:0:0:0:
250,70,142132,1,0,0:0:0:0:
292,198,142453,1,0,0:0:0:0:
339,271,142614,1,8,2:0:0:0:
304,349,142771,2,0,L|187:333,1,99.9999952316285
200,341,143166,5,0,0:0:0:0:
195,347,143245,2,0,P|116:337|36:335,1,149.999998569489,4|2,2:0|2:0,0:0:0:0:
29,220,143721,1,0,0:0:0:0:
121,163,143879,2,0,L|132:233,1,49.9999976158143,8|0,2:0|0:0,0:0:0:0:
261,91,144356,6,0,L|270:36,1,49.9999976158143
343,109,144673,2,0,P|356:184|402:220,1,99.9999952316285
341,286,145149,2,0,L|330:369,1,49.9999976158143,8|0,2:0|0:0,0:0:0:0:
377,197,145630,5,0,0:0:0:0:
418,131,145790,1,8,2:0:0:0:
377,58,145947,1,8,2:0:0:0:
432,0,146105,1,2,2:0:0:0:
270,107,146421,6,0,P|216:96|137:98,1,99.9999952316285,8|2,2:0|2:0,0:0:0:0:
39,42,146880,5,0,0:0:0:0:
39,42,147048,2,0,P|94:29|135:30,1,49.9999976158143,8|0,2:0|0:0,0:0:0:0:
159,103,147357,5,2,2:0:0:0:
114,189,147511,1,8,2:0:0:0:
171,264,147678,2,0,L|185:321,1,49.9999976158143,8|0,3:0|0:0,0:0:0:0:
80,365,147982,5,10,2:0:0:0:
80,365,148134,1,0,0:0:0:0:
193,309,148304,2,0,P|286:271|420:223,1,199.999990463257,4|8,2:0|2:0,0:0:0:0:
440,51,149611,6,0,L|494:33,2,49.9999976158143
341,148,150265,2,0,P|255:161|219:86,1,149.999992847443,8|0,2:0|0:0,0:0:0:0:
238,40,150886,5,0,0:0:0:0:
238,40,151052,1,0,0:0:0:0:
208,246,151552,1,8,2:0:0:0:
39,218,152212,5,8,2:0:0:0:
39,218,152369,2,0,P|88:249|97:353,1,149.999992847443,0|8,0:0|2:0,0:0:0:0:
111,146,153317,5,0,0:0:0:0:
40,89,153458,1,8,2:0:0:0:
116,135,153621,2,0,P|196:119|249:116,1,99.9999952316285
225,103,154110,2,0,L|354:134,1,99.9999952316285,8|0,2:0|0:0,0:0:0:0:
465,268,154746,5,0,0:0:0:0:
463,281,154903,2,0,L|337:248,1,99.9999952316285
272,291,155377,2,0,L|222:283,2,49.9999976158143,8|0|0,2:0|0:0|0:0,0:0:0:0:
373,248,155998,5,0,0:0:0:0:
342,174,156153,1,0,0:0:0:0:
446,81,156463,1,0,0:0:0:0:
479,12,156618,1,8,2:0:0:0:
373,248,157238,5,0,0:0:0:0:
294,281,157393,1,0,0:0:0:0:
232,214,157548,1,0,0:0:0:0:
280,134,157703,1,0,0:0:0:0:
220,212,157858,6,0,P|135:252|46:262,1,149.999992847443,8|0,2:0|0:0,0:0:0:0:
8,197,158482,5,8,2:0:0:0:
8,197,158650,2,0,P|22:124|22:71,1,99.9999952316285
47,12,159156,2,0,P|104:10|149:52,1,99.9999952316285,8|0,2:0|0:0,0:0:0:0:
314,83,159794,5,0,0:0:0:0:
314,83,159951,2,0,P|253:102|210:157,1,99.9999952316285
140,147,160425,2,0,L|156:260,1,99.9999952316285,8|0,2:0|0:0,0:0:0:0:
293,278,161052,5,0,0:0:0:0:
293,278,161216,2,0,L|287:343,1,49.9999976158143
395,238,161711,2,0,P|383:179|353:123,1,99.9999952316285,8|0,2:0|0:0,0:0:0:0:
359,31,162348,5,0,0:0:0:0:
359,31,162504,2,0,L|296:47,1,49.9999976158143
159,80,162973,2,0,P|239:137|253:161,1,99.9999952316285,8|0,2:0|0:0,0:0:0:0:
209,224,163441,5,0,0:0:0:0:
141,166,163590,1,8,2:0:0:0:
246,133,163754,2,0,P|321:131|392:156,1,149.999992847443,0|8,0:0|2:0,0:0:0:0:
394,158,164872,5,0,0:0:0:0:
410,178,165031,2,0,L|340:217,1,49.9999976158143
185,127,165510,2,0,L|118:107,1,49.9999976158143,8|0,2:0|0:0,0:0:0:0:
279,22,166142,5,0,0:0:0:0:
332,101,166299,1,0,0:0:0:0:
267,167,166457,1,0,0:0:0:0:
328,254,166615,2,0,L|350:194,1,49.9999976158143,0|8,0:0|2:0,0:0:0:0:
48,114,167247,5,0,0:0:0:0:
76,187,167410,2,0,P|93:256|98:303,1,99.9999952316285
69,361,167873,1,0,0:0:0:0:
91,282,168028,1,8,2:0:0:0:
175,303,168183,1,0,0:0:0:0:
157,379,168337,1,2,2:0:0:0:
266,334,168492,5,0,0:0:0:0:
266,334,168652,2,0,P|284:252|288:117,1,149.999998569489,12|0,2:0|0:0,0:0:0:0:
386,108,169163,1,0,0:0:0:0:
386,108,169333,2,0,L|397:183,2,49.9999976158143,8|0|2,2:0|0:0|2:0,0:0:0:0:
312,50,169810,5,8,2:0:0:0:
312,50,169971,2,0,P|240:74|152:73,1,149.999992847443
81,45,170616,1,8,2:0:0:0:
89,130,170775,2,0,P|83:172|135:237,1,99.9999952316285
225,177,171258,6,0,P|273:192|379:205,1,149.999998569489,0|2,0:0|2:0,0:0:0:0:
447,162,171721,1,0,0:0:0:0:
447,162,171876,2,0,L|455:275,1,99.9999952316285,8|2,2:0|2:0,0:0:0:0:
305,151,172498,6,0,L|308:93,1,49.9999976158143,8|0,2:0|0:0,0:0:0:0:
511,103,172971,1,0,0:0:0:0:
511,103,173129,2,0,P|469:41|394:35,1,149.999992847443,8|0,2:0|0:0,0:0:0:0:
306,90,173750,6,0,L|137:142,1,149.999998569489,8|2,2:0|2:0,0:0:0:0:
79,204,174239,1,0,0:0:0:0:
79,204,174402,2,0,P|74:143|41:103,1,99.9999952316285,8|2,2:0|2:0,0:0:0:0:
23,22,174860,6,0,P|126:42|197:59,1,149.999992847443,8|0,2:0|0:0,0:0:0:0:
218,126,175491,1,0,0:0:0:0:
296,92,175649,2,0,P|357:104|443:124,1,149.999992847443,8|0,2:0|0:0,0:0:0:0:
507,71,176264,5,8,2:0:0:0:
444,131,176417,1,0,0:0:0:0:
325,289,176723,1,0,0:0:0:0:
260,236,176876,2,0,P|204:257|139:300,1,99.9999952316285,8|2,2:0|2:0,0:0:0:0:
16,337,177500,5,8,2:0:0:0:
16,337,177657,2,0,L|83:356,1,49.9999976158143
174,384,177978,6,0,L|241:359,2,49.9999976158143,0|8|0,0:0|2:0|0:0,0:0:0:0:
138,308,178432,1,8,2:0:0:0:
211,241,178584,5,0,0:0:0:0:
286,304,178738,2,0,P|361:298|434:255,1,149.999998569489,4|2,2:0|2:0,0:0:0:0:
385,92,179199,1,0,0:0:0:0:
385,92,179353,2,0,P|370:158|378:196,1,99.9999952316285,8|2,2:0|2:0,0:0:0:0:
179,123,179990,5,0,0:0:0:0:
179,123,180140,2,0,L|110:141,1,49.9999976158143,10|0,2:0|0:0,0:0:0:0:
61,58,180440,1,0,0:0:0:0:
61,58,180590,2,0,P|136:40|212:28,1,149.999992847443,8|0,2:0|0:0,0:0:0:0:
287,72,181200,6,0,P|364:78|438:71,1,149.999998569489,8|2,2:0|2:0,0:0:0:0:
491,143,181673,1,0,0:0:0:0:
431,208,181831,2,0,B|449:258|449:258|428:315,1,99.9999952316285,8|2,2:0|2:0,0:0:0:0:
263,328,182456,6,0,B|245:278|245:278|266:224,1,99.9999952316285,8|2,2:0|2:0,0:0:0:0:
348,165,182924,1,0,0:0:0:0:
428,214,183081,1,8,3:0:0:0:
428,214,183237,2,0,L|453:155,1,49.9999976158143,0|10,0:0|2:0,0:0:0:0:
439,41,183698,2,0,P|327:67|238:70,1,149.999998569489,4|2,2:0|2:0,0:0:0:0:
194,118,184176,1,0,0:0:0:0:
266,159,184336,2,0,L|345:172,2,49.9999976158143,8|0|2,2:0|0:0|2:0,0:0:0:0:
185,129,184820,5,8,2:0:0:0:
122,203,184974,2,0,P|59:234|43:332,1,149.999992847443
47,308,185593,2,0,P|54:253|13:205,1,99.9999952316285,8|2,2:0|2:0,0:0:0:0:
57,137,186047,5,0,0:0:0:0:
13,62,186206,1,0,0:0:0:0:
77,0,186367,1,0,0:0:0:0:
157,39,186528,2,0,L|232:54,1,49.9999976158143,2|0,2:0|0:0,0:0:0:0:
284,115,186851,2,0,P|352:93|472:100,1,179.999985923768,8|0,2:0|0:0,0:0:0:0:
486,192,187476,5,8,2:0:0:0:
454,109,187633,1,0,0:0:0:0:
432,266,187949,5,0,0:0:0:0:
459,341,188107,1,8,2:0:0:0:
386,362,188268,1,0,0:0:0:0:
357,289,188429,1,10,2:0:0:0:
437,261,188590,1,0,0:0:0:0:
494,196,188744,6,0,L|508:136,1,49.9999976158143,4|0,2:0|0:0,0:0:0:0:
424,106,189123,2,0,L|416:47,1,49.9999976158143
314,16,189456,1,8,2:0:0:0:
314,16,189628,2,0,P|271:34|191:36,1,99.9999952316285
91,96,190130,6,0,L|152:116,1,49.9999976158143,4|0,2:0|0:0,0:0:0:0:
234,170,190474,2,0,L|172:192,1,49.9999976158143
130,286,190788,1,8,2:0:0:0:
130,286,190954,2,0,P|176:303|239:331,1,99.9999952316285
323,372,191472,6,0,B|318:332|318:332|354:241,1,99.9999952316285,4|0,2:0|0:0,0:0:0:0:
379,142,192136,1,8,2:0:0:0:
379,142,192303,2,0,P|378:81|355:43,1,99.9999952316285
433,14,192777,5,8,2:0:0:0:
361,58,192938,1,0,0:0:0:0:
282,19,193100,1,2,2:0:0:0:
222,75,193262,1,0,0:0:0:0:
140,124,193423,5,8,3:0:0:0:
220,85,193585,1,0,0:0:0:0:
295,134,193747,1,10,2:0:0:0:
360,68,193909,1,0,0:0:0:0:
292,143,194078,6,0,L|277:219,1,49.9999976158143,4|0,2:0|0:0,0:0:0:0:
342,292,194412,2,0,L|352:233,1,49.9999976158143
238,299,194746,1,8,2:0:0:0:
238,299,194913,2,0,P|178:315|134:337,1,99.9999952316285
22,309,195415,6,0,L|83:265,1,49.9999976158143,4|0,2:0|0:0,0:0:0:0:
69,184,195752,2,0,L|132:136,1,49.9999976158143
209,204,196089,1,8,2:0:0:0:
209,204,196257,2,0,P|221:143|210:99,1,99.9999952316285
139,23,196763,6,0,L|127:85,1,49.9999976158143,4|0,2:0|0:0,0:0:0:0:
216,97,197096,2,0,L|226:155,1,49.9999976158143
186,248,197429,1,8,2:0:0:0:
186,248,197596,2,0,P|283:238|316:250,1,99.9999952316285
359,298,198088,5,8,2:0:0:0:
448,345,198247,1,0,0:0:0:0:
376,371,198407,1,2,2:0:0:0:
436,274,198567,1,0,0:0:0:0:
375,183,198726,2,0,L|467:198,1,49.9999976158143,8|0,3:0|0:0,0:0:0:0:
390,78,199045,2,0,L|482:93,1,49.9999976158143,10|0,2:0|0:0,0:0:0:0:
306,103,199372,6,0,L|226:98,1,49.9999976158143
187,16,199713,2,0,L|257:24,1,49.9999976158143
248,107,200055,1,8,2:0:0:0:
207,178,200226,1,0,0:0:0:0:
304,304,200568,5,0,0:0:0:0:
304,304,200720,2,0,P|320:249|375:181,1,119.999990615845,4|0,2:0|0:0,0:0:0:0:
477,145,201401,1,8,2:0:0:0:
440,70,201572,1,0,0:0:0:0:
458,267,201913,5,0,0:0:0:0:
497,348,202088,2,0,L|379:381,1,99.9999952316285,4|0,2:0|0:0,0:0:0:0:
236,354,202747,1,8,2:0:0:0:
161,326,202892,2,0,P|179:259|232:247,1,99.9999952316285
281,255,203384,6,0,L|301:204,1,49.9999976158143,8|0,2:0|0:0,0:0:0:0:
178,187,203696,2,0,L|208:271,1,49.9999976158143,2|0,2:0|0:0,0:0:0:0:
297,196,204009,1,8,3:0:0:0:
321,113,204165,1,0,0:0:0:0:
242,66,204321,1,10,2:0:0:0:
299,7,204477,1,0,0:0:0:0:
235,75,204646,6,0,P|151:83|97:78,1,99.9999952316285,4|2,2:0|0:2,0:0:0:0:
25,161,205331,1,8,2:0:0:0:
25,161,205503,2,0,P|86:166|131:169,1,99.9999952316285
233,171,206016,6,0,L|222:228,1,49.9999976158143,4|0,2:0|0:0,0:0:0:0:
148,274,206353,2,0,L|159:331,1,49.9999976158143,2|0,0:2|0:0,0:0:0:0:
242,368,206690,1,8,2:0:0:0:
242,368,206858,2,0,P|267:321|321:313,1,99.9999952316285
412,321,207350,6,0,L|423:375,1,49.9999976158143,4|0,2:0|0:0,0:0:0:0:
476,254,207683,2,0,L|466:201,1,49.9999976158143,2|0,0:2|0:0,0:0:0:0:
397,141,208016,1,8,2:0:0:0:
390,45,208183,2,0,L|372:162,1,99.9999952316285
302,189,208668,6,0,L|222:170,1,49.9999976158143,8|8,2:0|2:0,0:0:0:0:
131,112,208987,2,0,L|201:96,1,49.9999976158143,2|0,2:0|0:0,0:0:0:0:
238,33,209306,5,8,2:0:0:0:
190,108,209471,1,8,2:0:0:0:
252,187,209637,1,10,2:0:0:0:
209,271,209803,1,0,0:0:0:0:
107,371,209968,5,12,2:0:0:0:
256,192,210134,12,0,220576,0:0:0:0:
198,201,221158,6,0,P|133:142|23:72,1,149.999998569489,4|0,2:0|0:0,0:0:0:0:
55,22,221681,1,0,0:0:0:0:
162,31,221855,2,0,P|213:93|229:144,1,74.9999992847443,8|0,2:0|0:0,0:0:0:0:
190,195,222204,1,2,2:0:0:0:
275,239,222324,5,0,0:0:0:0:
275,239,222487,2,0,P|331:226|421:246,1,149.999992847443
427,251,223139,2,0,P|366:229|348:141,1,149.999992847443,8|0,2:0|0:0,0:0:0:0:
259,89,223778,6,0,L|240:221,1,99.9999952316285,0|2,0:0|2:0,0:0:0:0:
172,216,224256,1,0,0:0:0:0:
259,199,224416,2,0,P|250:251|247:298,1,99.9999952316285,8|2,2:0|2:0,0:0:0:0:
152,329,225022,6,0,P|155:266|166:211,1,99.9999952316285,8|2,2:0|2:0,0:0:0:0:
76,183,225490,1,0,0:0:0:0:
177,227,225647,1,8,2:0:0:0:
128,53,225959,2,0,L|137:108,1,49.9999976158143,10|0,2:0|0:0,0:0:0:0:
232,121,226280,6,0,P|346:110|426:140,1,149.999998569489,0|2,0:0|2:0,0:0:0:0:
468,67,226763,1,0,0:0:0:0:
496,160,226925,2,0,B|454:192|454:192|477:322,1,149.999998569489,8|2,2:0|2:0,0:0:0:0:
368,356,227388,6,0,L|371:305,1,49.9999976158143,0|2,0:0|2:0,0:0:0:0:
237,246,228013,1,0,0:0:0:0:
237,246,228169,2,0,P|166:192|70:211,1,149.999992847443,8|0,2:0|0:0,0:0:0:0:
20,170,228796,5,4,2:0:0:0:
100,204,228949,1,0,0:0:0:0:
239,140,229257,1,0,0:0:0:0:
311,167,229411,2,0,L|422:148,1,99.9999952316285,8|2,2:0|2:0,0:0:0:0:
501,65,229866,5,0,0:0:0:0:
501,65,230022,1,8,2:0:0:0:
501,65,230178,2,0,L|498:121,1,49.9999976158143,0|2,0:0|2:0,0:0:0:0:
424,13,230494,1,0,0:0:0:0:
368,73,230662,1,8,3:0:0:0:
409,150,230831,2,0,L|404:219,1,49.9999976158143,8|10,2:0|2:0,0:0:0:0:
463,273,231128,5,0,0:0:0:0:
463,273,231287,2,0,P|380:293|264:307,1,149.999998569489,4|2,2:0|2:0,0:0:0:0:
218,265,231755,1,0,0:0:0:0:
218,265,231912,2,0,L|122:297,1,74.9999992847443,8|0,2:0|0:0,0:0:0:0:
64,343,232224,5,2,2:0:0:0:
64,343,232390,2,0,P|43:280|-10:237,1,99.9999952316285,8|8,2:0|2:0,0:0:0:0:
65,77,232984,1,0,0:0:0:0:
65,77,233132,2,0,P|98:22|192:27,1,149.999992847443,8|0,2:0|0:0,0:0:0:0:
232,83,233757,6,0,B|307:112|306:190|395:157,1,149.999992847443,8|0,2:0|0:0,0:0:0:0:
374,155,234382,2,0,P|300:181|279:205,1,99.9999952316285,0|2,0:0|2:0,0:0:0:0:
224,292,234842,2,0,P|206:223|192:175,1,99.9999952316285
310,359,235457,5,0,0:0:0:0:
217,305,235611,1,8,2:0:0:0:
348,267,235772,2,0,L|453:291,1,99.9999952316285
432,191,236256,6,0,P|341:177|204:137,1,224.999997854233,12|0,2:0|0:0,0:0:0:0:
117,190,236816,2,0,P|166:220|178:264,1,99.9999952316285,8|2,2:0|2:0,0:0:0:0:
109,318,237276,5,0,0:0:0:0:
109,318,237424,1,0,0:0:0:0:
54,123,237870,1,0,0:0:0:0:
54,123,238028,2,0,L|194:100,1,99.9999952316285,8|2,2:0|2:0,0:0:0:0:
290,19,238622,2,0,L|427:24,1,99.9999952316285,8|2,2:0|2:0,0:0:0:0:
454,73,239072,5,8,2:0:0:0:
417,143,239223,1,0,0:0:0:0:
346,100,239375,1,2,2:0:0:0:
382,27,239526,1,8,2:0:0:0:
340,109,239678,6,0,L|290:116,1,49.9999976158143,0|2,0:0|2:0,0:0:0:0:
214,89,239954,1,8,2:0:0:0:
157,147,240095,2,0,L|164:196,1,49.9999976158143,8|8,2:0|2:0,0:0:0:0:
125,333,240452,5,0,0:0:0:0:
125,333,240599,2,0,L|82:350,2,24.9999988079071
66,254,240893,1,0,0:0:0:0:
74,152,241040,6,0,P|164:174|246:203,1,149.999998569489,12|2,2:0|2:0,0:0:0:0:
317,258,241513,1,0,0:0:0:0:
317,258,241671,2,0,P|360:178|348:93,1,149.999998569489,8|8,2:0|2:0,0:0:0:0:
291,24,242126,6,0,L|281:93,1,49.9999976158143,8|0,2:0|0:0,0:0:0:0:
221,136,242441,2,0,L|232:204,2,49.9999976158143,8|0|0,2:0|0:0|0:0,0:0:0:0:
166,69,242915,2,0,B|126:38|126:38|24:47,1,149.999992847443,8|0,2:0|0:0,0:0:0:0:
62,132,243510,6,0,P|56:189|42:234,1,99.9999952316285,0|2,0:0|2:0,0:0:0:0:
0,301,243964,1,0,0:0:0:0:
0,301,244116,1,8,2:0:0:0:
173,245,244408,2,0,P|200:292|230:331,1,99.9999952316285,2|8,2:0|2:0,0:0:0:0:
221,356,244862,1,0,0:0:0:0:
311,321,245014,6,0,L|386:331,1,49.9999976158143
487,364,245317,2,0,L|428:378,1,49.9999976158143,8|0,2:0|0:0,0:0:0:0:
306,312,245620,2,0,L|381:322,1,49.9999976158143,2|0,2:0|0:0,0:0:0:0:
427,260,245938,6,0,P|431:196|414:94,1,149.999998569489,12|2,2:0|2:0,0:0:0:0:
395,25,246399,1,0,0:0:0:0:
395,25,246553,2,0,P|328:96|356:129,1,149.999998569489,8|2,2:0|2:0,0:0:0:0:
346,139,247016,6,0,L|280:130,1,49.9999976158143,8|0,2:0|0:0,0:0:0:0:
108,57,247634,1,0,0:0:0:0:
108,57,247798,2,0,L|241:82,1,99.9999952316285,8|2,2:0|2:0,0:0:0:0:
351,246,248392,6,0,P|273:218|213:210,1,99.9999952316285,8|2,2:0|2:0,0:0:0:0:
94,152,249010,2,0,P|95:215|64:255,1,99.9999952316285,8|2,2:0|2:0,0:0:0:0:
0,220,249474,1,0,0:0:0:0:
83,257,249642,6,0,L|147:242,2,49.9999976158143,8|0|2,2:0|0:0|2:0,0:0:0:0:
19,335,250100,2,0,P|87:343|153:363,1,99.9999952316285
220,317,250556,5,10,2:0:0:0:
287,373,250717,1,0,0:0:0:0:
370,310,250878,1,12,2:0:0:0:
201,319,251193,6,0,P|207:244|161:141,2,149.999998569489,2|8|2,2:0|2:0|2:0,0:0:0:0:
119,359,251996,2,0,L|55:368,1,49.9999976158143,8|0,2:0|0:0,0:0:0:0:
240,243,252578,5,0,0:0:0:0:
240,243,252722,2,0,P|300:229|371:220,1,99.9999952316285,8|2,2:0|2:0,0:0:0:0:
410,108,253328,2,0,P|330:82|257:86,1,149.999992847443
200,15,253940,2,0,P|139:35|90:73,1,99.9999952316285,8|2,2:0|2:0,2:0:0:0:
128,224,254552,6,0,L|69:211,2,49.9999976158143,8|0|0,2:0|0:0|0:0,0:0:0:0:
220,164,254995,2,0,L|280:151,1,49.9999976158143,8|0,2:0|0:0,0:0:0:0:
437,191,255438,5,8,3:0:0:0:
216,153,255746,1,12,2:0:0:0:
153,206,255897,1,0,0:0:0:0:
79,170,256049,1,2,2:0:0:0:
7,216,256201,1,0,0:0:0:0:
77,153,256353,6,0,P|144:104|210:41,1,149.999998569489,8|2,2:0|2:0,0:0:0:0:
414,48,256961,2,0,L|439:-9,2,49.9999976158143,0|8|0,0:0|2:0|0:0,0:0:0:0:
322,99,257416,1,0,0:0:0:0:
211,66,257568,2,0,P|140:78|77:76,1,99.9999952316285,8|2,2:0|2:0,0:0:0:0:
275,189,258176,5,8,2:0:0:0:
275,189,258327,2,0,L|335:202,2,49.9999976158143,0|2|0,0:0|2:0|0:0,0:0:0:0:
191,244,258782,2,0,P|131:267|64:282,1,99.9999952316285,8|2,2:0|2:0,0:0:0:0:
63,131,259414,6,0,L|13:120,1,49.9999976158143,8|0,2:0|0:0,0:0:0:0:
20,212,259711,1,0,0:0:0:0:
83,274,259859,1,8,2:0:0:0:
32,368,260008,6,0,L|90:378,1,49.9999976158143
159,378,260305,2,0,L|100:366,1,49.9999976158143,12|0,2:0|0:0,0:0:0:0:
96,276,260618,6,0,P|162:236|228:199,1,149.999998569489,12|2,2:0|2:0,0:0:0:0:
289,244,261091,1,0,0:0:0:0:
347,163,261249,2,0,P|428:128|489:103,1,149.999998569489,8|2,2:0|2:0,0:0:0:0:
512,197,261730,5,8,2:0:0:0:
441,273,261868,1,0,0:0:0:0:
484,359,262007,1,8,2:0:0:0:
499,189,262285,1,2,2:0:0:0:
466,107,262466,2,0,L|482:50,2,49.9999976158143,8|0|2,2:0|0:0|2:0,0:0:0:0:
318,91,263078,5,8,2:0:0:0:
273,115,263231,2,0,L|259:273,1,149.999992847443
236,342,263690,2,0,L|225:180,1,149.999998569489,8|2,2:0|2:0,0:0:0:0:
62,124,264302,1,8,2:0:0:0:
62,124,264438,2,0,P|84:167|64:217,1,99.9999952316285
50,217,264897,2,0,P|112:199|163:224,1,99.9999952316285,8|10,3:0|2:0,0:0:0:0:
141,304,265342,5,0,0:0:0:0:
141,304,265500,2,0,B|175:318|175:318|350:278,1,149.999998569489,12|2,2:0|2:0,0:0:0:0:
301,303,265963,1,0,0:0:0:0:
394,336,266118,2,0,P|398:296|406:252,1,74.9999992847443,8|0,2:0|0:0,0:0:0:0:
465,192,266418,5,8,2:0:0:0:
494,279,266566,1,0,0:0:0:0:
349,188,266892,2,0,L|281:212,2,49.9999976158143,0|2|0,0:0|2:0|0:0,0:0:0:0:
382,109,267324,2,0,P|353:77|274:62,1,99.9999952316285,8|2,2:0|2:0,0:0:0:0:
122,88,267948,6,0,P|196:106|246:151,1,99.9999952316285,8|2,2:0|2:0,0:0:0:0:
294,53,268530,2,0,P|359:58|408:49,1,99.9999952316285,8|2,2:0|2:0,0:0:0:0:
393,52,268974,6,0,P|407:146|407:192,1,99.9999952316285
316,231,269452,2,0,P|315:162|327:129,1,99.9999952316285,8|2,2:0|2:0,0:0:0:0:
161,142,270070,6,0,P|157:78|136:28,1,99.9999952316285,8|0,2:0|0:0,0:0:0:0:
234,193,270670,1,2,2:0:0:0:
177,254,270815,1,0,0:0:0:0:
177,254,270966,2,0,B|211:283|211:283|352:307,1,139.999989051819,8|2,2:0|2:0,0:0:0:0:
388,358,271429,1,8,2:0:0:0:
469,322,271584,1,0,0:0:0:0:
463,242,271739,2,0,L|436:174,2,49.9999976158143,8|2|0,2:0|2:0|0:0,0:0:0:0:
481,328,272178,5,8,2:0:0:0:
328,317,272484,1,8,2:0:0:0:
328,317,272637,1,0,0:0:0:0:
328,317,272790,2,0,L|169:350,1,139.999989051819,8|2,2:0|2:0,0:0:0:0:
120,307,273244,5,0,0:0:0:0:
164,239,273396,2,0,P|153:185|63:126,1,149.999992847443,8|0,2:0|0:0,0:0:0:0:
42,46,274002,5,8,2:0:0:0:
72,134,274153,1,0,0:0:0:0:
72,134,274300,1,2,2:0:0:0:
22,208,274447,1,0,0:0:0:0:
22,208,274594,1,8,3:0:0:0:
68,287,274748,2,0,L|54:335,2,49.9999976158143,0|0|2,0:0|0:0|2:0,0:0:0:0:
153,256,275236,6,0,P|218:239|368:255,1,199.999990463257,8|8,2:0|2:0,0:0:0:0:
455,152,276149,1,2,2:0:0:0:
455,152,276298,2,0,P|386:137|324:130,1,119.999994277954
320,135,276923,1,2,2:0:0:0:
297,148,277079,2,0,L|220:127,2,49.9999976158143,8|0|2,2:0|0:0|2:0,0:0:0:0:
350,229,277547,5,0,0:0:0:0:
350,229,277704,2,0,L|416:252,1,39.9999980926514,8|0,2:0|0:0,0:0:0:0:
227,288,278136,1,0,0:0:0:0:
216,293,278280,2,0,L|281:316,1,39.9999980926514,8|0,2:0|0:0,0:0:0:0:
350,229,278747,5,0,0:0:0:0:
306,48,279041,1,0,0:0:0:0:
306,48,279188,1,8,3:0:0:0:
225,2,279335,1,0,0:0:0:0:
145,6,279502,2,0,L|75:44,2,49.9999976158143,8|0|10,2:0|0:0|2:0,0:0:0:0:
256,192,280120,5,12,2:0:0:0:
256,192,280275,12,0,299295,0:0:0:0:
