osu file format v14

[General]
AudioFilename: audio.ogg
AudioLeadIn: 0
PreviewTime: 15
Countdown: 0
SampleSet: Normal
StackLeniency: 0.7
Mode: 0
LetterboxInBreaks: 0
WidescreenStoryboard: 0

[Editor]
Bookmarks: 24057,45329,66083,81680,97052,112426,127760,144514,148304,168652,188744,209968,221158,241040,260618,280120
DistanceSpacing: 0.1
BeatDivisor: 4
GridSize: 4
TimelineZoom: 1.9

[Metadata]
Title:Be Quiet and Drive (Far Away)
TitleUnicode:Be Quiet and Drive (Far Away)
Artist:Deftones
ArtistUnicode:Deftones
Creator:aishiteiru-
Version:far
Source:
Tags:english around the fur nu metal alternative rock mirash semaphore riffy myahkey godsenger florescence
BeatmapID:3476336
BeatmapSetID:1701335

[Difficulty]
HPDrainRate:5.5
CircleSize:4.4
OverallDifficulty:8.5
ApproachRate:9.2
SliderMultiplier:3.59999990463257
SliderTickRate:1

[Events]
//Background and Video events
0,0,"21782.jpg",0,0
//Break Periods
//Storyboard Layer 0 (Background)
//Storyboard Layer 1 (Fail)
//Storyboard Layer 2 (Pass)
//Storyboard Layer 3 (Foreground)
//Storyboard Layer 4 (Overlay)
//Storyboard Sound Samples

[TimingPoints]
24042,674.157303370787,4,1,1,65,1,0
25394,689.655172413793,4,1,1,65,1,0
26762,689.655172413793,4,1,1,65,1,0
28110,666.666666666667,4,1,1,65,1,0
29466,674.157303370786,4,1,1,65,1,0
30802,681.818181818182,4,1,1,65,1,0
32122,657.534246575342,4,1,1,65,1,0
34772,677.966101694915,4,1,1,65,1,0
36094,677.966101694915,4,1,1,65,1,0
37439,666.666666666666,4,1,1,65,1,0
38105,652.173913043479,4,1,1,65,1,0
40067,655.737704918032,4,1,1,65,1,0
41370,652.173913043479,4,1,1,65,1,0
42680,666.666666666666,4,1,1,65,1,0
44003,646.900269541779,4,1,1,65,1,0
44649,681.818181818183,4,1,1,65,1,0
45329,674.157303370787,4,1,1,65,1,0
45329,-125,4,1,1,65,0,0
46003,659.340659340661,4,1,1,65,1,0
46003,-125,4,1,1,65,0,0
47969,655.737704918034,4,1,1,65,1,0
49288,643.43163538874,4,1,1,65,1,0
50574,628.272251308902,4,1,1,65,1,0
51202,652.173913043479,4,1,1,65,1,0
53158,659.34065934066,4,1,1,65,1,0
54466,638.297872340427,4,1,1,65,1,0
55734,674.157303370788,4,1,1,65,1,0
57066,652.173913043479,4,1,1,65,1,0
58362,662.983425414365,4,1,1,65,1,0
59686,641.711229946524,4,1,1,65,1,0
62231,648.648648648649,4,1,1,65,1,0
63530,638.297872340425,4,1,1,65,1,0
66083,655.737704918034,4,1,1,65,1,0
66083,-66.6666666666667,4,1,1,65,0,0
66738,-100,4,1,1,65,0,0
67232,659.34065934066,4,1,1,65,1,0
68070,625,4,1,1,65,1,0
68718,648.648648648649,4,1,1,65,1,0
68718,-66.6666666666667,4,1,1,65,0,0
69204,-100,4,1,1,65,0,0
69997,655.737704918034,4,1,1,65,1,0
71307,638.297872340426,4,1,1,65,1,0
71307,-66.6666666666667,4,1,1,65,0,0
71785,-100,4,1,1,65,0,0
72444,625,4,1,1,65,1,0
73233,648.648648648649,4,1,1,65,1,0
73854,634.920634920636,4,1,1,65,1,0
75123,670.391061452514,4,1,1,65,1,0
75785,645.161290322581,4,1,1,65,1,0
76439,659.34065934066,4,1,1,65,1,0
77770,662.983425414365,4,1,1,65,1,0
79096,648.648648648649,4,1,1,65,1,0
81680,650.406504065041,4,1,1,65,1,0
84262,641.711229946524,4,1,1,65,1,0
86828,612.244897959184,4,1,1,65,1,0
87440,646.900269541779,4,1,1,65,1,0
89380,643.43163538874,4,1,1,65,1,0
91956,641.711229946524,4,1,1,65,1,0
93881,631.578947368422,4,1,1,65,1,0
94506,628.272251308901,4,1,1,65,1,0
95758,645.161290322581,4,1,1,65,1,0
97052,655.737704918033,4,1,1,65,1,0
97052,-500,4,1,1,55,0,0
99019,645.161290322581,4,1,1,55,1,0
99019,-500,4,1,1,55,0,0
99664,641.711229946525,4,1,1,55,1,0
99664,-500,4,1,1,55,0,0
102220,662.983425414365,4,1,1,55,1,0
102220,-500,4,1,1,55,0,0
103533,634.920634920636,4,1,1,55,1,0
103533,-500,4,1,1,55,0,0
104796,634.920634920635,4,1,1,55,1,0
104796,-500,4,1,1,55,0,0
106700,621.761658031089,4,1,1,55,1,0
106700,-500,4,1,1,55,0,0
107321,653.950953678475,4,1,1,55,1,0
107321,-500,4,1,1,55,0,0
108612,631.578947368422,4,1,1,55,1,0
108612,-500,4,1,1,55,0,0
109875,662.983425414365,4,1,1,55,1,0
109875,-500,4,1,1,55,0,0
111170,625.000000000001,4,1,1,55,1,0
111170,-500,4,1,1,55,0,0
112426,638.297872340426,4,1,1,55,1,0
112426,-500,4,1,1,55,0,0
113682,645.161290322581,4,1,1,55,1,0
113682,-500,4,1,1,55,0,0
114962,631.578947368421,4,1,1,55,1,0
114962,-500,4,1,1,55,0,0
116237,652.173913043479,4,1,1,55,1,0
116237,-250,4,1,1,55,0,0
116889,-250,4,1,1,65,0,0
117541,655.737704918033,4,1,1,65,1,0
117541,-66.6666666666667,4,1,1,65,0,0
118196,-100,4,1,1,65,0,0
118694,641.711229946524,4,1,1,65,1,0
119500,648.648648648649,4,1,1,65,1,0
120154,634.920634920636,4,1,1,65,1,0
121265,638.297872340426,4,1,1,65,1,0
122062,625,4,1,1,65,1,0
122687,652.173913043479,4,1,1,65,1,0
122687,-66.6666666666667,4,1,1,65,0,0
123339,-100,4,1,1,65,0,0
123828,615.384615384616,4,1,1,65,1,0
124597,618.556701030928,4,1,1,65,1,0
125215,640,4,1,1,65,1,0
127135,625,4,1,1,65,1,0
127760,666.666666666667,4,1,1,65,1,0
129760,655.737704918034,4,1,1,65,1,0
130415,648.648648648649,4,1,1,65,1,0
131712,638.297872340426,4,1,1,65,1,0
132988,662.983425414365,4,1,1,65,1,0
134297,640,4,1,1,65,1,0
136217,652.173913043479,4,1,1,65,1,0
136869,638.297872340426,4,1,1,65,1,0
138135,640,4,1,1,65,1,0
140055,631.578947368421,4,1,1,65,1,0
140689,641.711229946524,4,1,1,65,1,0
142614,631.578947368422,4,1,1,65,1,0
143245,634.920634920636,4,1,1,65,1,0
145149,641.711229946524,4,1,1,65,1,0
145790,631.578947368422,4,1,1,65,1,0
146421,612.244897959184,4,1,1,65,1,0
147048,618.556701030928,4,1,1,65,1,0
147678,609.137055837564,4,1,1,65,1,0
148304,653.950953678475,4,1,1,55,1,0
148304,-500,4,1,1,55,0,0
150886,666.666666666667,4,1,1,55,1,0
150886,-500,4,1,1,55,0,0
152212,631.578947368421,4,1,1,55,1,0
152212,-500,4,1,1,55,0,0
153458,652.173913043479,4,1,1,55,1,0
153458,-500,4,1,1,55,0,0
154746,631.578947368422,4,1,1,55,1,0
154746,-500,4,1,1,55,0,0
155998,620.15503875969,4,1,1,55,1,0
155998,-500,4,1,1,55,0,0
158482,674.157303370787,4,1,1,55,1,0
158482,-500,4,1,1,55,0,0
159794,631.578947368422,4,1,1,55,1,0
159794,-500,4,1,1,55,0,0
161052,659.34065934066,4,1,1,55,1,0
161052,-500,4,1,1,55,0,0
162348,625.000000000001,4,1,1,55,1,0
162348,-500,4,1,1,55,0,0
163590,659.34065934066,4,1,1,55,1,0
163590,-500,4,1,1,55,0,0
164872,638.297872340426,4,1,1,55,1,0
164872,-500,4,1,1,55,0,0
166142,631.578947368422,4,1,1,55,1,0
166142,-500,4,1,1,55,0,0
167410,618.556701030928,4,1,1,55,1,0
167410,-250,4,1,1,55,0,0
168028,-250,4,1,1,65,0,0
168652,681.818181818182,4,1,1,65,1,1
168822,-66.6666666666667,4,1,1,65,0,1
169810,645.161290322581,4,1,1,65,1,1
170616,638.297872340426,4,1,1,65,1,1
171258,618.556701030928,4,1,1,65,1,1
172498,631.578947368421,4,1,1,65,1,1
173750,652.173913043479,4,1,1,65,1,1
174076,-66.6666666666667,4,1,1,65,0,1
174402,-100,4,1,1,65,0,1
174860,631.578947368422,4,1,1,65,1,1
176264,612.244897959184,4,1,1,65,1,1
177500,631.578947368421,4,1,1,65,1,1
177978,606.060606060606,4,1,1,65,1,1
178738,615.384615384615,4,1,1,65,1,1
178738,-66.6666666666667,4,1,1,65,0,1
179353,-100,4,1,1,65,0,1
179840,600,4,1,1,65,1,1
181200,631.578947368422,4,1,1,65,1,1
182456,625,4,1,1,65,1,1
183698,638.297872340426,4,1,1,65,1,1
184820,618.556701030928,4,1,1,65,1,1
185593,606.060606060606,4,1,1,65,1,1
186206,645.161290322581,4,1,1,65,1,1
186851,-66.6666666666667,4,1,1,65,0,1
187476,631.578947368422,4,1,1,65,1,1
188107,645.161290322581,4,1,1,65,1,1
188744,759.493670886077,4,1,1,65,1,1
188744,-66.6666666666667,4,1,1,65,0,0
189456,689.655172413794,4,1,1,65,1,0
190130,689.655172413793,4,1,1,65,1,0
190130,-66.6666666666667,4,1,1,65,0,0
190788,666.666666666667,4,1,1,65,1,0
191472,664.819944598338,4,1,1,65,1,0
191472,-66.6666666666667,4,1,1,65,0,0
192136,-100,4,1,1,65,0,0
192777,646.900269541779,4,1,1,65,1,0
194078,668.523676880223,4,1,1,65,1,0
194078,-66.6666666666667,4,1,1,65,0,0
194913,-100,4,1,1,65,0,0
195415,674.157303370787,4,1,1,65,1,0
195415,-66.6666666666667,4,1,1,65,0,0
196089,-100,4,1,1,65,0,0
196763,666.666666666667,4,1,1,65,1,0
196763,-66.6666666666667,4,1,1,65,0,0
197596,-100,4,1,1,65,0,0
198088,638.297872340426,4,1,1,65,1,0
199372,683.760683760684,4,1,1,65,1,0
199372,-66.6666666666667,4,1,1,65,0,0
200720,681.818181818182,4,1,1,65,1,0
200720,-66.6666666666667,4,1,1,65,0,0
202088,659.34065934066,4,1,1,65,1,0
202088,-66.6666666666667,4,1,1,65,0,0
202892,681.818181818182,4,1,1,65,1,0
203384,625,4,1,1,65,1,0
204646,685.714285714286,4,1,1,65,1,0
204646,-66.6666666666667,4,1,1,65,0,0
206016,674.157303370787,4,1,1,65,1,0
206016,-66.6666666666667,4,1,1,65,0,0
207350,666.666666666667,4,1,1,65,1,0
207350,-66.6666666666667,4,1,1,65,0,0
208668,638.297872340426,4,1,1,65,1,0
209306,662.983425414366,4,1,1,65,1,0
210134,-100,4,2,1,5,0,0
221158,697.674418604651,4,1,1,65,1,0
221158,-50,4,1,1,65,0,1
221681,-66.6666666666667,4,1,1,65,0,1
222324,652.173913043479,4,1,1,65,1,1
223139,612.244897959184,4,1,1,65,1,1
223778,638.297872340426,4,1,1,65,1,1
225022,625,4,1,1,65,1,1
225178,-66.6666666666667,4,1,1,65,0,1
226280,645.161290322581,4,1,1,65,1,1
227388,625,4,1,1,65,1,1
228169,638.297872340426,4,1,1,65,1,1
228796,615.384615384616,4,1,1,65,1,1
229866,625,4,1,1,65,1,1
230494,674.157303370787,4,1,1,65,1,1
231128,638.297872340426,4,1,1,65,1,1
231287,625,4,1,1,65,1,1
231287,-66.6666666666667,4,1,1,65,0,1
232390,594.059405940595,4,1,1,65,1,1
232538,-66.6666666666667,4,1,1,65,0,1
233132,625,4,1,1,65,1,1
233757,625,4,1,1,65,1,1
234842,615.384615384616,4,1,1,65,1,1
235611,645.161290322581,4,1,1,65,1,1
236256,560.747663551402,4,1,1,65,1,1
236256,-66.6666666666667,4,1,1,65,0,1
236816,-100,4,1,1,65,0,1
237276,594.059405940595,4,1,1,65,1,1
238028,594.059405940594,4,1,1,65,1,1
238622,-50,4,1,1,65,0,1
239072,606.060606060606,4,1,1,65,1,1
239072,-50,4,1,1,65,0,1
239954,566.037735849057,4,1,1,65,1,1
240452,588.235294117648,4,1,1,65,1,1
241040,631.578947368422,4,1,1,65,1,1
241040,-66.6666666666667,4,1,1,65,0,1
242126,631.578947368422,4,1,1,65,1,1
242915,600,4,1,1,65,1,1
243510,606.060606060606,4,1,1,65,1,1
244408,606.060606060606,4,1,1,65,1,1
245938,615.384615384616,4,1,1,65,1,1
245938,-66.6666666666667,4,1,1,65,0,1
247016,618.556701030928,4,1,1,65,1,1
247798,594.059405940594,4,1,1,65,1,1
248392,618.556701030928,4,1,1,65,1,1
249642,594.059405940595,4,1,1,65,1,1
250100,576.923076923077,4,1,1,65,1,1
250556,645.161290322581,4,1,1,65,1,1
250878,631.578947368422,4,1,1,65,1,1
250878,-66.6666666666667,4,1,1,65,0,1
251996,582.52427184466,4,1,1,65,1,1
252722,606.060606060606,4,1,1,65,1,1
253328,612.244897959184,4,1,1,65,1,1
254552,591.133004926108,4,1,1,65,1,1
255746,607.594936708862,4,1,1,65,1,1
258176,606.060606060606,4,1,1,65,1,1
259414,594.059405940594,4,1,1,65,1,1
260618,631.578947368422,4,1,1,65,1,1
260618,-50,4,1,1,65,0,1
261091,-66.6666666666667,4,1,1,65,0,1
261730,555.555555555556,4,1,1,65,1,1
262466,612.244897959184,4,1,1,65,1,1
262466,-66.6666666666667,4,1,1,65,0,1
263078,612.244897959184,4,1,1,65,1,1
264438,612.244897959184,4,1,1,65,1,1
264897,594.059405940595,4,1,1,65,1,1
265500,618.556701030928,4,1,1,65,1,1
265500,-50,4,1,1,65,0,1
266118,-200,4,1,1,65,0,1
266418,594.059405940595,4,1,1,65,1,1
266892,576.923076923077,4,1,1,65,1,1
267324,631.578947368421,4,1,1,65,1,1
267948,582.52427184466,4,1,1,65,1,1
268093,-50,4,1,1,65,0,1
268974,638.297872340426,4,1,1,65,1,1
269133,-50,4,1,1,65,0,1
269452,618.556701030928,4,1,1,65,1,1
270379,582.524271844661,4,1,1,60,1,1
270966,618.556701030928,4,1,1,60,1,1
270966,-50,4,1,1,60,0,1
271429,-66.6666666666667,4,1,1,55,0,1
272178,612.244897959184,4,1,1,55,1,1
272790,606.060606060606,4,1,1,55,1,1
274153,588.235294117647,4,1,1,55,1,1
274748,638.297872340426,4,1,1,50,1,1
275236,609.137055837564,4,1,1,50,1,1
276298,625,4,1,1,50,1,1
277079,625,4,1,1,45,1,1
277704,576.923076923077,4,1,1,45,1,1
278600,588.235294117647,4,1,1,40,1,1
279502,618.556701030928,4,1,1,35,1,1
280275,-100,4,2,1,5,0,0
299295,-100,4,2,1,5,0,0

[Colours]
Combo1 : 255,149,149
Combo2 : 255,186,130
Combo3 : 226,184,254
Combo4 : 187,219,255

[HitObjects]
496,36,24042,6,0,B|441:81|441:81|516:281,1,269.999992847443,4|0,2:0|0:0,0:0:0:0:
302,148,24716,1,8,2:0:0:0:
252,208,24884,2,0,L|230:395,1,179.999995231628
325,283,25394,5,0,0:0:0:0:
402,309,25566,1,0,0:0:0:0:
433,232,25738,1,2,2:0:0:0:
252,83,25911,5,0,0:0:0:0:
209,147,26083,2,0,L|98:124,1,89.9999976158142,8|0,2:0|0:0,0:0:0:0:
210,14,26428,1,2,2:0:0:0:
330,63,26600,1,0,0:0:0:0:
94,53,26762,6,0,B|37:71|37:71|18:282,1,269.999992847443,4|0,2:0|0:0,0:0:0:0:
141,354,27451,1,8,2:0:0:0:
161,237,27624,2,0,B|113:242|113:242|56:369,1,179.999995231628
247,278,28110,5,0,0:0:0:0:
284,344,28276,2,0,L|467:363,1,179.999995231628
361,143,28776,5,8,2:0:0:0:
286,199,28943,1,0,0:0:0:0:
405,280,29110,1,2,2:0:0:0:
451,135,29276,1,0,0:0:0:0:
228,32,29466,6,0,B|273:76|273:76|237:289,1,269.999992847443,4|0,2:0|0:0,0:0:0:0:
344,204,30140,1,8,2:0:0:0:
123,194,30308,2,0,L|159:5,1,179.999995231628
252,127,30802,5,0,0:0:0:0:
325,246,30972,2,0,L|304:368,1,89.9999976158142,0|2,0:0|2:0,0:0:0:0:
166,267,31313,1,0,0:0:0:0:
43,330,31483,2,0,L|58:241,1,89.9999976158142,8|0,2:0|0:0,0:0:0:0:
16,157,31824,1,2,2:0:0:0:
51,64,31995,1,0,0:0:0:0:
232,151,32122,6,0,B|273:196|273:196|481:136,1,269.999992847443,4|0,2:0|0:0,0:0:0:0:
349,27,32779,1,8,2:0:0:0:
297,114,32943,2,0,L|101:58,1,179.999995231628
257,26,33437,5,0,0:0:0:0:
368,109,33601,1,0,0:0:0:0:
227,172,33765,1,2,2:0:0:0:
91,245,33930,1,0,0:0:0:0:
211,334,34094,1,8,2:0:0:0:
186,250,34258,5,0,0:0:0:0:
26,293,34423,1,8,3:0:0:0:
71,124,34587,1,0,0:0:0:0:
285,129,34772,6,0,B|335:178|335:178|277:375,1,269.999992847443,4|0,2:0|0:0,0:0:0:0:
214,251,35449,1,8,2:0:0:0:
137,362,35619,2,0,B|95:335|95:335|139:194,1,179.999995231628
210,49,36094,5,0,0:0:0:0:
260,138,36263,1,0,0:0:0:0:
128,124,36432,1,2,2:0:0:0:
326,39,36602,1,0,0:0:0:0:
313,235,36771,2,0,L|327:338,2,89.9999976158142,8|0|2,2:0|0:0|2:0,0:0:0:0:
431,319,37280,1,0,0:0:0:0:
199,290,37439,6,0,B|131:273|131:273|89:44,1,269.999992847443,4|0,2:0|0:0,0:0:0:0:
261,55,38105,1,8,2:0:0:0:
71,37,38268,2,0,L|111:256,1,179.999995231628
182,117,38757,1,0,0:0:0:0:
7,202,38920,1,0,0:0:0:0:
161,306,39083,1,2,2:0:0:0:
103,214,39246,1,0,0:0:0:0:
303,171,39409,6,0,L|314:237,1,44.9999988079071,8|0,2:0|0:0,0:0:0:0:
377,237,39572,2,0,L|365:301,1,44.9999988079071
416,361,39735,1,0,0:0:0:0:
416,361,39816,1,0,0:0:0:0:
416,361,39898,1,0,1:0:0:0:
416,361,39980,1,0,1:0:0:0:
416,361,40067,1,12,2:0:0:0:
479,283,40230,6,0,B|501:227|501:227|429:97,1,179.999995231628
298,202,40722,1,8,2:0:0:0:
167,278,40886,2,0,B|145:222|145:222|217:92,1,179.999995231628
315,15,41370,5,0,0:0:0:0:
365,131,41533,2,0,L|379:248,1,89.9999976158142,0|2,0:0|2:0,0:0:0:0:
280,87,41859,1,0,0:0:0:0:
455,133,42022,1,8,2:0:0:0:
321,274,42185,2,0,L|310:396,1,89.9999976158142,0|2,0:0|2:0,0:0:0:0:
63,278,42511,5,0,0:0:0:0:
26,77,42680,2,0,B|71:126|71:126|37:256,1,179.999995231628,4|2,2:0|0:2,0:0:0:0:
201,330,43180,1,0,0:0:0:0:
286,165,43346,1,8,2:0:0:0:
196,160,43513,2,0,L|211:258,1,89.9999976158142,0|2,0:0|2:0,0:0:0:0:
435,247,43846,5,0,0:0:0:0:
501,126,44003,1,8,2:0:0:0:
323,231,44164,2,0,L|308:325,1,89.9999976158142,8|2,2:0|2:0,0:0:0:0:
403,181,44488,1,0,0:0:0:0:
203,44,44649,5,8,3:0:0:0:
326,4,44819,1,0,0:0:0:0:
370,114,44989,1,10,2:0:0:0:
262,161,45160,1,0,0:0:0:0:
257,151,45329,6,0,P|245:220|226:327,1,143.999996185303,4|2,2:0|2:0,0:0:0:0:
271,360,45834,1,0,0:0:0:0:
176,159,46003,2,0,P|125:147|68:134,1,71.9999980926514,8|0,2:0|0:0,0:0:0:0:
337,193,46332,2,0,P|372:201|408:210,1,71.9999980926514,2|0,2:0|0:0,0:0:0:0:
204,25,46662,6,0,B|295:17|264:104|375:119,1,143.999996185303,0|2,0:0|2:0,0:0:0:0:
390,73,47156,1,0,0:0:0:0:
183,169,47321,2,0,P|191:208|203:253,1,71.9999980926514,8|0,2:0|0:0,0:0:0:0:
255,292,47651,1,2,2:0:0:0:
255,292,47816,1,0,0:0:0:0:
235,26,47969,6,0,P|113:66|26:90,1,179.999995231629,4|0,2:0|0:0,0:0:0:0:
0,46,48460,1,0,0:0:0:0:
286,98,48624,2,0,P|326:93|401:84,1,89.9999976158143,8|0,2:0|0:0,0:0:0:0:
405,315,48952,2,0,P|360:320|315:325,1,89.9999976158143,2|0,2:0|0:0,0:0:0:0:
342,185,49288,5,0,0:0:0:0:
361,197,49448,1,0,0:0:0:0:
352,217,49609,1,2,2:0:0:0:
331,208,49770,1,0,0:0:0:0:
327,88,49931,5,8,2:0:0:0:
468,194,50092,1,0,0:0:0:0:
356,328,50253,1,2,2:0:0:0:
220,214,50414,1,0,0:0:0:0:
220,214,50494,1,0,0:0:0:0:
220,214,50574,6,0,P|233:144|258:16,1,179.999995231629,0|2,0:0|2:0,0:0:0:0:
162,72,51045,1,0,0:0:0:0:
341,198,51202,1,8,2:0:0:0:
364,114,51365,1,0,0:0:0:0:
111,138,51528,1,2,2:0:0:0:
138,218,51691,1,0,0:0:0:0:
257,117,51854,6,0,P|241:23|234:-16,1,89.9999976158143
250,288,52180,2,0,P|266:194|273:155,1,89.9999976158143,2|0,2:0|0:0,0:0:0:0:
154,355,52506,1,8,2:0:0:0:
346,378,52669,1,0,0:0:0:0:
329,310,52832,1,2,2:0:0:0:
77,373,52995,1,0,0:0:0:0:
407,332,53158,6,0,P|464:346|525:361,1,89.9999976158143,4|0,2:0|0:0,0:0:0:0:
138,245,53487,2,0,P|89:256|20:271,1,89.9999976158143,2|0,2:0|0:0,0:0:0:0:
269,135,53817,1,8,2:0:0:0:
316,71,53982,1,0,0:0:0:0:
211,80,54147,1,2,2:0:0:0:
211,80,54311,1,0,0:0:0:0:
384,178,54466,6,0,P|389:126|393:70,1,89.9999976158143
129,105,54785,2,0,P|132:149|136:194,1,89.9999976158143,2|0,2:0|0:0,0:0:0:0:
365,301,55104,1,8,2:0:0:0:
184,323,55263,1,0,0:0:0:0:
310,203,55423,1,2,2:0:0:0:
284,374,55583,1,0,0:0:0:0:
201,216,55734,6,0,P|92:229|7:239,1,179.999995231629,0|2,0:0|2:0,0:0:0:0:
88,276,56239,1,0,0:0:0:0:
261,145,56408,2,0,P|276:96|271:37,1,89.9999976158143,8|0,2:0|0:0,0:0:0:0:
54,65,56745,2,0,P|39:114|44:173,1,89.9999976158143,2|0,2:0|0:0,0:0:0:0:
208,351,57066,5,4,2:0:0:0:
330,274,57229,1,0,0:0:0:0:
192,270,57392,1,2,2:0:0:0:
309,358,57555,1,0,0:0:0:0:
150,74,57718,5,8,2:0:0:0:
295,150,57881,1,0,0:0:0:0:
143,177,58044,1,2,2:0:0:0:
232,53,58207,1,0,0:0:0:0:
445,185,58362,6,0,P|519:125|495:26,1,179.999995231629,0|2,0:0|2:0,0:0:0:0:
447,16,58859,1,0,0:0:0:0:
264,234,59024,1,8,2:0:0:0:
361,257,59190,2,0,P|352:195|345:145,2,89.9999976158143,0|2|0,0:0|2:0|0:0,0:0:0:0:
150,346,59686,5,0,0:0:0:0:
320,368,59846,1,0,0:0:0:0:
160,362,60006,1,2,2:0:0:0:
261,313,60167,1,0,0:0:0:0:
58,271,60327,2,0,P|51:334|47:373,1,89.9999976158143,8|0,2:0|0:0,0:0:0:0:
296,238,60648,2,0,P|291:193|286:148,1,89.9999976158143,2|0,2:0|0:0,0:0:0:0:
300,123,60889,1,0,0:0:0:0:
268,120,60969,6,0,P|181:110|68:96,1,179.999995231629,4|2,2:0|2:0,0:0:0:0:
32,49,61450,1,0,0:0:0:0:
218,212,61611,2,0,P|223:256|227:301,1,89.9999976158143,8|0,2:0|0:0,0:0:0:0:
51,200,61931,1,2,2:0:0:0:
82,270,62092,1,0,0:0:0:0:
311,180,62231,6,0,P|324:115|331:79,1,89.9999976158143
108,48,62555,2,0,P|116:92|125:136,1,89.9999976158143,2|0,2:0|0:0,0:0:0:0:
401,48,62879,1,8,2:0:0:0:
230,125,63041,1,0,0:0:0:0:
418,246,63203,1,2,2:0:0:0:
394,176,63366,1,0,0:0:0:0:
191,256,63530,5,8,2:0:0:0:
161,329,63689,1,0,0:0:0:0:
266,287,63849,1,2,2:0:0:0:
236,360,64008,1,0,0:0:0:0:
112,226,64168,5,8,2:0:0:0:
288,166,64327,1,0,0:0:0:0:
270,153,64487,1,2,2:0:0:0:
431,244,64647,1,0,0:0:0:0:
343,26,64806,5,8,2:0:0:0:
194,95,64966,1,0,0:0:0:0:
424,162,65125,5,10,2:0:0:0:
498,196,65285,1,0,0:0:0:0:
382,359,65444,5,8,3:0:0:0:
303,159,65604,1,0,0:0:0:0:
178,70,65764,5,10,2:0:0:0:
99,270,65924,1,0,0:0:0:0:
99,270,66003,1,0,0:0:0:0:
99,270,66083,6,0,L|69:-16,1,270.000003147125,4|2,2:0|2:0,0:0:0:0:
113,66,66574,1,0,0:0:0:0:
263,188,66738,2,0,P|366:144|450:128,1,179.999995231629,8|2,2:0|2:0,0:0:0:0:
496,42,67232,1,8,2:0:0:0:
451,93,67396,1,0,0:0:0:0:
358,318,67561,2,0,P|255:274|171:258,1,179.999995231629,8|0,2:0|0:0,0:0:0:0:
389,231,68070,1,8,2:0:0:0:
246,367,68226,1,0,0:0:0:0:
276,183,68382,1,2,2:0:0:0:
368,349,68538,1,0,0:0:0:0:
66,286,68718,6,0,L|96:0,1,270.000003147125,4|2,2:0|2:0,0:0:0:0:
253,27,69204,1,0,0:0:0:0:
245,188,69366,2,0,L|232:284,1,89.9999976158143,8|0,2:0|0:0,0:0:0:0:
222,348,69690,1,2,2:0:0:0:
353,270,69853,1,0,0:0:0:0:
153,217,69997,1,0,0:0:0:0:
254,79,70160,2,0,L|241:175,1,89.9999976158143,8|2,2:0|2:0,0:0:0:0:
361,88,70488,1,0,0:0:0:0:
166,96,70652,5,8,2:0:0:0:
266,3,70816,1,0,0:0:0:0:
357,113,70980,1,2,2:0:0:0:
258,200,71144,1,0,0:0:0:0:
66,24,71307,6,0,L|94:292,1,270.000003147125,4|2,2:0|2:0,0:0:0:0:
207,368,71785,1,0,0:0:0:0:
4,263,71945,1,8,2:0:0:0:
47,365,72104,2,0,P|98:290|125:282,1,89.9999976158143,0|2,0:0|2:0,0:0:0:0:
292,308,72444,1,8,2:0:0:0:
197,289,72600,2,0,P|219:213|272:191,2,89.9999976158143,0|8|0,0:0|2:0|0:0,0:0:0:0:
427,214,73069,1,0,0:0:0:0:
470,133,73233,2,0,P|403:114|307:240,1,179.999995231629,8|2,2:0|2:0,0:0:0:0:
105,120,73719,1,0,0:0:0:0:
272,8,73854,5,8,2:0:0:0:
392,32,74012,1,8,2:0:0:0:
388,148,74171,1,2,2:0:0:0:
377,136,74330,1,0,0:0:0:0:
183,146,74488,5,8,2:0:0:0:
65,89,74647,1,0,0:0:0:0:
19,231,74806,1,2,2:0:0:0:
38,221,74965,1,0,0:0:0:0:
257,338,75123,5,8,2:0:0:0:
386,224,75290,1,8,2:0:0:0:
237,204,75458,1,2,2:0:0:0:
395,361,75625,1,0,0:0:0:0:
356,134,75785,5,8,3:0:0:0:
199,275,75946,1,0,0:0:0:0:
147,71,76107,5,10,2:0:0:0:
275,133,76268,1,0,0:0:0:0:
239,20,76439,6,0,P|248:131|252:312,1,269.999992847443,4|0,2:0|0:0,0:0:0:0:
166,258,77098,2,0,P|128:226|155:177,1,89.9999976158143,8|0,2:0|0:0,0:0:0:0:
344,172,77428,1,2,2:0:0:0:
460,234,77592,1,0,0:0:0:0:
379,305,77770,2,0,P|419:244|348:141,1,179.999995231629,0|2,0:0|2:0,0:0:0:0:
450,43,78267,5,0,0:0:0:0:
304,37,78432,2,0,P|271:80|294:135,1,89.9999976158143,8|0,2:0|0:0,0:0:0:0:
272,217,78764,1,2,2:0:0:0:
157,96,78930,1,0,0:0:0:0:
271,0,79096,2,0,P|321:43|248:131,1,179.999995231629,4|2,2:0|2:0,0:0:0:0:
219,179,79582,1,0,0:0:0:0:
235,364,79744,1,8,2:0:0:0:
275,306,79906,1,0,0:0:0:0:
229,247,80068,1,2,2:0:0:0:
227,175,80231,1,0,0:0:0:0:
393,94,80393,5,0,0:0:0:0:
461,120,80555,1,0,0:0:0:0:
441,193,80717,1,2,2:0:0:0:
320,233,80879,1,0,0:0:0:0:
201,278,81041,1,8,2:0:0:0:
145,316,81204,1,0,0:0:0:0:
182,377,81366,1,2,2:0:0:0:
117,309,81528,1,0,0:0:0:0:
63,366,81680,6,0,P|72:285|85:147,1,179.999995231629,4|2,2:0|2:0,0:0:0:0:
37,130,82167,1,0,0:0:0:0:
315,35,82330,2,0,P|311:80|304:144,1,89.9999976158143,8|0,2:0|0:0,0:0:0:0:
244,164,82655,1,2,2:0:0:0:
306,202,82818,1,0,0:0:0:0:
57,8,82980,6,0,P|69:102|86:224,1,179.999995231629,0|2,0:0|2:0,0:0:0:0:
231,263,83468,1,0,0:0:0:0:
326,123,83631,2,0,P|320:79|311:15,1,89.9999976158143,8|0,2:0|0:0,0:0:0:0:
81,87,83956,2,0,P|88:140|95:194,1,89.9999976158143,2|0,2:0|0:0,0:0:0:0:
512,337,84262,5,8,2:0:0:0:
440,319,84422,1,0,0:0:0:0:
398,364,84582,1,2,2:0:0:0:
326,336,84743,1,0,0:0:0:0:
152,304,84903,5,8,2:0:0:0:
36,320,85064,1,0,0:0:0:0:
102,341,85224,1,2,2:0:0:0:
172,312,85384,1,0,0:0:0:0:
285,292,85545,5,0,0:0:0:0:
365,317,85705,1,0,0:0:0:0:
456,301,85866,1,2,2:0:0:0:
379,301,86026,1,0,0:0:0:0:
248,353,86187,5,8,2:0:0:0:
117,333,86347,1,0,0:0:0:0:
34,354,86507,1,10,2:0:0:0:
236,322,86668,1,0,0:0:0:0:
248,330,86748,1,0,0:0:0:0:
257,339,86828,6,0,P|267:200|278:37,1,269.999992847443,4|0,2:0|0:0,0:0:0:0:
343,27,87440,1,8,2:0:0:0:
119,231,87601,2,0,P|112:187|106:132,1,89.9999976158143,0|2,0:0|2:0,0:0:0:0:
405,235,87925,1,0,0:0:0:0:
266,349,88086,6,0,P|158:326|-23:282,1,269.999992847443
91,36,88733,1,8,2:0:0:0:
50,123,88895,2,0,B|102:110|137:102,1,89.9999976158143,0|2,0:0|2:0,0:0:0:0:
292,153,89218,1,0,0:0:0:0:
75,255,89380,5,0,0:0:0:0:
231,305,89540,1,0,0:0:0:0:
246,291,89701,5,2,2:0:0:0:
144,326,89861,1,0,0:0:0:0:
137,102,90023,2,0,P|145:154|154:213,1,89.9999976158143,8|0,2:0|0:0,0:0:0:0:
397,268,90345,2,0,P|389:315|383:356,1,89.9999976158143,2|0,2:0|0:0,0:0:0:0:
336,185,90666,1,0,0:0:0:0:
434,37,90827,6,0,P|451:134|474:275,1,179.999995231629,10|0,2:0|0:0,0:0:0:0:
360,366,91310,1,8,2:0:0:0:
227,210,91471,2,0,P|274:214|322:265,1,89.9999976158143,0|2,0:0|2:0,0:0:0:0:
350,357,91792,1,0,0:0:0:0:
172,289,91956,6,0,P|193:147|214:16,1,269.999992847443,4|0,2:0|0:0,0:0:0:0:
0,162,92597,1,8,2:0:0:0:
57,228,92758,2,0,P|111:234|162:214,1,89.9999976158143,0|2,0:0|2:0,0:0:0:0:
271,131,93078,1,0,0:0:0:0:
68,32,93239,6,0,P|80:80|99:154,1,89.9999976158143
262,242,93560,2,0,P|272:198|284:154,1,89.9999976158143,2|0,2:0|0:0,0:0:0:0:
175,16,93881,1,8,2:0:0:0:
250,250,94038,1,0,0:0:0:0:
256,56,94196,1,2,2:0:0:0:
171,108,94354,1,0,0:0:0:0:
360,307,94506,5,8,2:0:0:0:
403,23,94663,1,0,0:0:0:0:
361,134,94820,5,2,2:0:0:0:
399,203,94977,1,0,0:0:0:0:
413,0,95134,5,8,2:0:0:0:
480,307,95291,1,0,0:0:0:0:
406,192,95448,5,2,2:0:0:0:
443,121,95605,1,0,0:0:0:0:
481,200,95758,2,0,P|466:289|452:378,1,179.999995231629,8|2,2:0|2:0,0:0:0:0:
436,110,96241,1,0,0:0:0:0:
233,39,96403,5,8,3:0:0:0:
303,181,96564,1,0,0:0:0:0:
97,292,96725,1,12,2:0:0:0:
177,147,96886,1,0,0:0:0:0:
335,299,97052,6,0,L|344:364,1,53.9999985694885,4|0,2:0|0:0,0:0:0:0:
128,223,97707,6,0,L|119:288,1,53.9999985694885,8|0,2:0|0:0,0:0:0:0:
197,263,98363,1,0,0:0:0:0:
59,157,98527,1,0,0:0:0:0:
41,317,98691,1,0,0:0:0:0:
103,239,98855,1,0,0:0:0:0:
314,320,99019,6,0,L|308:251,1,53.9999985694885,8|0,2:0|0:0,0:0:0:0:
403,182,99664,5,8,2:0:0:0:
169,119,99824,2,0,L|172:73,1,35.9999990463257
328,0,100305,6,0,L|334:75,1,71.9999980926514,8|0,2:0|0:0,0:0:0:0:
227,157,101107,1,0,0:0:0:0:
359,255,101268,2,0,L|357:288,1,17.9999995231628
87,364,101589,6,0,L|85:316,1,35.9999990463257,8|0,2:0|0:0,0:0:0:0:
3,234,102070,1,0,0:0:0:0:
196,102,102220,5,8,2:0:0:0:
234,168,102385,1,0,0:0:0:0:
67,125,102551,6,0,L|69:97,1,17.9999995231628
328,0,102882,6,0,L|334:64,1,53.9999985694885,8|0,2:0|0:0,0:0:0:0:
482,133,103533,5,0,0:0:0:0:
319,271,103691,2,0,L|325:313,1,35.9999990463257
25,251,104167,6,0,L|28:194,1,53.9999985694885,8|0,2:0|0:0,0:0:0:0:
154,92,104796,5,0,0:0:0:0:
363,238,104954,1,0,0:0:0:0:
414,186,105113,2,0,L|445:191,1,17.9999995231628
312,24,105430,6,0,L|228:35,1,71.9999980926514,8|0,2:0|0:0,0:0:0:0:
128,208,106224,1,0,0:0:0:0:
66,252,106383,2,0,L|73:283,1,17.9999995231628
325,359,106700,6,0,L|372:366,1,35.9999990463257,8|0,2:0|0:0,0:0:0:0:
456,311,107166,1,0,0:0:0:0:
416,41,107321,5,8,2:0:0:0:
341,55,107484,2,0,L|294:62,1,35.9999990463257
81,197,107974,2,0,L|16:209,1,53.9999985694885,8|0,2:0|0:0,0:0:0:0:
124,104,108612,5,0,0:0:0:0:
246,225,108769,1,0,0:0:0:0:
169,267,108927,2,0,L|175:238,1,17.9999995231628
428,206,109243,6,0,L|493:218,1,53.9999985694885,8|0,2:0|0:0,0:0:0:0:
361,122,109875,5,0,0:0:0:0:
294,253,110040,1,0,0:0:0:0:
247,197,110206,2,0,L|224:194,1,17.9999995231628
50,26,110537,6,0,L|110:38,1,53.9999985694885,8|0,2:0|0:0,0:0:0:0:
187,77,111170,5,0,0:0:0:0:
309,124,111326,1,0,0:0:0:0:
463,176,111482,2,0,L|489:186,1,17.9999995231628
325,10,111795,6,0,L|332:55,1,35.9999990463257,8|0,2:0|0:0,0:0:0:0:
406,104,112263,1,0,0:0:0:0:
300,254,112426,5,8,2:0:0:0:
365,312,112585,2,0,L|372:357,1,35.9999990463257
202,307,113064,2,0,L|263:323,1,53.9999985694885,8|0,2:0|0:0,0:0:0:0:
178,227,113682,5,0,0:0:0:0:
109,296,113843,2,0,L|103:346,1,35.9999990463257
6,148,114327,2,0,L|62:130,1,53.9999985694885,8|0,2:0|0:0,0:0:0:0:
243,56,114962,5,0,0:0:0:0:
173,110,115119,2,0,L|158:66,1,35.9999990463257
284,291,115593,2,0,L|264:347,1,53.9999985694885,8|0,2:0|0:0,0:0:0:0:
60,277,116237,6,0,L|121:255,1,35.9999990463257,8|0,2:0|0:0,0:0:0:0:
204,232,116563,1,2,2:0:0:0:
172,299,116726,1,0,0:0:0:0:
171,42,116889,5,8,2:0:0:0:
260,300,117052,1,0,0:0:0:0:
221,106,117215,1,10,2:0:0:0:
269,163,117378,1,0,0:0:0:0:
46,364,117541,6,0,P|245:331|445:299,1,405.000004720688,12|0,2:0|0:0,0:0:0:0:
494,245,118196,1,8,2:0:0:0:
238,278,118360,2,0,P|274:282|338:291,1,89.9999976158143,0|2,0:0|2:0,0:0:0:0:
460,74,118694,6,0,B|477:119|477:119|440:173,1,89.9999976158143,8|0,2:0|0:0,0:0:0:0:
206,155,119014,2,0,B|174:75|174:75|259:-16,1,179.999995231629,2|0,2:0|0:0,0:0:0:0:
331,99,119500,1,8,2:0:0:0:
106,76,119662,2,0,P|37:71|-9:68,1,89.9999976158143,0|2,0:0|2:0,0:0:0:0:
249,255,119986,1,0,0:0:0:0:
292,197,120154,6,0,P|182:213|63:230,1,179.999995231629,0|2,0:0|2:0,0:0:0:0:
43,208,120630,1,0,0:0:0:0:
365,251,120788,2,0,P|369:225|382:134,1,89.9999976158143,8|0,2:0|0:0,0:0:0:0:
240,84,121106,1,2,2:0:0:0:
429,37,121265,5,0,0:0:0:0:
366,70,121424,1,0,0:0:0:0:
180,19,121584,1,0,0:0:0:0:
26,119,121743,2,0,P|37:181|49:238,1,89.9999976158143,2|0,2:0|0:0,0:0:0:0:
196,354,122062,5,8,2:0:0:0:
310,200,122218,1,0,0:0:0:0:
117,258,122374,1,2,2:0:0:0:
305,333,122530,1,0,0:0:0:0:
178,146,122687,6,0,P|283:21|495:91,1,405.000004720688,12|0,2:0|0:0,0:0:0:0:
512,159,123339,1,8,2:0:0:0:
478,234,123502,2,0,P|440:251|363:217,1,89.9999976158143,0|2,0:0|2:0,0:0:0:0:
196,56,123828,6,0,B|234:32|234:32|306:57,1,89.9999976158143,8|0,2:0|0:0,0:0:0:0:
299,228,124135,2,0,B|261:252|261:252|189:227,1,89.9999976158143,10|0,2:0|0:0,0:0:0:0:
248,148,124443,1,0,0:0:0:0:
394,350,124597,2,0,P|198:327|97:315,1,269.999992847443,8|0,2:0|0:0,0:0:0:0:
9,169,125215,5,8,2:0:0:0:
252,114,125375,1,8,2:0:0:0:
203,171,125535,1,2,2:0:0:0:
254,225,125695,1,0,0:0:0:0:
484,147,125855,5,8,2:0:0:0:
413,117,126015,1,0,0:0:0:0:
263,316,126175,1,2,2:0:0:0:
192,286,126335,1,0,0:0:0:0:
62,104,126495,5,8,2:0:0:0:
220,64,126655,1,0,0:0:0:0:
126,160,126815,1,2,2:0:0:0:
156,12,126975,1,8,2:0:0:0:
264,243,127135,5,8,3:0:0:0:
410,215,127291,1,0,0:0:0:0:
346,384,127447,5,10,2:0:0:0:
124,332,127603,1,0,0:0:0:0:
42,162,127760,6,0,L|237:124,1,179.999995231629,4|2,2:0|2:0,0:0:0:0:
261,68,128260,1,0,0:0:0:0:
363,236,128426,1,8,2:0:0:0:
432,259,128593,2,0,P|461:202|405:106,1,179.999995231629
295,255,129093,2,0,L|320:361,1,89.9999976158143
376,293,129426,1,2,2:0:0:0:
234,202,129593,1,0,0:0:0:0:
263,136,129760,5,8,2:0:0:0:
134,251,129923,1,0,0:0:0:0:
279,315,130087,1,2,2:0:0:0:
236,232,130251,1,0,0:0:0:0:
101,345,130415,6,0,L|85:144,1,179.999995231629,0|2,0:0|2:0,0:0:0:0:
34,117,130901,1,0,0:0:0:0:
177,36,131063,2,0,P|219:56|232:105,1,89.9999976158143,8|0,2:0|0:0,0:0:0:0:
187,202,131387,2,0,L|299:181,1,89.9999976158143,2|0,2:0|0:0,0:0:0:0:
343,67,131712,5,8,2:0:0:0:
470,214,131871,1,0,0:0:0:0:
485,107,132031,1,2,2:0:0:0:
348,178,132191,1,0,0:0:0:0:
409,32,132350,5,8,2:0:0:0:
401,239,132509,1,0,0:0:0:0:
329,77,132669,1,2,2:0:0:0:
486,161,132829,1,0,0:0:0:0:
309,291,132988,6,0,L|109:318,1,179.999995231629,4|2,2:0|2:0,0:0:0:0:
38,260,133485,1,0,0:0:0:0:
107,162,133650,2,0,P|147:182|128:278,1,89.9999976158143,8|0,2:0|0:0,0:0:0:0:
17,160,133982,2,0,L|32:62,1,89.9999976158143,2|0,2:0|0:0,0:0:0:0:
109,24,134297,5,8,2:0:0:0:
181,57,134457,1,0,0:0:0:0:
293,65,134617,1,2,2:0:0:0:
375,53,134777,1,0,0:0:0:0:
445,55,134937,1,8,2:0:0:0:
482,71,135097,1,0,0:0:0:0:
427,52,135257,1,2,2:0:0:0:
338,41,135417,1,0,0:0:0:0:
26,20,135577,5,8,2:0:0:0:
121,58,135737,1,0,0:0:0:0:
234,53,135897,1,2,2:0:0:0:
307,32,136057,1,0,0:0:0:0:
498,67,136217,5,8,2:0:0:0:
421,27,136380,1,0,0:0:0:0:
286,52,136543,1,2,2:0:0:0:
218,36,136706,1,0,0:0:0:0:
16,68,136869,5,8,2:0:0:0:
84,91,137028,1,0,0:0:0:0:
174,57,137188,1,2,2:0:0:0:
243,69,137347,1,0,0:0:0:0:
396,173,137507,5,8,2:0:0:0:
506,79,137666,1,0,0:0:0:0:
413,89,137826,1,10,2:0:0:0:
491,160,137986,1,0,0:0:0:0:
484,154,138065,1,0,0:0:0:0:
479,146,138135,2,0,L|500:326,1,179.999995231629,4|2,2:0|2:0,0:0:0:0:
308,242,138615,5,0,0:0:0:0:
343,350,138775,2,0,P|386:314|389:269,1,89.9999976158143,8|0,2:0|0:0,0:0:0:0:
217,210,139095,2,0,L|222:318,1,89.9999976158143,2|0,2:0|0:0,0:0:0:0:
413,177,139415,2,0,P|379:134|235:152,1,179.999995231629,0|2,0:0|2:0,0:0:0:0:
148,84,139895,1,0,0:0:0:0:
43,299,140055,1,8,2:0:0:0:
106,349,140212,2,0,L|311:317,1,179.999995231629
447,259,140689,6,0,P|426:220|301:244,1,179.999995231629,0|2,0:0|2:0,0:0:0:0:
176,179,141170,1,0,0:0:0:0:
259,67,141330,2,0,L|272:179,1,89.9999976158143,8|0,2:0|0:0,0:0:0:0:
93,246,141651,2,0,L|82:156,1,89.9999976158143,2|0,2:0|0:0,0:0:0:0:
191,29,141972,5,0,0:0:0:0:
339,96,142132,1,0,0:0:0:0:
196,157,142293,1,2,2:0:0:0:
251,93,142453,1,0,0:0:0:0:
137,204,142614,5,8,2:0:0:0:
14,172,142771,1,0,0:0:0:0:
35,304,142929,1,2,2:0:0:0:
65,235,143087,5,0,0:0:0:0:
76,242,143166,1,0,0:0:0:0:
90,250,143245,2,0,L|188:240,1,89.9999976158143,4|0,2:0|0:0,0:0:0:0:
281,187,143562,1,2,2:0:0:0:
380,254,143721,1,0,0:0:0:0:
65,227,143879,6,0,L|163:237,1,89.9999976158143,8|0,2:0|0:0,0:0:0:0:
275,310,144196,1,2,2:0:0:0:
67,109,144355,5,0,0:0:0:0:
28,217,144514,2,0,L|126:207,2,89.9999976158143,0|0|2,0:0|0:0|2:0,0:0:0:0:
262,106,144991,5,0,0:0:0:0:
389,259,145149,1,8,2:0:0:0:
216,252,145309,1,0,0:0:0:0:
299,192,145469,2,0,L|313:299,1,89.9999976158143,2|0,2:0|0:0,0:0:0:0:
395,143,145790,5,8,2:0:0:0:
166,109,145947,1,8,2:0:0:0:
362,22,146105,5,2,2:0:0:0:
241,41,146263,1,0,0:0:0:0:
281,238,146421,5,8,2:0:0:0:
281,238,146727,1,2,2:0:0:0:
321,182,146880,1,0,0:0:0:0:
37,114,147048,6,0,L|79:333,1,179.999995231629,8|2,2:0|2:0,0:0:0:0:
131,341,147511,1,8,2:0:0:0:
9,220,147678,1,8,3:0:0:0:
38,38,147830,1,0,0:0:0:0:
156,172,147982,1,10,2:0:0:0:
131,341,148134,1,0,0:0:0:0:
122,334,148304,6,0,L|186:344,1,53.9999985694885,4|0,2:0|0:0,0:0:0:0:
246,280,148957,2,0,L|299:271,1,53.9999985694885,8|0,2:0|0:0,0:0:0:0:
505,214,149611,1,0,0:0:0:0:
469,276,149775,1,0,0:0:0:0:
416,226,149938,2,0,L|398:229,1,17.9999995231628
300,279,150265,6,0,L|246:270,1,53.9999985694885,8|0,2:0|0:0,0:0:0:0:
92,216,150886,1,0,0:0:0:0:
44,270,151052,2,0,L|7:280,1,35.9999990463257
214,190,151552,6,0,L|282:208,1,53.9999985694885,8|0,2:0|0:0,0:0:0:0:
364,319,152212,1,8,2:0:0:0:
418,370,152369,1,0,0:0:0:0:
450,301,152527,2,0,L|459:270,1,17.9999995231628
364,137,152843,6,0,L|355:96,1,35.9999990463257,8|0,2:0|0:0,0:0:0:0:
386,24,153317,1,0,0:0:0:0:
438,237,153458,1,8,2:0:0:0:
338,282,153621,1,0,0:0:0:0:
230,222,153784,2,0,L|238:253,1,17.9999995231628
73,287,154110,6,0,L|86:234,1,53.9999985694885,8|0,2:0|0:0,0:0:0:0:
146,21,154746,1,0,0:0:0:0:
73,62,154903,2,0,L|84:102,1,35.9999990463257
214,261,155377,6,0,L|156:279,1,53.9999985694885,8|0,2:0|0:0,0:0:0:0:
289,40,155998,1,0,0:0:0:0:
350,82,156153,1,0,0:0:0:0:
421,13,156308,1,0,0:0:0:0:
480,63,156463,1,0,0:0:0:0:
345,186,156618,6,0,L|335:261,1,71.9999980926514,8|0,2:0|0:0,0:0:0:0:
495,360,157393,1,0,0:0:0:0:
419,295,157548,1,0,0:0:0:0:
326,273,157703,1,0,0:0:0:0:
233,320,157858,2,0,P|192:346|178:352,1,53.9999985694885,8|0,2:0|0:0,0:0:0:0:
11,219,158482,5,8,2:0:0:0:
85,184,158650,2,0,P|98:205|106:232,1,35.9999990463257
26,368,159156,2,0,P|31:347|55:314,1,53.9999985694885,8|0,2:0|0:0,0:0:0:0:
262,186,159794,1,0,0:0:0:0:
211,258,159951,2,0,P|194:242|186:218,1,35.9999990463257
210,22,160425,2,0,P|222:38|241:80,1,53.9999985694885,8|0,2:0|0:0,0:0:0:0:
207,337,161052,5,0,0:0:0:0:
258,268,161216,2,0,P|290:253|303:249,1,35.9999990463257
503,335,161711,2,0,P|476:334|442:322,1,53.9999985694885,8|0,2:0|0:0,0:0:0:0:
426,90,162348,1,0,0:0:0:0:
486,145,162504,1,0,0:0:0:0:
396,239,162660,2,0,L|405:195,1,35.9999990463257,0|8,0:0|2:0,0:0:0:0:
431,15,163285,1,0,0:0:0:0:
347,2,163441,1,0,0:0:0:0:
197,89,163590,5,8,2:0:0:0:
139,18,163754,1,0,0:0:0:0:
229,2,163919,1,0,0:0:0:0:
292,71,164084,1,0,0:0:0:0:
296,92,164249,6,0,L|283:152,1,53.9999985694885,8|0,2:0|0:0,0:0:0:0:
222,367,164872,1,0,0:0:0:0:
171,298,165031,2,0,L|207:268,1,35.9999990463257
161,122,165510,2,0,L|170:180,1,53.9999985694885,8|0,2:0|0:0,0:0:0:0:
35,360,166142,5,0,0:0:0:0:
98,304,166299,2,0,L|71:295,1,17.9999995231628
31,223,166615,1,0,0:0:0:0:
87,102,166773,2,0,L|81:152,1,35.9999990463257,8|0,2:0|0:0,0:0:0:0:
31,209,167247,1,0,0:0:0:0:
18,30,167410,6,0,L|99:19,1,71.9999980926514
171,66,167873,1,0,0:0:0:0:
363,12,168028,1,8,2:0:0:0:
231,201,168183,1,0,0:0:0:0:
388,148,168337,1,2,2:0:0:0:
334,86,168492,1,0,0:0:0:0:
390,253,168652,5,12,2:0:0:0:
492,181,168822,2,0,P|421:178|371:354,1,270.000003147125
467,366,169333,1,8,2:0:0:0:
465,352,169419,1,0,0:0:0:0:
463,338,169504,1,0,0:0:0:0:
294,376,169674,1,2,2:0:0:0:
382,168,169810,5,8,2:0:0:0:
337,80,169971,2,0,P|260:107|130:148,1,179.999995231629
70,60,170455,1,0,0:0:0:0:
235,40,170616,2,0,P|312:67|343:73,1,89.9999976158143,8|0,2:0|0:0,0:0:0:0:
154,4,170935,1,2,2:0:0:0:
89,164,171094,1,0,0:0:0:0:
277,253,171258,6,0,P|291:213|181:126,1,179.999995231629,0|2,0:0|2:0,0:0:0:0:
148,225,171721,1,0,0:0:0:0:
148,225,171799,1,0,0:0:0:0:
148,225,171876,1,8,2:0:0:0:
218,200,172031,5,0,0:0:0:0:
105,143,172185,1,2,2:0:0:0:
60,259,172340,1,0,0:0:0:0:
219,344,172498,5,8,2:0:0:0:
328,211,172655,1,0,0:0:0:0:
183,115,172813,1,2,2:0:0:0:
242,246,172971,5,0,0:0:0:0:
242,246,173050,1,0,0:0:0:0:
242,246,173129,1,8,2:0:0:0:
342,139,173287,1,0,0:0:0:0:
249,147,173445,1,2,2:0:0:0:
317,291,173603,1,0,0:0:0:0:
405,219,173750,5,8,2:0:0:0:
268,65,173913,1,0,0:0:0:0:
168,239,174076,2,0,L|301:217,1,135.000001573563,2|0,2:0|0:0,0:0:0:0:
450,50,174402,6,0,P|384:64|387:199,1,179.999995231629,8|2,2:0|2:0,0:0:0:0:
466,197,174860,1,8,2:0:0:0:
334,358,175017,2,0,P|351:269|354:223,2,89.9999976158143,0|10|0,0:0|2:0|0:0,0:0:0:0:
427,263,175491,5,0,0:0:0:0:
251,202,175649,1,8,2:0:0:0:
466,197,175807,2,0,P|451:91|442:4,1,179.999995231629,2|0,2:0|0:0,0:0:0:0:
200,93,176264,5,8,2:0:0:0:
138,57,176417,1,0,0:0:0:0:
282,15,176570,1,2,2:0:0:0:
276,166,176723,1,0,0:0:0:0:
360,77,176876,2,0,L|245:98,1,89.9999976158143,8|0,2:0|0:0,0:0:0:0:
173,243,177182,1,2,2:0:0:0:
36,137,177335,1,0,0:0:0:0:
136,57,177500,5,8,2:0:0:0:
104,189,177657,1,0,0:0:0:0:
64,326,177815,1,0,0:0:0:0:
82,352,177978,5,0,0:0:0:0:
75,188,178129,1,8,2:0:0:0:
166,73,178281,1,0,0:0:0:0:
141,55,178432,5,8,2:0:0:0:
207,222,178584,1,0,0:0:0:0:
44,337,178738,6,0,P|56:208|63:53,1,270.000003147125,4|2,2:0|2:0,0:0:0:0:
238,152,179199,1,0,0:0:0:0:
371,28,179353,2,0,P|377:162|387:226,1,179.999995231629,8|2,2:0|2:0,0:0:0:0:
351,373,179840,1,8,2:0:0:0:
468,248,179990,1,0,0:0:0:0:
298,273,180140,1,10,2:0:0:0:
462,362,180290,1,0,0:0:0:0:
277,250,180440,5,0,0:0:0:0:
484,221,180590,1,8,2:0:0:0:
342,377,180740,1,0,0:0:0:0:
476,367,180890,1,2,2:0:0:0:
375,163,181040,1,0,0:0:0:0:
460,32,181200,5,8,2:0:0:0:
511,88,181357,1,0,0:0:0:0:
460,32,181515,1,2,2:0:0:0:
511,88,181673,1,0,0:0:0:0:
314,141,181831,1,8,2:0:0:0:
190,28,181989,1,0,0:0:0:0:
126,70,182147,1,2,2:0:0:0:
190,28,182305,1,0,0:0:0:0:
126,70,182456,1,8,2:0:0:0:
278,212,182612,1,0,0:0:0:0:
454,123,182768,1,2,2:0:0:0:
401,59,182924,5,0,0:0:0:0:
487,251,183081,2,0,P|503:320|516:368,1,89.9999976158143,8|0,3:0|0:0,0:0:0:0:
439,349,183393,5,10,2:0:0:0:
501,174,183549,1,0,0:0:0:0:
463,16,183698,5,4,2:0:0:0:
484,82,183857,1,0,0:0:0:0:
491,9,184017,1,2,2:0:0:0:
506,80,184176,1,0,0:0:0:0:
316,21,184336,6,0,P|255:16|209:6,1,89.9999976158143,8|0,2:0|0:0,0:0:0:0:
165,43,184655,1,2,2:0:0:0:
192,53,184820,1,8,2:0:0:0:
314,10,184974,5,0,0:0:0:0:
222,124,185129,1,2,2:0:0:0:
93,30,185283,1,0,0:0:0:0:
167,31,185438,1,0,0:0:0:0:
188,60,185593,1,8,2:0:0:0:
344,93,185744,5,0,0:0:0:0:
183,197,185896,1,2,2:0:0:0:
76,51,186047,1,0,0:0:0:0:
189,35,186206,5,0,0:0:0:0:
42,125,186367,1,0,0:0:0:0:
183,123,186528,5,2,2:0:0:0:
66,23,186689,1,0,0:0:0:0:
267,48,186851,2,0,P|289:173|319:329,1,270.000003147125,8|2,2:0|2:0,0:0:0:0:
384,292,187335,1,0,0:0:0:0:
199,98,187476,5,8,2:0:0:0:
62,162,187633,1,0,0:0:0:0:
199,231,187791,1,10,2:0:0:0:
199,231,187870,1,0,0:0:0:0:
199,231,187949,1,0,0:0:0:0:
441,144,188107,5,8,2:0:0:0:
506,181,188268,1,0,0:0:0:0:
71,144,188429,5,10,2:0:0:0:
6,181,188590,1,0,0:0:0:0:
270,342,188744,6,0,P|288:191|306:52,1,270.000003147125,4|0,2:0|0:0,0:0:0:0:
6,319,189456,1,8,2:0:0:0:
80,352,189628,2,0,P|67:245|54:147,1,179.999995231629
455,33,190130,6,0,P|437:166|421:300,1,270.000003147125,4|0,2:0|0:0,0:0:0:0:
42,48,190788,1,8,2:0:0:0:
106,0,190954,2,0,P|117:89|128:178,1,179.999995231629
478,352,191472,6,0,P|493:217|512:84,1,270.000003147125,4|0,2:0|0:0,0:0:0:0:
23,320,192136,1,8,2:0:0:0:
87,365,192303,2,0,P|98:276|109:187,1,179.999995231629
290,79,192777,5,8,2:0:0:0:
62,59,192938,1,0,0:0:0:0:
209,222,193100,1,2,2:0:0:0:
181,0,193262,1,0,0:0:0:0:
81,190,193423,5,8,3:0:0:0:
227,371,193585,1,0,0:0:0:0:
477,329,193747,1,10,2:0:0:0:
512,132,193909,1,0,0:0:0:0:
363,0,194078,6,0,P|158:21|28:33,1,270.000003147125,4|0,2:0|0:0,0:0:0:0:
461,348,194746,1,8,2:0:0:0:
512,279,194913,2,0,P|399:265|292:251,1,179.999995231629
0,33,195415,6,0,P|134:20|268:5,1,270.000003147125,4|0,2:0|0:0,0:0:0:0:
51,382,196089,1,8,2:0:0:0:
0,313,196256,2,0,P|113:299|220:285,1,179.999995231629
414,13,196763,6,0,P|467:148|414:301,1,270.000003147125,4|0,2:0|0:0,0:0:0:0:
16,106,197429,1,8,2:0:0:0:
64,45,197596,2,0,P|121:25|248:92,1,179.999995231629
263,288,198088,5,8,2:0:0:0:
71,239,198247,1,0,0:0:0:0:
128,190,198407,1,2,2:0:0:0:
73,355,198566,1,0,0:0:0:0:
23,130,198726,5,8,3:0:0:0:
313,73,198885,1,0,0:0:0:0:
170,16,199045,1,10,2:0:0:0:
286,220,199205,1,0,0:0:0:0:
459,47,199372,5,0,0:0:0:0:
459,47,199713,1,0,0:0:0:0:
111,116,200055,1,8,2:0:0:0:
111,116,200226,1,0,0:0:0:0:
111,116,200568,1,0,0:0:0:0:
323,354,200720,5,4,2:0:0:0:
323,354,201060,1,0,0:0:0:0:
323,27,201401,1,8,2:0:0:0:
323,27,201572,1,0,0:0:0:0:
323,27,201913,1,0,0:0:0:0:
39,194,202088,5,4,2:0:0:0:
39,194,202417,1,0,0:0:0:0:
431,312,202747,1,8,2:0:0:0:
431,312,202892,1,0,0:0:0:0:
431,312,203232,1,0,0:0:0:0:
230,20,203384,5,8,2:0:0:0:
187,182,203540,1,0,0:0:0:0:
257,289,203696,1,2,2:0:0:0:
213,362,203852,1,0,0:0:0:0:
34,296,204009,5,8,3:0:0:0:
82,122,204165,1,0,0:0:0:0:
371,248,204321,1,10,2:0:0:0:
417,78,204477,1,0,0:0:0:0:
230,20,204646,6,0,P|210:176|197:307,1,270.000003147125,4|2,2:0|0:2,0:0:0:0:
253,342,205160,1,0,0:0:0:0:
134,169,205331,2,0,P|81:180|-17:201,1,135.000001573563,8|0,2:0|0:0,0:0:0:0:
316,242,205674,1,2,2:0:0:0:
184,85,205846,1,0,0:0:0:0:
39,321,206016,6,0,P|199:338|372:351,1,270.000003147125,4|2,2:0|0:2,0:0:0:0:
377,318,206521,1,0,0:0:0:0:
185,123,206690,2,0,P|170:209|157:279,1,135.000001573563,8|0,2:0|0:0,0:0:0:0:
307,160,207027,1,2,2:0:0:0:
65,198,207195,1,0,0:0:0:0:
125,12,207350,6,0,P|306:48|442:77,1,270.000003147125,4|2,2:0|0:2,0:0:0:0:
458,34,207850,1,0,0:0:0:0:
320,294,208016,2,0,P|310:191|305:141,1,135.000001573563,8|0,2:0|0:0,0:0:0:0:
415,230,208350,1,2,2:0:0:0:
199,109,208516,1,0,0:0:0:0:
22,306,208668,5,8,2:0:0:0:
216,356,208827,1,8,2:0:0:0:
318,317,208987,1,2,2:0:0:0:
512,367,209146,1,0,0:0:0:0:
113,263,209306,5,8,2:0:0:0:
444,199,209471,1,8,2:0:0:0:
457,184,209637,5,10,2:0:0:0:
72,105,209803,1,0,0:0:0:0:
11,334,209968,5,12,2:0:0:0:
256,192,210134,12,0,220576,0:0:0:0:
448,197,221158,6,0,P|439:117|432:1,1,179.999995231629,4|0,2:0|0:0,0:0:0:0:
421,35,221419,1,0,0:0:0:0:
442,22,221506,1,0,0:0:0:0:
312,62,221681,1,0,0:0:0:0:
337,168,221855,2,0,P|347:262|355:340,1,135.000001573563,8|0,2:0|0:0,0:0:0:0:
413,339,222204,1,2,2:0:0:0:
430,270,222324,1,0,0:0:0:0:
226,348,222487,6,0,L|41:326,1,179.999995231629,0|2,0:0|2:0,0:0:0:0:
4,262,222976,1,0,0:0:0:0:
231,83,223139,5,8,2:0:0:0:
323,224,223292,1,0,0:0:0:0:
157,178,223445,1,2,2:0:0:0:
348,127,223598,1,0,0:0:0:0:
219,266,223778,5,0,0:0:0:0:
393,345,223937,1,0,0:0:0:0:
294,183,224097,1,2,2:0:0:0:
286,366,224256,1,0,0:0:0:0:
409,231,224416,1,8,2:0:0:0:
319,276,224575,5,0,0:0:0:0:
319,276,224655,1,0,0:0:0:0:
319,276,224735,1,2,2:0:0:0:
465,308,224895,1,0,0:0:0:0:
395,126,225022,6,0,L|328:142,1,44.9999988079071,8|0,2:0|0:0,0:0:0:0:
284,107,225178,2,0,L|143:140,1,135.000001573563,0|2,0:0|2:0,0:0:0:0:
82,122,225490,1,0,0:0:0:0:
250,32,225647,5,8,2:0:0:0:
393,53,225803,1,0,0:0:0:0:
296,173,225959,1,10,2:0:0:0:
308,87,226115,1,0,0:0:0:0:
452,330,226280,6,0,L|256:303,1,179.999995231629,0|2,0:0|2:0,0:0:0:0:
152,301,226763,1,0,0:0:0:0:
330,344,226925,2,0,L|508:368,1,179.999995231629,8|2,2:0|2:0,0:0:0:0:
82,291,227388,5,0,0:0:0:0:
452,330,227544,2,0,L|362:317,1,89.9999976158143,2|0,2:0|0:0,0:0:0:0:
279,342,227856,2,0,L|368:354,1,89.9999976158143
17,290,228169,6,0,L|229:321,1,179.999995231629,8|2,2:0|2:0,0:0:0:0:
449,165,228647,1,0,0:0:0:0:
442,179,228727,1,0,0:0:0:0:
440,165,228796,2,0,P|396:172|362:298,1,179.999995231629,4|2,2:0|2:0,0:0:0:0:
427,308,229257,1,0,0:0:0:0:
229,174,229411,2,0,P|215:98|214:76,1,89.9999976158143,8|0,2:0|0:0,0:0:0:0:
163,28,229719,1,2,2:0:0:0:
141,100,229866,5,0,0:0:0:0:
142,252,230022,1,8,2:0:0:0:
22,340,230178,1,0,0:0:0:0:
100,356,230334,1,2,2:0:0:0:
21,162,230494,5,0,0:0:0:0:
171,188,230662,1,8,3:0:0:0:
215,341,230831,1,8,2:0:0:0:
268,286,230999,1,10,2:0:0:0:
299,348,231128,2,0,L|353:366,1,44.9999988079071
492,288,231287,6,0,B|465:214|465:214|467:179|467:179|412:27,1,270.000003147125,4|2,2:0|2:0,0:0:0:0:
251,213,231755,1,0,0:0:0:0:
251,213,231833,1,0,0:0:0:0:
251,213,231912,2,0,B|267:168|267:168|266:147|266:147|299:56,2,135.000001573563,8|0|2,2:0|0:0|2:0,0:0:0:0:
149,178,232390,5,8,2:0:0:0:
30,102,232538,1,0,0:0:0:0:
98,32,232687,2,0,B|45:179|45:179|47:214|47:214|20:288,1,270.000003147125,8|0,2:0|0:0,0:0:0:0:
324,94,233132,6,0,B|377:240|377:240|375:275|375:275|402:349,1,270.000003147125,8|0,2:0|0:0,0:0:0:0:
316,319,233757,5,8,2:0:0:0:
451,271,233913,1,0,0:0:0:0:
280,234,234069,1,2,2:0:0:0:
425,161,234225,1,0,0:0:0:0:
371,237,234382,5,0,0:0:0:0:
383,249,234538,1,0,0:0:0:0:
326,154,234694,1,2,2:0:0:0:
341,154,234842,1,0,0:0:0:0:
223,257,234995,5,8,2:0:0:0:
44,199,235149,1,0,0:0:0:0:
231,140,235303,1,2,2:0:0:0:
125,293,235457,1,0,0:0:0:0:
116,105,235611,1,8,2:0:0:0:
138,76,235772,1,0,0:0:0:0:
101,11,235933,1,2,2:0:0:0:
153,176,236094,5,0,0:0:0:0:
153,176,236175,1,0,0:0:0:0:
153,176,236256,2,0,L|186:345,1,135.000001573563,12|0,2:0|0:0,0:0:0:0:
240,351,236536,1,2,2:0:0:0:
89,315,236676,1,0,0:0:0:0:
254,233,236816,2,0,L|279:32,1,179.999995231629,8|2,2:0|2:0,0:0:0:0:
364,24,237276,5,0,0:0:0:0:
443,123,237424,2,0,P|400:145|366:182,1,89.9999976158143,0|2,0:0|2:0,0:0:0:0:
337,108,237721,1,0,0:0:0:0:
204,55,237870,1,0,0:0:0:0:
69,123,238028,2,0,P|112:145|146:182,1,89.9999976158143,8|0,2:0|0:0,0:0:0:0:
126,248,238250,1,0,0:0:0:0:
126,248,238325,2,0,L|273:217,1,134.999996423721,2|0,2:0|0:0,0:0:0:0:
367,162,238622,6,0,L|460:189,1,89.9999976158143,8|0,2:0|0:0,0:0:0:0:
489,253,238770,1,0,0:0:0:0:
489,253,238919,1,2,2:0:0:0:
238,298,239072,6,0,L|324:272,1,89.9999976158143,8|0,2:0|0:0,0:0:0:0:
389,240,239223,1,0,0:0:0:0:
389,240,239375,1,2,2:0:0:0:
143,118,239526,6,0,L|229:143,1,89.9999976158143,8|0,2:0|0:0,0:0:0:0:
280,198,239678,1,0,0:0:0:0:
280,198,239829,1,2,2:0:0:0:
455,338,239954,5,8,2:0:0:0:
466,329,240024,1,8,2:0:0:0:
470,309,240095,1,8,2:0:0:0:
437,243,240166,1,8,2:0:0:0:
348,230,240237,1,8,2:0:0:0:
292,283,240307,1,8,2:0:0:0:
237,336,240378,1,8,2:0:0:0:
203,333,240449,1,0,0:0:0:0:
185,319,240525,1,0,0:0:0:0:
163,298,240599,1,0,0:0:0:0:
125,288,240672,1,0,0:0:0:0:
104,293,240746,1,0,0:0:0:0:
91,303,240819,1,0,0:0:0:0:
77,312,240893,1,0,0:0:0:0:
67,316,240966,1,0,0:0:0:0:
59,315,241040,6,0,P|52:145|46:3,1,270.000003147125,12|2,2:0|2:0,0:0:0:0:
221,182,241513,1,0,0:0:0:0:
394,83,241671,2,0,P|386:199|381:282,1,135.000001573563,8|0,2:0|0:0,0:0:0:0:
431,348,241987,1,8,2:0:0:0:
235,328,242126,5,8,2:0:0:0:
272,254,242283,1,0,0:0:0:0:
277,15,242441,5,8,2:0:0:0:
238,83,242599,1,0,0:0:0:0:
267,164,242757,1,0,0:0:0:0:
284,260,242915,1,8,2:0:0:0:
252,344,243065,1,0,0:0:0:0:
227,73,243215,5,2,2:0:0:0:
267,10,243365,1,0,0:0:0:0:
246,338,243510,6,0,P|135:321|33:310,1,179.999995231629,0|2,0:0|2:0,0:0:0:0:
17,367,243964,1,0,0:0:0:0:
325,321,244116,2,0,P|384:319|430:311,1,89.9999976158143,8|0,2:0|0:0,0:0:0:0:
236,249,244408,2,0,P|177:247|131:239,1,89.9999976158143,2|0,2:0|0:0,0:0:0:0:
424,200,244711,2,0,P|466:218|469:269,1,89.9999976158143,8|0,2:0|0:0,0:0:0:0:
307,191,245014,5,0,0:0:0:0:
252,56,245165,1,0,0:0:0:0:
323,80,245316,1,8,2:0:0:0:
241,227,245468,1,0,0:0:0:0:
315,200,245620,1,2,2:0:0:0:
246,48,245771,1,0,0:0:0:0:
329,88,245938,6,0,P|193:100|14:117,1,270.000003147125,12|2,2:0|2:0,0:0:0:0:
25,231,246399,1,0,0:0:0:0:
239,360,246553,2,0,P|146:349|51:349,1,135.000001573563,8|0,2:0|0:0,0:0:0:0:
34,234,246861,1,2,2:0:0:0:
236,177,247016,6,0,P|322:211|343:216,1,89.9999976158143,8|0,2:0|0:0,0:0:0:0:
345,341,247325,2,0,P|408:316|452:315,1,89.9999976158143,10|0,2:0|0:0,0:0:0:0:
507,367,247634,1,0,0:0:0:0:
326,217,247798,2,0,P|335:154|347:4,1,179.999995231629,8|2,2:0|2:0,0:0:0:0:
288,0,248243,1,0,0:0:0:0:
406,193,248392,5,8,2:0:0:0:
477,169,248546,1,0,0:0:0:0:
512,236,248701,1,2,2:0:0:0:
440,264,248855,1,0,0:0:0:0:
402,181,249010,5,8,2:0:0:0:
314,162,249165,1,0,0:0:0:0:
248,224,249319,1,2,2:0:0:0:
162,236,249474,1,0,0:0:0:0:
99,176,249642,5,8,2:0:0:0:
330,243,249790,1,0,0:0:0:0:
167,243,249939,1,2,2:0:0:0:
245,212,250100,1,0,0:0:0:0:
57,244,250244,1,8,3:0:0:0:
378,182,250388,1,0,0:0:0:0:
188,159,250556,5,10,2:0:0:0:
232,289,250717,1,0,0:0:0:0:
278,90,250878,2,0,P|297:230|313:373,1,270.000003147125,12|2,2:0|2:0,0:0:0:0:
125,277,251351,1,0,0:0:0:0:
284,102,251509,2,0,P|364:125|467:153,1,135.000001573563,8|0,2:0|0:0,0:0:0:0:
478,202,251825,1,2,2:0:0:0:
236,271,251996,6,0,P|252:204|259:164,1,89.9999976158143,8|0,2:0|0:0,0:0:0:0:
126,27,252287,2,0,P|142:84|163:138,1,89.9999976158143,8|0,2:0|0:0,0:0:0:0:
351,189,252578,1,0,0:0:0:0:
239,353,252722,2,0,P|150:336|53:323,1,179.999995231629,8|2,2:0|2:0,0:0:0:0:
4,371,253176,1,0,0:0:0:0:
319,337,253328,6,0,P|364:299|330:172,1,179.999995231629,0|2,0:0|2:0,0:0:0:0:
247,131,253787,1,0,0:0:0:0:
151,246,253940,2,0,P|236:236|278:236,1,89.9999976158143,8|0,2:0|0:0,0:0:0:0:
11,149,254246,2,0,P|79:172|107:200,1,89.9999976158143,2|0,2:0|0:0,0:0:0:0:
158,335,254552,5,8,2:0:0:0:
79,356,254699,1,0,0:0:0:0:
1,369,254847,1,0,0:0:0:0:
216,262,254995,5,8,2:0:0:0:
298,242,255143,1,0,0:0:0:0:
358,308,255290,1,0,0:0:0:0:
228,343,255438,5,8,3:0:0:0:
182,182,255586,1,0,0:0:0:0:
229,22,255746,5,12,2:0:0:0:
404,79,255897,1,0,0:0:0:0:
267,99,256049,1,2,2:0:0:0:
375,6,256201,1,0,0:0:0:0:
335,175,256353,2,0,L|366:363,1,179.999995231629,8|2,2:0|2:0,0:0:0:0:
163,195,256809,6,0,P|212:177|259:171,1,89.9999976158143,8|0,2:0|0:0,0:0:0:0:
509,262,257113,2,0,P|453:251|414:231,1,89.9999976158143,8|0,2:0|0:0,0:0:0:0:
345,165,257416,1,0,0:0:0:0:
439,0,257568,2,0,P|458:71|492:205,1,179.999995231629,8|2,2:0|2:0,0:0:0:0:
438,326,258024,1,0,0:0:0:0:
249,171,258176,5,8,2:0:0:0:
132,206,258327,1,0,0:0:0:0:
211,253,258479,1,2,2:0:0:0:
171,123,258630,1,0,0:0:0:0:
88,340,258782,2,0,P|158:358|210:368,1,89.9999976158143,8|0,2:0|0:0,0:0:0:0:
275,331,259085,2,0,P|326:320|383:321,1,89.9999976158143,2|0,2:0|0:0,0:0:0:0:
457,361,259414,5,8,2:0:0:0:
400,204,259562,1,0,0:0:0:0:
492,83,259711,1,0,0:0:0:0:
415,16,259859,5,8,2:0:0:0:
504,203,260008,1,0,0:0:0:0:
363,319,260156,1,0,0:0:0:0:
138,183,260305,5,12,2:0:0:0:
172,248,260453,1,0,0:0:0:0:
176,0,260618,6,0,L|-6:42,1,179.999995231629,12|0,2:0|0:0,0:0:0:0:
9,56,260854,1,0,0:0:0:0:
21,42,260933,1,2,2:0:0:0:
70,94,261091,1,0,0:0:0:0:
304,74,261249,6,0,P|389:124|404:192,1,135.000001573563,8|0,2:0|0:0,0:0:0:0:
360,222,261565,1,2,2:0:0:0:
294,182,261730,1,8,2:0:0:0:
66,252,261868,1,0,0:0:0:0:
27,367,262007,1,8,2:0:0:0:
153,348,262146,1,0,0:0:0:0:
84,320,262285,1,2,2:0:0:0:
331,365,262466,6,0,L|290:75,1,270.000003147125,8|2,2:0|2:0,0:0:0:0:
266,31,262925,1,0,0:0:0:0:
392,209,263078,5,8,2:0:0:0:
265,333,263231,1,0,0:0:0:0:
302,165,263384,1,2,2:0:0:0:
391,318,263537,1,0,0:0:0:0:
220,232,263690,5,8,2:0:0:0:
116,312,263843,1,0,0:0:0:0:
146,181,263996,1,2,2:0:0:0:
201,306,264149,1,0,0:0:0:0:
82,239,264302,1,8,2:0:0:0:
360,75,264438,5,0,0:0:0:0:
329,241,264591,1,2,2:0:0:0:
250,90,264744,1,0,0:0:0:0:
407,163,264897,1,8,3:0:0:0:
239,189,265045,1,0,0:0:0:0:
443,83,265194,5,10,2:0:0:0:
181,35,265342,5,0,0:0:0:0:
320,341,265500,6,0,L|308:252,1,89.9999976158143,12|0,2:0|0:0,0:0:0:0:
327,244,265654,2,0,L|298:53,1,179.999995231629,0|2,0:0|2:0,0:0:0:0:
260,7,265963,1,0,0:0:0:0:
139,122,266118,6,0,L|146:180,1,44.9999988079071,8|0,2:0|0:0,0:0:0:0:
50,244,266418,1,8,2:0:0:0:
239,356,266566,6,0,L|228:264,1,89.9999976158143,0|2,0:0|2:0,0:0:0:0:
480,133,266892,5,0,0:0:0:0:
301,43,267036,2,0,L|309:142,1,89.9999976158143,2|0,2:0|0:0,0:0:0:0:
232,185,267324,5,8,2:0:0:0:
365,287,267481,1,0,0:0:0:0:
405,122,267639,1,2,2:0:0:0:
336,197,267797,1,0,0:0:0:0:
453,233,267948,6,0,L|460:183,1,44.9999988079071,8|0,2:0|0:0,0:0:0:0:
442,260,268093,2,0,L|468:73,2,179.999995231629,0|2|0,0:0|2:0|0:0,0:0:0:0:
262,113,268530,5,8,2:0:0:0:
209,222,268676,1,0,0:0:0:0:
110,155,268821,1,2,2:0:0:0:
24,317,268974,6,0,L|17:267,1,44.9999988079071
35,344,269133,2,0,L|9:157,2,179.999995231629,8|0|8,2:0|0:0|2:0,0:0:0:0:
251,205,269606,5,0,0:0:0:0:
235,300,269761,1,2,2:0:0:0:
237,333,269915,1,0,0:0:0:0:
306,155,270070,5,8,2:0:0:0:
83,87,270225,5,0,0:0:0:0:
83,87,270670,1,2,2:0:0:0:
136,144,270815,1,0,0:0:0:0:
328,38,270966,6,0,L|499:111,1,179.999995231629,8|0,2:0|0:0,0:0:0:0:
506,179,271275,1,2,2:0:0:0:
280,337,271429,6,0,P|250:269|263:185,1,135.000001573563,8|0,2:0|0:0,0:0:0:0:
332,196,271739,1,8,2:0:0:0:
464,256,271893,2,8,P|389:290|318:255,1,135.000001573563,2|0,2:0|0:0,2:0:0:0:
188,128,272178,6,0,P|132:118|24:179,1,179.999995231629,8|8,2:0|2:0,0:0:0:0:
37,247,272637,1,0,0:0:0:0:
256,290,272790,6,0,L|243:196,1,89.9999976158143,8|0,2:0|0:0,0:0:0:0:
243,293,273093,2,0,L|256:199,1,89.9999976158143,2|0,2:0|0:0,0:0:0:0:
269,136,273396,1,8,2:0:0:0:
258,58,273547,1,0,0:0:0:0:
265,1,273699,1,2,2:0:0:0:
246,35,273850,1,0,0:0:0:0:
276,44,274002,1,8,2:0:0:0:
406,24,274153,5,0,0:0:0:0:
467,86,274300,1,2,2:0:0:0:
401,140,274447,1,0,0:0:0:0:
237,122,274594,1,8,3:0:0:0:
173,149,274748,1,0,0:0:0:0:
210,209,274907,1,0,0:0:0:0:
220,217,275067,1,2,2:0:0:0:
264,363,275236,5,8,2:0:0:0:
300,303,275540,1,2,2:0:0:0:
231,302,275692,1,0,0:0:0:0:
340,371,275845,6,0,L|352:262,1,89.9999976158143,8|0,2:0|0:0,0:0:0:0:
172,371,276149,6,0,L|160:262,1,89,2|0,2:0|0:0,0:0:0:0:
149,208,276454,2,0,L|21:248,2,134.999996423721,0|0|2,0:0|0:0|2:0,0:0:0:0:
184,146,277079,2,0,L|284:167,1,89.9999976158143,8|0,2:0|0:0,0:0:0:0:
314,105,277391,2,0,L|499:138,1,179.999995231629,2|8,2:0|2:0,0:0:0:0:
500,208,277848,5,0,0:0:0:0:
355,203,277992,1,2,2:0:0:0:
334,327,278136,1,0,0:0:0:0:
398,365,278280,1,8,2:0:0:0:
411,369,278425,1,0,0:0:0:0:
451,299,278600,5,8,2:0:0:0:
439,281,278747,1,0,0:0:0:0:
332,226,278894,1,2,2:0:0:0:
283,279,279041,1,0,0:0:0:0:
266,289,279188,1,8,3:0:0:0:
202,260,279502,5,8,2:0:0:0:
145,225,279656,1,0,0:0:0:0:
106,237,279811,1,10,2:0:0:0:
67,271,279965,1,0,0:0:0:0:
5,267,280120,1,12,2:0:0:0:
256,192,280275,12,0,299295,0:0:0:0:
