osu file format v14

[General]
AudioFilename: audio.ogg
AudioLeadIn: 0
PreviewTime: 15
Countdown: 0
SampleSet: Normal
StackLeniency: 0.7
Mode: 0
LetterboxInBreaks: 0
WidescreenStoryboard: 1

[Editor]
Bookmarks: 24057,45329,66083,81680,97052,112426,127760,148304,168652,188744,209968,221158,241040,260618,280120
DistanceSpacing: 0.1
BeatDivisor: 4
GridSize: 8
TimelineZoom: 2.6

[Metadata]
Title:Be Quiet and Drive (Far Away)
TitleUnicode:Be Quiet and Drive (Far Away)
Artist:Deftones
ArtistUnicode:Deftones
Creator:aishiteiru-
Version:collab insane
Source:
Tags:english around the fur nu metal alternative rock mirash semaphore riffy myahkey godsenger florescence
BeatmapID:3513269
BeatmapSetID:1701335

[Difficulty]
HPDrainRate:4.5
CircleSize:3.2
OverallDifficulty:6.5
ApproachRate:8
SliderMultiplier:1.99999990463257
SliderTickRate:1

[Events]
//Background and Video events
0,0,"21782.jpg",0,0
//Break Periods
//Storyboard Layer 0 (Background)
//Storyboard Layer 1 (Fail)
//Storyboard Layer 2 (Pass)
//Storyboard Layer 3 (Foreground)
//Storyboard Layer 4 (Overlay)
//Storyboard Sound Samples

[TimingPoints]
24042,674.157303370787,4,1,1,65,1,0
25394,689.655172413793,4,1,1,65,1,0
26762,689.655172413793,4,1,1,65,1,0
28110,666.666666666667,4,1,1,65,1,0
29466,674.157303370786,4,1,1,65,1,0
30802,681.818181818182,4,1,1,65,1,0
32122,657.534246575342,4,1,1,65,1,0
34772,677.966101694915,4,1,1,65,1,0
36094,677.966101694915,4,1,1,65,1,0
37439,666.666666666666,4,1,1,65,1,0
38105,652.173913043479,4,1,1,65,1,0
40067,655.737704918032,4,1,1,65,1,0
41370,652.173913043479,4,1,1,65,1,0
42680,666.666666666666,4,1,1,65,1,0
44003,646.900269541779,4,1,1,65,1,0
44649,681.818181818183,4,1,1,65,1,0
45329,674.157303370787,4,1,1,65,1,0
46003,659.340659340661,4,1,1,65,1,0
47969,655.737704918034,4,1,1,65,1,0
49288,643.43163538874,4,1,1,65,1,0
50574,628.272251308902,4,1,1,65,1,0
51202,652.173913043479,4,1,1,65,1,0
53158,659.34065934066,4,1,1,65,1,0
54466,638.297872340427,4,1,1,65,1,0
55734,674.157303370788,4,1,1,65,1,0
57066,652.173913043479,4,1,1,65,1,0
58362,662.983425414365,4,1,1,65,1,0
59686,641.711229946524,4,1,1,65,1,0
62231,648.648648648649,4,1,1,65,1,0
63530,638.297872340425,4,1,1,65,1,0
66083,655.737704918034,4,1,1,65,1,0
67232,659.34065934066,4,1,1,65,1,0
68070,625,4,1,1,65,1,0
68718,648.648648648649,4,1,1,65,1,0
69997,655.737704918034,4,1,1,65,1,0
71307,638.297872340426,4,1,1,65,1,0
72444,625,4,1,1,65,1,0
73233,648.648648648649,4,1,1,65,1,0
73854,634.920634920636,4,1,1,65,1,0
75123,670.391061452514,4,1,1,65,1,0
75785,645.161290322581,4,1,1,65,1,0
76439,659.34065934066,4,1,1,65,1,0
77770,662.983425414365,4,1,1,65,1,0
79096,648.648648648649,4,1,1,65,1,0
81680,650.406504065041,4,1,1,65,1,0
84262,641.711229946524,4,1,1,65,1,0
86828,612.244897959184,4,1,1,65,1,0
87440,646.900269541779,4,1,1,65,1,0
89380,643.43163538874,4,1,1,65,1,0
91956,641.711229946524,4,1,1,65,1,0
93881,631.578947368422,4,1,1,65,1,0
94506,628.272251308901,4,1,1,65,1,0
95758,645.161290322581,4,1,1,65,1,0
97052,655.737704918033,4,1,1,55,1,0
99019,645.161290322581,4,1,1,55,1,0
99664,641.711229946525,4,1,1,55,1,0
102220,662.983425414365,4,1,1,55,1,0
103533,634.920634920636,4,1,1,55,1,0
104796,634.920634920635,4,1,1,55,1,0
106700,621.761658031089,4,1,1,55,1,0
107321,653.950953678475,4,1,1,55,1,0
108612,631.578947368422,4,1,1,55,1,0
109875,662.983425414365,4,1,1,55,1,0
111170,625.000000000001,4,1,1,55,1,0
112426,638.297872340426,4,1,1,55,1,0
113682,645.161290322581,4,1,1,55,1,0
114962,631.578947368421,4,1,1,55,1,0
116237,652.173913043479,4,1,1,55,1,0
116889,-100,4,1,1,65,0,0
117541,655.737704918033,4,1,1,65,1,0
118694,641.711229946524,4,1,1,65,1,0
119500,648.648648648649,4,1,1,65,1,0
120154,634.920634920636,4,1,1,65,1,0
121265,638.297872340426,4,1,1,65,1,0
122062,625,4,1,1,65,1,0
122687,652.173913043479,4,1,1,65,1,0
123828,615.384615384616,4,1,1,65,1,0
124597,618.556701030928,4,1,1,65,1,0
125215,640,4,1,1,65,1,0
127135,625,4,1,1,65,1,0
127760,666.666666666667,4,1,1,65,1,0
129760,655.737704918034,4,1,1,65,1,0
130415,648.648648648649,4,1,1,65,1,0
131712,638.297872340426,4,1,1,65,1,0
132988,662.983425414365,4,1,1,65,1,0
134297,640,4,1,1,65,1,0
136217,652.173913043479,4,1,1,65,1,0
136869,638.297872340426,4,1,1,65,1,0
138135,640,4,1,1,65,1,0
140055,631.578947368421,4,1,1,65,1,0
140689,641.711229946524,4,1,1,65,1,0
142614,631.578947368422,4,1,1,65,1,0
143245,634.920634920636,4,1,1,65,1,0
145149,641.711229946524,4,1,1,65,1,0
145790,631.578947368422,4,1,1,65,1,0
146421,612.244897959184,4,1,1,65,1,0
147048,618.556701030928,4,1,1,65,1,0
147678,609.137055837564,4,1,1,65,1,0
148304,653.950953678475,4,1,1,55,1,0
148304,-133.333333333333,4,1,1,55,0,0
149938,-100,4,1,1,55,0,0
150886,666.666666666667,4,1,1,55,1,0
152212,631.578947368421,4,1,1,55,1,0
153458,652.173913043479,4,1,1,55,1,0
154746,631.578947368422,4,1,1,55,1,0
155998,620.15503875969,4,1,1,55,1,0
158482,674.157303370787,4,1,1,55,1,0
158650,-133.333333333333,4,1,1,55,0,0
159794,631.578947368422,4,1,1,55,1,0
161052,659.34065934066,4,1,1,55,1,0
162348,625.000000000001,4,1,1,55,1,0
163590,659.34065934066,4,1,1,55,1,0
164872,638.297872340426,4,1,1,55,1,0
166142,631.578947368422,4,1,1,55,1,0
167410,618.556701030928,4,1,1,55,1,0
168028,-100,4,1,1,65,0,0
168652,681.818181818182,4,1,1,65,1,0
168652,-62.5,4,1,1,65,0,1
169810,645.161290322581,4,1,1,65,1,1
170616,638.297872340426,4,1,1,65,1,1
171258,618.556701030928,4,1,1,65,1,1
172498,631.578947368421,4,1,1,65,1,1
173750,652.173913043479,4,1,1,65,1,1
173750,-62.5,4,1,1,65,0,1
174860,631.578947368422,4,1,1,65,1,1
176264,612.244897959184,4,1,1,65,1,1
177500,631.578947368421,4,1,1,65,1,1
177978,606.060606060606,4,1,1,65,1,1
178738,615.384615384615,4,1,1,65,1,1
178738,-62.5,4,1,1,65,0,1
179840,600,4,1,1,65,1,1
181200,631.578947368422,4,1,1,65,1,1
182456,625,4,1,1,65,1,1
183698,638.297872340426,4,1,1,65,1,1
183698,-62.5,4,1,1,65,0,1
184820,618.556701030928,4,1,1,65,1,1
185593,606.060606060606,4,1,1,65,1,1
186206,645.161290322581,4,1,1,65,1,1
187476,631.578947368422,4,1,1,65,1,1
188107,645.161290322581,4,1,1,65,1,1
188744,759.493670886077,4,1,1,65,1,1
188744,-83.3333333333333,4,1,1,65,0,0
189456,689.655172413794,4,1,1,65,1,0
190130,689.655172413793,4,1,1,65,1,0
190130,-83.3333333333333,4,1,1,65,0,0
190788,666.666666666667,4,1,1,65,1,0
191472,664.819944598338,4,1,1,65,1,0
191472,-83.3333333333333,4,1,1,65,0,0
192777,646.900269541779,4,1,1,65,1,0
194078,668.523676880223,4,1,1,65,1,0
194078,-83.3333333333333,4,1,1,65,0,0
195415,674.157303370787,4,1,1,65,1,0
195415,-83.3333333333333,4,1,1,65,0,0
196763,666.666666666667,4,1,1,65,1,0
196763,-83.3333333333333,4,1,1,65,0,0
198088,638.297872340426,4,1,1,65,1,0
199372,683.760683760684,4,1,1,65,1,0
199372,-83.3333333333333,4,1,1,65,0,0
200226,-133.333333333333,4,1,1,65,0,0
200720,681.818181818182,4,1,1,65,1,0
200720,-83.3333333333333,4,1,1,65,0,0
201572,-133.333333333333,4,1,1,65,0,0
202088,659.34065934066,4,1,1,65,1,0
202088,-83.3333333333333,4,1,1,65,0,0
202892,681.818181818182,4,1,1,65,1,0
202892,-83.3333333333333,4,1,1,65,0,0
203384,625,4,1,1,65,1,0
204646,685.714285714286,4,1,1,65,1,1
204646,-66.6666666666667,4,1,1,65,0,0
206016,674.157303370787,4,1,1,65,1,0
206016,-66.6666666666667,4,1,1,65,0,0
207350,666.666666666667,4,1,1,65,1,0
207350,-66.6666666666667,4,1,1,65,0,0
208668,638.297872340426,4,1,1,65,1,0
208668,-66.6666666666667,4,1,1,65,0,0
209306,662.983425414366,4,1,1,65,1,0
209306,-50,4,1,1,65,0,0
209803,-50,4,1,1,65,0,0
209968,-50,4,1,1,65,0,0
210134,-50,4,2,1,5,0,0
211129,-50,4,2,1,5,0,0
221158,697.674418604651,4,1,1,65,1,0
221158,-62.5,4,1,1,65,0,1
222324,652.173913043479,4,1,1,65,1,1
223139,612.244897959184,4,1,1,65,1,1
223778,638.297872340426,4,1,1,65,1,1
225022,625,4,1,1,65,1,1
226280,645.161290322581,4,1,1,65,1,1
226280,-62.5,4,1,1,65,0,1
227388,625,4,1,1,65,1,1
228169,638.297872340426,4,1,1,65,1,1
228796,615.384615384616,4,1,1,65,1,1
229866,625,4,1,1,65,1,1
230494,674.157303370787,4,1,1,65,1,1
231128,638.297872340426,4,1,1,65,1,1
231287,625,4,1,1,65,1,1
231287,-62.5,4,1,1,65,0,1
232390,594.059405940595,4,1,1,65,1,1
233132,625,4,1,1,65,1,1
233757,625,4,1,1,65,1,1
234842,615.384615384616,4,1,1,65,1,1
235611,645.161290322581,4,1,1,65,1,1
236256,560.747663551402,4,1,1,65,1,1
236256,-62.5,4,1,1,65,0,1
237276,594.059405940595,4,1,1,65,1,1
238028,594.059405940594,4,1,1,65,1,1
239072,606.060606060606,4,1,1,65,1,1
239954,566.037735849057,4,1,1,65,1,1
240452,588.235294117648,4,1,1,65,1,1
241040,631.578947368422,4,1,1,65,1,1
241040,-62.5,4,1,1,65,0,1
242126,631.578947368422,4,1,1,65,1,1
242915,600,4,1,1,65,1,1
242915,-62.5,4,1,1,65,0,1
243510,606.060606060606,4,1,1,65,1,1
243510,-62.5,4,1,1,65,0,1
244408,606.060606060606,4,1,1,65,1,1
244408,-62.5,4,1,1,65,0,1
245165,-100,4,1,1,65,0,1
245938,615.384615384616,4,1,1,65,1,1
245938,-62.5,4,1,1,65,0,1
247016,618.556701030928,4,1,1,65,1,1
247798,594.059405940594,4,1,1,65,1,1
248392,618.556701030928,4,1,1,65,1,1
249642,594.059405940595,4,1,1,65,1,1
250100,576.923076923077,4,1,1,65,1,1
250556,645.161290322581,4,1,1,65,1,1
250878,631.578947368422,4,1,1,65,1,1
251193,-62.5,4,1,1,65,0,1
251996,582.52427184466,4,1,1,65,1,1
251996,-62.5,4,1,1,65,0,1
252722,606.060606060606,4,1,1,65,1,1
253328,612.244897959184,4,1,1,65,1,1
254552,591.133004926108,4,1,1,65,1,1
255746,607.594936708862,4,1,1,65,1,1
256353,-62.5,4,1,1,65,0,1
258176,606.060606060606,4,1,1,65,1,1
258176,-62.5,4,1,1,65,0,1
259414,594.059405940594,4,1,1,65,1,1
259414,-62.5,4,1,1,65,0,1
260618,631.578947368422,4,1,1,65,1,1
260618,-62.5,4,1,1,65,0,1
261730,555.555555555556,4,1,1,65,1,1
262466,612.244897959184,4,1,1,65,1,1
263078,612.244897959184,4,1,1,65,1,1
264438,612.244897959184,4,1,1,65,1,1
264897,594.059405940595,4,1,1,65,1,1
265500,618.556701030928,4,1,1,65,1,1
265500,-62.5,4,1,1,65,0,1
266418,594.059405940595,4,1,1,65,1,1
266892,576.923076923077,4,1,1,65,1,1
267324,631.578947368421,4,1,1,65,1,1
267948,582.52427184466,4,1,1,65,1,1
268974,638.297872340426,4,1,1,65,1,1
269452,618.556701030928,4,1,1,65,1,1
270379,582.524271844661,4,1,1,60,1,1
270966,618.556701030928,4,1,1,60,1,1
271429,-100,4,1,1,55,0,1
272178,612.244897959184,4,1,1,55,1,1
272790,606.060606060606,4,1,1,55,1,1
274153,588.235294117647,4,1,1,55,1,1
274748,638.297872340426,4,1,1,50,1,1
275236,609.137055837564,4,1,1,50,1,1
275236,-62.5,4,1,1,50,0,1
276298,625,4,1,1,50,1,1
277079,625,4,1,1,45,1,1
277704,576.923076923077,4,1,1,45,1,1
278600,588.235294117647,4,1,1,40,1,1
279502,618.556701030928,4,1,1,35,1,1
280120,-100,4,1,1,35,0,0
280275,-100,4,2,1,5,0,0
299295,-100,4,2,1,5,0,0

[Colours]
Combo1 : 255,149,149
Combo2 : 255,186,130
Combo3 : 226,184,254
Combo4 : 187,219,255

[HitObjects]
25,149,24042,6,0,P|80:137|152:111,1,99.9999952316285,4|0,2:0|0:0,0:0:0:0:
195,55,24547,1,0,0:0:0:0:
313,162,24716,1,8,2:0:0:0:
216,139,24884,1,0,0:0:0:0:
311,69,25053,1,0,0:0:0:0:
201,37,25221,1,0,0:0:0:0:
309,173,25394,6,0,P|297:240|286:336,1,149.999992847443
152,265,26083,2,0,P|195:239|249:242,1,99.9999952316285,8|2,2:0|2:0,0:0:0:0:
294,318,26600,1,0,0:0:0:0:
176,357,26762,6,0,P|112:348|16:354,1,149.999992847443,4|0,2:0|0:0,0:0:0:0:
50,238,27451,2,0,P|122:252|161:253,1,99.9999952316285,8|0,2:0|0:0,0:0:0:0:
261,32,28110,6,0,P|221:81|205:137,2,99.9999952316285,0|0|8,0:0|0:0|2:0,0:0:0:0:
345,4,28943,1,0,0:0:0:0:
376,89,29110,1,2,2:0:0:0:
360,181,29276,1,0,0:0:0:0:
442,273,29466,6,0,P|452:203|460:81,1,149.999992847443,4|0,2:0|0:0,0:0:0:0:
295,115,30140,2,0,P|338:134|356:206,1,99.9999952316285,8|0,2:0|0:0,0:0:0:0:
316,268,30645,1,0,0:0:0:0:
210,182,30802,6,0,P|197:122|191:58,1,99.9999952316285,0|2,0:0|2:0,0:0:0:0:
248,17,31313,1,0,0:0:0:0:
102,12,31483,1,8,2:0:0:0:
34,71,31654,1,0,0:0:0:0:
108,123,31824,1,2,2:0:0:0:
22,93,31995,1,0,0:0:0:0:
33,206,32122,6,0,P|115:181|220:162,1,149.999992847443,4|0,2:0|0:0,0:0:0:0:
247,230,32779,2,0,P|315:255|357:259,1,99.9999952316285,8|0,2:0|0:0,0:0:0:0:
448,23,33437,6,0,P|422:45|398:98,1,49.9999976158143
334,90,33765,2,0,P|285:50|257:40,1,49.9999976158143,2|0,2:0|0:0,0:0:0:0:
195,30,34094,1,8,2:0:0:0:
217,134,34258,1,0,0:0:0:0:
204,247,34423,1,8,3:0:0:0:
235,351,34587,1,0,0:0:0:0:
357,220,34772,6,0,B|291:201|274:264|207:256,1,149.999992847443,4|0,2:0|0:0,0:0:0:0:
81,175,35449,1,8,2:0:0:0:
132,252,35619,2,0,P|119:310|114:361,1,99.9999952316285
18,242,36094,6,0,P|43:151|47:56,1,149.999992847443
16,11,36771,1,8,2:0:0:0:
177,108,36941,2,0,P|164:156|99:174,1,99.9999952316285
140,18,37439,6,0,P|224:1|314:2,1,149.999992847443,4|0,2:0|0:0,0:0:0:0:
440,59,38105,1,8,2:0:0:0:
360,83,38268,1,0,0:0:0:0:
452,86,38431,1,0,0:0:0:0:
359,60,38594,1,0,0:0:0:0:
479,70,38757,6,0,P|466:170|460:213,1,99.9999952316285,0|2,0:0|2:0,0:0:0:0:
490,263,39246,1,0,0:0:0:0:
372,193,39409,1,8,2:0:0:0:
277,168,39572,1,0,0:0:0:0:
241,304,39735,1,0,0:0:0:0:
336,279,39898,1,0,1:0:0:0:
168,206,40067,6,0,L|102:229,1,49.9999976158143,12|0,2:0|0:0,0:0:0:0:
47,185,40394,2,0,L|0:168,1,49.9999976158143
96,124,40722,2,0,P|88:198|70:315,1,149.999992847443,8|0,2:0|0:0,0:0:0:0:
226,363,41370,2,0,P|215:288|207:214,1,149.999992847443
172,88,42022,2,0,P|229:90|281:76,1,99.9999952316285,8|2,2:0|2:0,0:0:0:0:
322,12,42511,1,0,0:0:0:0:
114,22,42680,6,0,P|143:121|152:193,1,149.999992847443,4|0,2:0|0:0,0:0:0:0:
17,177,43346,2,0,P|62:134|144:164,1,149.999992847443,8|0,2:0|0:0,0:0:0:0:
169,325,44003,1,8,2:0:0:0:
89,290,44164,1,8,2:0:0:0:
0,267,44326,1,2,2:0:0:0:
0,287,44488,1,0,0:0:0:0:
107,234,44649,1,8,3:0:0:0:
232,225,44819,1,0,0:0:0:0:
335,263,44989,1,10,2:0:0:0:
422,343,45160,1,0,0:0:0:0:
426,364,45329,6,0,L|464:201,1,149.999992847443,4|0,2:0|0:0,0:0:0:0:
384,120,46003,2,0,P|336:152|304:152,1,49.9999976158143,8|0,2:0|0:0,0:0:0:0:
256,288,46332,2,0,P|336:280|424:280,1,149.999992847443,2|0,2:0|0:0,0:0:0:0:
384,120,46992,1,2,2:0:0:0:
304,80,47156,1,0,0:0:0:0:
272,0,47321,1,8,2:0:0:0:
272,0,47651,2,0,L|256:64,1,49.9999976158143,2|0,2:0|0:0,0:0:0:0:
168,216,47969,6,0,P|120:176|128:40,1,199.999990463257,4|8,2:0|2:0,0:0:0:0:
259,48,48788,2,0,L|315:56,1,49.9999976158143,0|2,0:0|2:0,0:0:0:0:
208,128,49116,2,0,L|352:152,1,101
384,184,49609,1,2,2:0:0:0:
440,256,49770,1,0,0:0:0:0:
472,344,49931,2,0,P|448:360|400:360,1,49.9999976158143,8|0,2:0|0:0,0:0:0:0:
484,235,50253,2,0,P|460:251|412:251,1,49.9999976158143,2|0,2:0|0:0,0:0:0:0:
416,264,50494,1,0,0:0:0:0:
392,272,50574,6,0,L|232:296,1,149.999992847443
56,232,51202,1,8,2:0:0:0:
80,384,51365,2,0,P|128:376|184:368,2,99.9999952316285
56,232,52180,2,0,P|40:200|40:168,1,49.9999976158143,2|0,2:0|0:0,0:0:0:0:
104,88,52506,1,8,2:0:0:0:
176,200,52669,2,0,P|168:248|136:296,1,99.9999952316285
141,290,53077,1,0,0:0:0:0:
141,290,53158,6,0,L|304:272,1,149.999992847443,4|0,2:0|0:0,0:0:0:0:
368,216,53817,1,8,2:0:0:0:
456,192,53982,2,0,L|512:200,1,49.9999976158143,0|2,0:0|2:0,0:0:0:0:
336,120,54311,1,0,0:0:0:0:
440,96,54466,5,0,0:0:0:0:
368,216,54625,2,0,P|368:272|392:328,1,99.9999952316285
256,232,55104,2,0,L|264:176,1,49.9999976158143,8|0,2:0|0:0,0:0:0:0:
160,240,55423,2,0,L|168:296,1,49.9999976158143,2|0,2:0|0:0,0:0:0:0:
48,248,55734,6,0,P|32:176|24:88,1,149.999992847443
80,24,56408,1,8,2:0:0:0:
176,64,56576,1,0,0:0:0:0:
112,136,56745,1,2,2:0:0:0:
24,100,56913,1,0,0:0:0:0:
112,136,57066,2,0,P|176:136|288:104,1,149.999992847443,4|0,2:0|0:0,0:0:0:0:
320,24,57718,2,0,P|296:0|248:0,1,49.9999976158143,8|0,2:0|0:0,0:0:0:0:
368,120,58044,1,2,2:0:0:0:
368,120,58362,6,0,P|336:176|328:280,1,149.999992847443
440,248,59024,2,0,L|512:240,1,49.9999976158143,8|0,2:0|0:0,0:0:0:0:
325,259,59356,2,0,L|165:275,1,148,2|0,2:0|0:0,0:0:0:0:
280,360,60006,2,0,L|352:352,1,49.9999976158143,2|0,2:0|0:0,0:0:0:0:
352,160,60327,2,0,L|280:168,1,49.9999976158143,8|0,2:0|0:0,0:0:0:0:
200,184,60648,1,2,2:0:0:0:
24,304,60808,1,0,0:0:0:0:
24,304,60889,1,0,0:0:0:0:
24,304,60969,6,0,P|2:239|5:143,1,149.999992847443,4|0,2:0|0:0,0:0:0:0:
96,80,61611,1,8,2:0:0:0:
112,232,61771,2,0,P|111:272|115:345,1,99.9999952316285
200,184,62231,2,0,L|184:128,1,49.9999976158143
112,232,62555,1,2,2:0:0:0:
360,304,62879,6,0,L|384:248,1,49.9999976158143,8|0,2:0|0:0,0:0:0:0:
480,192,63203,2,0,L|504:248,1,49.9999976158143,2|0,2:0|0:0,0:0:0:0:
448,336,63530,5,8,2:0:0:0:
261,289,63689,2,0,P|310:294|360:304,1,99.9999952316285
464,200,64168,1,8,2:0:0:0:
480,104,64327,2,0,P|472:56|424:8,1,99.9999952316285
368,136,64806,2,0,L|320:112,1,49.9999976158143,8|0,2:0|0:0,0:0:0:0:
296,24,65125,2,0,L|240:32,1,49.9999976158143,10|0,2:0|0:0,0:0:0:0:
480,104,65444,2,0,L|488:160,1,49.9999976158143,8|0,3:0|0:0,0:0:0:0:
400,216,65764,1,10,2:0:0:0:
304,240,65923,1,0,0:0:0:0:
200,232,66083,6,0,P|136:216|80:208,1,99.9999952316285,4|2,2:0|2:0,0:0:0:0:
11,242,66574,1,0,0:0:0:0:
110,342,66738,2,0,P|159:325|222:314,1,99.9999952316285,8|2,2:0|2:0,0:0:0:0:
366,278,67232,6,0,P|351:309|346:331,1,49.9999976158143,8|0,2:0|0:0,0:0:0:0:
365,332,67561,2,0,P|357:308|346:286,1,49.9999976158143,8|0,2:0|0:0,0:0:0:0:
275,231,67891,1,0,0:0:0:0:
373,105,68070,2,0,P|366:154|365:219,1,99.9999952316285,8|2,2:0|2:0,0:0:0:0:
436,268,68538,1,0,0:0:0:0:
469,78,68718,6,0,P|441:21|391:17,1,99.9999952316285,4|2,2:0|2:0,0:0:0:0:
291,79,69204,1,0,0:0:0:0:
292,92,69366,2,0,P|240:120|193:119,1,99.9999952316285,8|2,2:0|2:0,0:0:0:0:
147,45,69853,1,0,0:0:0:0:
16,25,69997,2,0,P|73:50|84:70,1,49.9999976158143,0|8,0:0|2:0,0:0:0:0:
83,126,70324,2,0,P|45:141|31:155,1,49.9999976158143,2|0,2:0|0:0,0:0:0:0:
11,234,70652,1,8,2:0:0:0:
66,305,70816,1,0,0:0:0:0:
4,363,70980,1,2,2:0:0:0:
73,295,71144,1,0,0:0:0:0:
164,341,71308,6,0,P|225:317|328:304,1,149.999992847443,4|0,2:0|0:0,0:0:0:0:
394,333,71945,2,0,P|450:357|489:355,1,99.9999952316285,8|2,2:0|2:0,0:0:0:0:
428,162,72444,6,0,P|405:177|360:175,1,49.9999976158143,8|0,2:0|0:0,0:0:0:0:
375,165,72756,2,0,P|417:179|443:198,1,49.9999976158143,8|0,2:0|0:0,0:0:0:0:
458,260,73069,1,0,0:0:0:0:
301,236,73233,2,0,P|316:170|309:85,1,149.999992847443,8|0,2:0|0:0,0:0:0:0:
228,27,73854,5,8,2:0:0:0:
146,67,74012,1,8,2:0:0:0:
68,27,74171,1,2,2:0:0:0:
23,44,74330,1,0,0:0:0:0:
1,154,74488,5,8,2:0:0:0:
36,235,74647,1,0,0:0:0:0:
22,319,74806,1,2,2:0:0:0:
37,350,74965,1,0,0:0:0:0:
230,291,75123,5,8,2:0:0:0:
125,265,75290,1,8,2:0:0:0:
256,330,75458,5,2,2:0:0:0:
160,355,75625,1,0,0:0:0:0:
274,298,75785,5,8,3:0:0:0:
353,339,75946,1,0,0:0:0:0:
476,292,76107,1,10,2:0:0:0:
491,196,76268,1,0,0:0:0:0:
424,112,76439,6,0,B|341:106|336:154|269:163,1,149.999992847443,4|0,2:0|0:0,0:0:0:0:
148,49,77098,2,0,P|183:65|201:87,1,49.9999976158143,8|0,2:0|0:0,0:0:0:0:
45,28,77428,2,0,P|58:64|55:92,1,49.9999976158143,2|0,2:0|0:0,0:0:0:0:
21,161,77770,6,0,P|6:210|53:311,1,149.999992847443
128,354,78432,1,8,2:0:0:0:
189,208,78598,2,0,B|137:194|137:194|83:235,1,99.9999952316285
222,295,79096,6,0,B|258:322|258:322|392:288,1,149.999992847443,4|0,2:0|0:0,0:0:0:0:
314,130,79744,2,0,P|282:179|277:231,1,99.9999952316285,8|2,2:0|2:0,0:0:0:0:
349,290,80231,1,0,0:0:0:0:
418,201,80393,2,0,L|400:131,1,49.9999976158143
496,59,80717,2,0,L|483:107,1,49.9999976158143,2|0,2:0|0:0,0:0:0:0:
389,62,81041,1,8,2:0:0:0:
312,12,81204,1,0,0:0:0:0:
292,113,81366,1,2,2:0:0:0:
209,154,81528,1,0,0:0:0:0:
224,48,81680,6,0,P|272:56|288:72,1,49.9999976158143,4|0,2:0|0:0,0:0:0:0:
209,154,82005,2,0,P|185:163|161:161,1,49.9999976158143,2|0,2:0|0:0,0:0:0:0:
328,288,82330,2,0,P|264:280|208:264,1,99.9999952316285,8|2,2:0|2:0,0:0:0:0:
408,216,82818,6,0,P|384:208|288:200,2,99.9999952316285
336,296,83631,2,0,L|272:304,1,49.9999976158143,8|0,2:0|0:0,0:0:0:0:
72,344,83956,2,0,L|136:352,1,49.9999976158143,2|0,2:0|0:0,0:0:0:0:
121,350,84200,1,0,0:0:0:0:
121,350,84262,6,0,P|136:304|152:192,1,149.999992847443,8|0,2:0|0:0,0:0:0:0:
176,56,84903,1,8,2:0:0:0:
16,80,85064,2,0,P|16:128|56:176,1,99.9999952316285
160,216,85545,2,0,P|169:193|176:168,1,49.9999976158143
48,80,85866,2,0,P|19:92|0:112,1,49.9999976158143,2|0,2:0|0:0,0:0:0:0:
176,56,86187,5,8,2:0:0:0:
16,80,86347,2,0,P|16:128|56:176,1,99.9999952316285
80,192,86748,1,0,0:0:0:0:
120,208,86828,6,0,L|280:224,1,149.999992847443,4|0,2:0|0:0,0:0:0:0:
288,64,87440,2,0,P|264:96|240:112,1,49.9999976158143,8|0,2:0|0:0,0:0:0:0:
392,208,87763,2,0,P|368:176|368:160,1,49.9999976158143,2|0,2:0|0:0,0:0:0:0:
400,16,88248,5,0,0:0:0:0:
367,167,88410,2,0,P|359:223|351:279,2,99.9999952316285,0|8|2,0:0|2:0|2:0,0:0:0:0:
424,104,89218,1,0,0:0:0:0:
496,144,89380,1,0,0:0:0:0:
480,224,89540,1,0,0:0:0:0:
400,240,89701,2,0,P|395:268|392:296,1,49.9999976158143,2|0,2:0|0:0,0:0:0:0:
424,104,90023,2,0,P|428:75|432:48,1,49.9999976158143,8|0,2:0|0:0,0:0:0:0:
312,288,90345,6,0,P|288:336|200:376,1,149.999992847443,2|10,2:0|2:0,0:0:0:0:
104,344,90988,2,0,L|120:288,1,49.9999976158143
200,224,91310,2,0,L|216:280,1,49.9999976158143,8|0,2:0|0:0,0:0:0:0:
400,352,91632,1,2,2:0:0:0:
8,384,91956,6,0,P|0:312|0:216,1,149.999992847443,4|0,2:0|0:0,0:0:0:0:
117,295,92597,2,0,P|165:295|237:279,1,99.9999952316285,8|2,2:0|2:0,0:0:0:0:
96,112,93078,2,0,P|96:144|104:184,1,49.9999976158143
224,168,93399,2,0,P|224:120|216:64,1,99.9999952316285
280,8,93881,5,8,2:0:0:0:
312,88,94038,1,0,0:0:0:0:
376,136,94196,1,2,2:0:0:0:
456,136,94354,1,0,0:0:0:0:
224,168,94506,6,0,L|160:176,1,49.9999976158143,8|0,2:0|0:0,0:0:0:0:
376,136,94820,1,2,2:0:0:0:
312,88,94977,1,0,0:0:0:0:
440,224,95134,6,0,L|456:288,1,49.9999976158143,8|0,2:0|0:0,0:0:0:0:
312,88,95448,1,2,2:0:0:0:
376,136,95605,1,0,0:0:0:0:
288,256,95758,6,0,L|264:304,1,49.9999976158143,8|0,2:0|0:0,0:0:0:0:
392,352,96080,6,0,L|448:384,1,49.9999976158143,2|0,2:0|0:0,0:0:0:0:
265,300,96403,6,0,L|209:268,1,49.9999976158143,8|0,3:0|0:0,0:0:0:0:
440,224,96725,6,0,L|408:280,1,49.9999976158143,12|0,2:0|0:0,0:0:0:0:
145,363,97052,6,0,P|94:345|-19:332,1,149.999992847443,4|0,2:0|0:0,0:0:0:0:
10,343,97707,2,0,P|46:301|27:256,1,99.9999952316285,8|0,2:0|0:0,0:0:0:0:
82,29,98363,1,0,0:0:0:0:
13,79,98527,1,0,0:0:0:0:
21,166,98691,1,0,0:0:0:0:
101,206,98855,1,0,0:0:0:0:
180,150,99019,2,0,P|236:122|338:100,1,149.999992847443,8|0,2:0|0:0,0:0:0:0:
399,37,99664,6,0,P|412:107|480:127,1,149.999992847443,8|0,2:0|0:0,0:0:0:0:
499,101,100305,2,0,P|487:52|476:-7,1,99.9999952316285,8|0,2:0|0:0,0:0:0:0:
333,162,100947,1,0,0:0:0:0:
381,236,101107,1,0,0:0:0:0:
327,301,101268,1,0,0:0:0:0:
391,363,101428,1,0,0:0:0:0:
304,304,101589,2,0,P|233:289|147:260,1,149.999992847443,8|0,2:0|0:0,0:0:0:0:
84,192,102220,5,8,2:0:0:0:
77,279,102385,1,0,0:0:0:0:
35,355,102551,1,0,0:0:0:0:
29,119,102882,2,0,P|26:32|104:11,1,149.999992847443,8|0,2:0|0:0,0:0:0:0:
147,79,103533,6,0,P|197:114|304:92,1,149.999992847443
294,98,104167,2,0,P|359:66|412:78,1,99.9999952316285,8|0,2:0|0:0,0:0:0:0:
447,318,104796,1,0,0:0:0:0:
375,260,104954,2,0,L|261:288,1,99.9999952316285
165,254,105430,2,0,L|51:282,1,99.9999952316285,8|0,2:0|0:0,0:0:0:0:
220,372,106065,5,0,0:0:0:0:
271,297,106224,1,0,0:0:0:0:
234,200,106383,2,0,P|215:134|222:118,1,49.9999976158143
275,72,106700,2,0,P|329:109|332:218,1,149.999992847443,8|0,2:0|0:0,0:0:0:0:
271,297,107321,5,8,2:0:0:0:
171,271,107484,1,0,0:0:0:0:
105,190,107647,1,0,0:0:0:0:
9,205,107811,1,0,0:0:0:0:
116,168,107974,2,0,P|93:83|77:-2,1,149.999992847443,8|0,2:0|0:0,0:0:0:0:
225,128,108612,2,0,L|210:207,1,49.9999976158143
155,304,108927,2,0,L|145:254,1,49.9999976158143
258,86,109243,6,0,L|232:252,1,149.999992847443,8|0,2:0|0:0,0:0:0:0:
182,357,109875,2,0,P|277:319|340:350,1,149.999992847443
321,358,110537,2,0,P|286:345|204:374,1,99.9999952316285,8|0,2:0|0:0,0:0:0:0:
224,211,111170,5,0,0:0:0:0:
304,175,111326,1,0,0:0:0:0:
390,202,111482,1,0,0:0:0:0:
481,167,111638,1,0,0:0:0:0:
421,41,111795,2,0,P|398:116|385:217,1,149.999992847443,8|0,2:0|0:0,0:0:0:0:
224,211,112426,5,8,2:0:0:0:
481,167,112585,1,0,0:0:0:0:
304,175,112745,2,0,P|313:230|313:268,1,74.9999964237214
224,211,113064,2,0,P|182:206|88:153,1,149.999992847443,8|0,2:0|0:0,0:0:0:0:
48,72,113682,6,0,P|80:56|112:56,1,49.9999976158143
16,216,114004,1,0,0:0:0:0:
16,216,114327,2,0,P|32:288|40:384,1,149.999992847443,8|0,2:0|0:0,0:0:0:0:
136,299,114962,6,0,P|144:251|144:235,1,49.9999976158143
224,211,115277,2,0,P|232:259|232:283,1,49.9999976158143
304,307,115593,2,0,P|312:267|312:235,1,49.9999976158143,8|0,2:0|0:0,0:0:0:0:
392,219,115909,2,0,P|392:227|400:283,1,49.9999976158143
480,216,116237,5,8,2:0:0:0:
464,136,116400,1,0,0:0:0:0:
408,72,116563,1,2,2:0:0:0:
328,56,116726,1,0,0:0:0:0:
416,56,116889,5,8,2:0:0:0:
376,128,117052,1,0,0:0:0:0:
304,160,117215,1,10,2:0:0:0:
224,144,117378,1,0,0:0:0:0:
136,32,117541,6,0,L|112:144,1,99.9999952316285,12|0,2:0|0:0,0:0:0:0:
168,224,118032,1,0,0:0:0:0:
120,48,118196,6,0,L|96:160,1,99.9999952316285,8|2,2:0|2:0,0:0:0:0:
144,304,118694,2,0,L|168:240,1,49.9999976158143,8|0,2:0|0:0,0:0:0:0:
104,64,119014,6,0,L|80:176,1,99.9999952316285,2|0,2:0|0:0,0:0:0:0:
88,72,119500,6,0,L|64:184,1,99.9999952316285,8|2,2:0|2:0,0:0:0:0:
24,264,119986,1,0,0:0:0:0:
224,368,120154,6,0,P|248:344|240:264,1,99.9999952316285,0|2,0:0|2:0,0:0:0:0:
251,280,120630,1,0,0:0:0:0:
176,152,120788,5,8,2:0:0:0:
240,376,120947,2,0,P|264:352|256:272,1,99.9999952316285
128,368,121424,5,0,0:0:0:0:
256,376,121584,2,0,P|280:352|272:272,1,99.9999952316285
176,152,122062,5,8,2:0:0:0:
272,376,122218,2,0,P|296:352|288:272,1,99.9999952316285
464,112,122687,6,0,L|448:216,1,99.9999952316285,12|0,2:0|0:0,0:0:0:0:
320,120,123176,1,0,0:0:0:0:
440,202,123339,6,0,L|455:103,1,99.9999952316285,8|2,2:0|2:0,0:0:0:0:
312,112,123828,2,0,L|296:184,1,49.9999976158143,8|0,2:0|0:0,0:0:0:0:
448,96,124135,6,0,L|432:194,1,99.9999952316285,10|0,2:0|0:0,0:0:0:0:
296,152,124597,6,0,L|311:53,1,99.9999952316285,8|0,2:0|0:0,0:0:0:0:
392,24,125060,1,0,0:0:0:0:
320,64,125215,5,8,2:0:0:0:
240,80,125375,1,8,2:0:0:0:
160,56,125535,1,2,2:0:0:0:
152,40,125695,1,0,0:0:0:0:
232,64,125855,5,8,2:0:0:0:
304,120,126015,1,0,0:0:0:0:
320,208,126175,1,2,2:0:0:0:
296,296,126335,1,0,0:0:0:0:
232,232,126495,6,0,L|176:240,1,49.9999976158143,8|0,2:0|0:0,0:0:0:0:
304,304,126815,2,0,L|353:311,1,49.9999976158143,2|8,2:0|2:0,0:0:0:0:
184,328,127135,1,8,3:0:0:0:
96,368,127291,1,0,0:0:0:0:
176,312,127447,1,10,2:0:0:0:
136,224,127603,1,0,0:0:0:0:
191,309,127760,6,0,P|265:283|368:270,1,149.999992847443,4|0,2:0|0:0,0:0:0:0:
472,243,128426,2,0,P|446:217|431:194,1,49.9999976158143,8|0,2:0|0:0,0:0:0:0:
323,185,128760,2,0,P|347:158|355:120,1,49.9999976158143
426,10,129093,6,0,P|438:73|513:106,1,149.999992847443
320,43,129760,2,0,P|270:21|224:22,1,99.9999952316285,8|2,2:0|2:0,0:0:0:0:
164,91,130251,1,0,0:0:0:0:
68,65,130415,6,0,P|64:144|52:226,1,149.999992847443
3,329,131063,2,0,P|36:315|59:309,1,49.9999976158143,8|0,2:0|0:0,0:0:0:0:
159,264,131387,2,0,P|180:276|225:291,1,49.9999976158143,2|0,2:0|0:0,0:0:0:0:
307,362,131712,5,8,2:0:0:0:
373,310,131871,1,0,0:0:0:0:
454,294,132031,1,2,2:0:0:0:
472,299,132190,1,0,0:0:0:0:
360,276,132350,5,8,2:0:0:0:
259,234,132509,1,0,0:0:0:0:
149,192,132669,1,2,2:0:0:0:
64,124,132829,1,0,0:0:0:0:
11,36,132988,6,0,P|93:16|142:11,1,99.9999952316285,4|2,2:0|2:0,0:0:0:0:
188,65,133485,1,0,0:0:0:0:
303,38,133650,2,0,P|286:84|283:93,1,49.9999976158143,8|0,2:0|0:0,0:0:0:0:
367,181,133982,2,0,P|379:223|381:248,1,49.9999976158143,2|0,2:0|0:0,0:0:0:0:
150,286,134297,6,0,P|202:250|242:253,3,99.9999952316285,8|2|8|2,2:0|2:0|2:0|2:0,0:0:0:0:
426,338,135577,6,0,P|461:359|487:365,1,49.9999976158143,8|0,2:0|0:0,0:0:0:0:
316,284,135897,2,0,P|344:277|372:255,1,49.9999976158143,2|0,2:0|0:0,0:0:0:0:
289,369,136217,1,8,2:0:0:0:
201,335,136380,1,0,0:0:0:0:
110,328,136543,1,2,2:0:0:0:
21,355,136706,1,0,0:0:0:0:
11,240,136869,6,0,P|29:211|37:190,1,49.9999976158143,8|0,2:0|0:0,0:0:0:0:
21,181,137188,2,0,P|25:212|45:249,1,49.9999976158143,2|0,2:0|0:0,0:0:0:0:
109,106,137507,1,8,2:0:0:0:
217,120,137666,1,0,0:0:0:0:
323,160,137826,1,10,2:0:0:0:
432,213,137986,2,0,L|414:249,1,24.9999988079071
411,255,138135,6,0,P|473:234|523:224,1,99.9999952316285,4|2,2:0|2:0,0:0:0:0:
314,360,138775,2,0,P|270:346|246:322,1,49.9999976158143,8|0,2:0|0:0,0:0:0:0:
283,199,139095,2,0,P|295:214|311:259,1,49.9999976158143,2|0,2:0|0:0,0:0:0:0:
167,259,139415,6,0,P|189:193|208:93,1,149.999992847443
34,44,140055,2,0,P|68:103|119:111,1,99.9999952316285,8|0,2:0|0:0,0:0:0:0:
159,40,140528,1,0,0:0:0:0:
42,51,140689,6,0,P|51:109|57:207,1,149.999992847443
21,328,141330,2,0,P|50:308|89:299,1,49.9999976158143,8|0,2:0|0:0,0:0:0:0:
146,323,141651,1,2,2:0:0:0:
243,320,141811,2,0,P|278:334|364:343,2,99.9999952316285
183,177,142614,2,0,P|215:193|233:220,1,49.9999976158143,8|0,2:0|0:0,0:0:0:0:
89,205,142929,1,2,2:0:0:0:
16,103,143087,1,0,0:0:0:0:
18,83,143166,1,0,0:0:0:0:
21,64,143245,6,0,P|73:84|103:90,1,49.9999976158143,4|0,2:0|0:0,0:0:0:0:
152,47,143562,2,0,P|182:37|232:29,1,49.9999976158143,2|0,2:0|0:0,0:0:0:0:
301,93,143879,2,0,P|357:100|461:111,1,149.999992847443,8|0,2:0|0:0,0:0:0:0:
465,108,144514,2,0,P|415:137|405:189,1,99.9999952316285,0|2,0:0|2:0,0:0:0:0:
460,244,144991,1,0,0:0:0:0:
482,104,145149,2,0,P|461:47|455:0,1,99.9999952316285,8|2,2:0|2:0,0:0:0:0:
370,80,145630,1,0,0:0:0:0:
465,199,145790,5,8,2:0:0:0:
447,284,145947,1,8,2:0:0:0:
426,368,146105,1,2,2:0:0:0:
433,379,146263,1,0,0:0:0:0:
343,288,146421,5,8,2:0:0:0:
302,207,146574,1,0,0:0:0:0:
362,140,146727,1,2,2:0:0:0:
410,222,146880,1,0,0:0:0:0:
329,307,147048,5,8,2:0:0:0:
231,349,147202,1,0,0:0:0:0:
228,358,147357,1,2,2:0:0:0:
123,332,147511,1,8,2:0:0:0:
22,361,147678,2,0,P|15:325|1:289,1,49.9999976158143,8|0,3:0|0:0,0:0:0:0:
84,178,147982,2,0,P|77:201|72:226,1,49.9999976158143,10|0,2:0|0:0,0:0:0:0:
272,264,148304,6,0,P|344:280|408:296,1,112.499998927116,4|0,2:0|0:0,0:0:0:0:
184,240,148957,1,8,2:0:0:0:
488,128,149284,1,0,0:0:0:0:
488,128,149611,1,0,0:0:0:0:
456,24,149775,1,0,0:0:0:0:
488,128,149938,2,0,P|492:158|496:192,1,49.9999976158143
376,128,150265,2,0,L|312:104,1,49.9999976158143,8|0,2:0|0:0,0:0:0:0:
456,24,150592,1,0,0:0:0:0:
368,320,150886,5,0,0:0:0:0:
368,320,151052,2,0,P|288:336|240:352,1,99.9999952316285
128,296,151552,2,0,P|160:304|224:312,1,49.9999976158143,8|0,2:0|0:0,0:0:0:0:
472,384,151886,2,0,P|496:336|504:216,1,145
456,152,152527,1,0,0:0:0:0:
368,192,152685,1,0,0:0:0:0:
416,280,152843,1,8,2:0:0:0:
507,241,153001,1,0,0:0:0:0:
456,152,153159,1,0,0:0:0:0:
368,192,153317,1,0,0:0:0:0:
448,136,153458,5,8,2:0:0:0:
400,48,153621,1,0,0:0:0:0:
320,104,153784,2,0,P|296:160|288:184,1,49.9999976158143
256,40,154110,2,0,P|232:96|224:120,1,49.9999976158143,8|0,2:0|0:0,0:0:0:0:
184,304,154436,2,0,P|214:233|224:202,1,95.2
160,152,154903,1,0,0:0:0:0:
96,208,155061,1,0,0:0:0:0:
96,208,155377,2,0,P|63:194|24:176,1,49.9999976158143,8|0,2:0|0:0,0:0:0:0:
0,72,155693,2,0,P|32:85|72:104,1,49.9999976158143
184,304,155998,6,0,P|248:328|296:344,1,99.9999952316285
360,320,156463,1,0,0:0:0:0:
440,328,156618,1,8,2:0:0:0:
432,344,156773,1,0,0:0:0:0:
336,352,156928,1,0,0:0:0:0:
240,328,157083,1,0,0:0:0:0:
128,336,157238,1,0,0:0:0:0:
224,352,157393,1,0,0:0:0:0:
320,352,157548,1,0,0:0:0:0:
408,328,157703,1,0,0:0:0:0:
496,360,157858,1,8,2:0:0:0:
400,288,158013,1,0,0:0:0:0:
288,248,158168,1,0,0:0:0:0:
168,264,158323,1,0,0:0:0:0:
24,184,158482,5,8,2:0:0:0:
24,184,158650,2,0,P|16:112|8:48,1,112.499998927116,0|8,0:0|2:0,0:0:0:0:
256,192,159493,12,0,162041,0:0:0:0:
288,88,162348,6,0,L|344:104,1,49.9999976158143
200,144,162660,2,0,L|144:128,1,49.9999976158143
400,192,162973,2,0,P|416:240|424:352,1,149.999992847443,8|0,2:0|0:0,0:0:0:0:
488,176,163590,5,8,2:0:0:0:
416,304,163754,2,0,P|376:352|328:384,1,99.9999952316285
488,256,164249,2,0,P|512:272|544:288,1,49.9999976158143,8|0,2:0|0:0,0:0:0:0:
320,272,164579,1,0,0:0:0:0:
8,200,164872,5,0,0:0:0:0:
72,266,165031,2,0,P|144:242|216:242,1,99.9999952316285
296,160,165510,2,0,P|360:144|464:96,1,149.999992847443,8|0,2:0|0:0,0:0:0:0:
168,240,166142,5,0,0:0:0:0:
320,280,166299,2,0,P|240:296|184:320,1,99.9999952316285
360,360,166773,2,0,P|416:376|440:384,1,49.9999976158143,8|0,2:0|0:0,0:0:0:0:
288,160,167089,2,0,P|256:176|216:176,1,49.9999976158143
168,240,167410,5,0,0:0:0:0:
152,160,167564,1,0,0:0:0:0:
110,92,167719,1,0,0:0:0:0:
43,46,167874,1,0,0:0:0:0:
65,192,168028,1,8,2:0:0:0:
141,62,168183,1,0,0:0:0:0:
0,126,168337,1,2,2:0:0:0:
152,160,168492,1,0,0:0:0:0:
289,65,168652,6,0,P|361:45|491:29,1,159.999992370606,12|0,2:0|0:0,0:0:0:0:
505,95,169163,1,0,0:0:0:0:
334,210,169333,2,0,P|361:140|390:102,1,79.9999961853028,8|0,2:0|0:0,0:0:0:0:
496,327,169810,5,8,2:0:0:0:
417,371,169971,2,0,P|362:351|309:340,1,99.9999952316285
231,366,170455,1,0,0:0:0:0:
331,369,170616,2,0,P|399:361|432:341,1,99.9999952316285,8|2,2:0|2:0,0:0:0:0:
491,286,171094,1,0,0:0:0:0:
321,142,171258,6,0,P|348:234|364:310,1,149.999992847443
136,286,171876,2,0,P|170:215|249:215,1,149.999992847443,8|0,2:0|0:0,0:0:0:0:
181,370,172498,1,8,2:0:0:0:
91,373,172655,1,0,0:0:0:0:
22,326,172813,1,2,2:0:0:0:
18,311,172971,1,0,0:0:0:0:
101,359,173129,1,8,2:0:0:0:
212,349,173287,1,0,0:0:0:0:
297,269,173445,1,2,2:0:0:0:
298,147,173603,1,0,0:0:0:0:
204,69,173750,6,0,P|113:97|29:105,1,159.999992370606,8|2,2:0|2:0,0:0:0:0:
14,27,174239,1,0,0:0:0:0:
186,162,174402,2,0,P|164:231|157:276,2,79.9999961853028,8|0|2,2:0|0:0|2:0,0:0:0:0:
269,35,174860,6,0,P|341:53|386:56,1,99.9999952316285,8|10,2:0|2:0,0:0:0:0:
445,15,175333,1,0,0:0:0:0:
508,90,175491,1,0,0:0:0:0:
390,223,175649,2,0,B|428:190|428:190|417:134,1,99.9999952316285,8|0,2:0|0:0,0:0:0:0:
366,55,176123,1,0,0:0:0:0:
258,197,176264,5,8,2:0:0:0:
313,278,176417,1,0,0:0:0:0:
412,310,176570,1,2,2:0:0:0:
505,251,176723,1,0,0:0:0:0:
315,267,176876,2,0,P|249:288|214:316,1,99.9999952316285,8|2,2:0|2:0,0:0:0:0:
178,371,177335,1,0,0:0:0:0:
187,381,177500,5,8,2:0:0:0:
135,245,177657,1,0,0:0:0:0:
197,152,177815,1,0,0:0:0:0:
145,9,177978,5,0,0:0:0:0:
174,101,178129,1,8,2:0:0:0:
128,199,178281,1,0,0:0:0:0:
186,281,178432,1,8,2:0:0:0:
146,377,178584,1,0,0:0:0:0:
153,383,178738,6,0,P|146:274|154:127,1,239.999988555908,4|0,2:0|0:0,0:0:0:0:
284,309,179353,2,0,P|262:357|216:379,2,79.9999961853028,8|0|2,2:0|0:0|2:0,0:0:0:0:
281,20,179990,5,0,0:0:0:0:
204,68,180140,1,10,2:0:0:0:
244,153,180290,1,0,0:0:0:0:
325,105,180440,1,0,0:0:0:0:
190,53,180590,2,0,P|111:96|73:105,1,99.9999952316285,8|2,2:0|2:0,0:0:0:0:
24,58,181040,1,0,0:0:0:0:
95,3,181200,5,8,2:0:0:0:
124,109,181357,2,0,P|101:172|98:218,1,99.9999952316285
164,314,181831,2,0,P|123:317|47:337,1,99.9999952316285,8|2,2:0|2:0,0:0:0:0:
59,337,182305,1,0,0:0:0:0:
229,255,182456,6,0,P|296:286|328:287,1,99.9999952316285,8|2,2:0|2:0,0:0:0:0:
397,247,182924,1,0,0:0:0:0:
402,40,183081,1,8,3:0:0:0:
311,70,183237,1,0,0:0:0:0:
288,138,183393,1,10,2:0:0:0:
311,170,183549,1,0,0:0:0:0:
342,167,183698,6,0,P|267:124|93:90,1,239.999988555908,4|0,2:0|0:0,0:0:0:0:
170,266,184336,2,0,P|233:250|272:216,2,79.9999961853028,8|0|2,2:0|0:0|2:0,0:0:0:0:
54,0,184974,1,0,0:0:0:0:
108,103,185129,2,0,P|88:183|84:225,1,99.9999952316285,2|0,2:0|0:0,0:0:0:0:
113,325,185593,2,0,P|76:318|99:360,1,99.9999952316285,8|2,2:0|2:0,0:0:0:0:
99,367,186047,1,0,0:0:0:0:
229,258,186206,5,0,0:0:0:0:
315,292,186367,1,0,0:0:0:0:
402,256,186528,1,2,2:0:0:0:
491,248,186689,1,0,0:0:0:0:
406,293,186851,5,8,2:0:0:0:
314,261,187012,1,0,0:0:0:0:
230,286,187173,1,2,2:0:0:0:
135,255,187335,1,0,0:0:0:0:
233,253,187476,5,8,2:0:0:0:
329,295,187633,1,0,0:0:0:0:
429,261,187791,1,10,2:0:0:0:
487,333,187949,1,0,0:0:0:0:
373,373,188107,5,8,2:0:0:0:
303,267,188268,1,0,0:0:0:0:
347,160,188429,1,10,2:0:0:0:
308,30,188590,1,0,0:0:0:0:
304,40,188744,6,0,L|224:56,1,59.9999953079226,4|0,2:0|0:0,0:0:0:0:
136,136,189123,2,0,L|194:147,1,59.9999953079226
338,155,189456,1,8,2:0:0:0:
136,32,189628,1,0,0:0:0:0:
136,32,189973,1,0,0:0:0:0:
315,44,190130,6,0,L|239:58,1,59.9999953079226,4|0,2:0|0:0,0:0:0:0:
131,141,190474,2,0,L|195:153,1,59.9999953079226
345,164,190788,1,8,2:0:0:0:
136,32,190954,1,0,0:0:0:0:
136,32,191288,1,0,0:0:0:0:
317,260,191472,6,0,L|214:236,1,59.9999953079226,4|0,2:0|0:0,0:0:0:0:
131,158,191804,2,0,L|189:144,1,59.9999953079226
348,119,192136,1,8,2:0:0:0:
155,259,192303,1,0,0:0:0:0:
155,259,192635,1,0,0:0:0:0:
261,334,192777,5,8,2:0:0:0:
321,253,192938,1,0,0:0:0:0:
346,363,193100,1,2,2:0:0:0:
406,282,193262,1,0,0:0:0:0:
155,259,193423,5,8,3:0:0:0:
99,178,193584,1,0,0:0:0:0:
70,288,193746,1,10,2:0:0:0:
10,207,193908,1,0,0:0:0:0:
172,255,194078,6,0,L|269:279,1,59.9999953079226,4|0,2:0|0:0,0:0:0:0:
327,141,194412,2,0,L|230:165,1,59.9999953079226
322,302,194746,2,0,L|349:221,1,59.9999953079226,8|0,2:0|0:0,0:0:0:0:
196,51,195080,1,0,0:0:0:0:
166,161,195247,1,0,0:0:0:0:
196,51,195415,6,0,L|118:36,1,59.9999953079226,4|0,2:0|0:0,0:0:0:0:
166,161,195752,2,0,L|244:146,1,59.9999953079226
83,108,196089,1,8,2:0:0:0:
299,58,196257,2,0,B|282:103|282:103|267:119|267:119|253:168,1,119.999990615845
363,327,196763,6,0,L|341:261,1,59.9999953079226,4|0,2:0|0:0,0:0:0:0:
474,136,197096,2,0,L|452:202,1,59.9999953079226
357,344,197429,1,8,2:0:0:0:
470,120,197596,2,0,B|451:169|451:169|454:192|454:192|430:250,1,119.999990615845
350,326,198088,5,8,2:0:0:0:
258,350,198247,1,0,0:0:0:0:
330,303,198407,1,2,2:0:0:0:
432,313,198566,1,0,0:0:0:0:
344,283,198726,1,8,3:0:0:0:
237,250,198885,1,0,0:0:0:0:
332,257,199045,1,10,2:0:0:0:
428,219,199205,1,0,0:0:0:0:
487,136,199372,6,0,P|497:103|501:66,1,59.9999953079226
307,105,199713,2,0,P|290:71|261:33,1,59.9999953079226
156,213,200055,1,8,2:0:0:0:
94,137,200226,2,0,P|64:103|31:89,1,74.9999992847443
487,136,200720,6,0,P|497:103|501:66,1,59.9999953079226,4|0,2:0|0:0,0:0:0:0:
307,105,201060,2,0,P|290:71|254:31,1,59.9999953079226
156,213,201401,1,8,2:0:0:0:
94,137,201572,2,0,P|64:103|31:89,1,74.9999992847443
250,241,202088,6,0,P|271:210|283:166,1,59.9999953079226,4|0,2:0|0:0,0:0:0:0:
75,269,202417,2,0,P|38:248|-11:242,1,59.9999953079226
161,194,202747,1,8,2:0:0:0:
116,380,202892,2,0,B|132:337|131:336|131:336|150:329|150:329|176:275,1,119.999990615845
267,337,203384,5,8,2:0:0:0:
344,358,203540,1,0,0:0:0:0:
422,342,203696,1,2,2:0:0:0:
479,287,203852,1,0,0:0:0:0:
421,355,204009,5,8,3:0:0:0:
443,277,204165,1,0,0:0:0:0:
410,205,204321,1,10,2:0:0:0:
338,170,204477,1,0,0:0:0:0:
154,181,204646,6,0,B|132:181|124:169|88:137,2,49.9999995231629,4|0|0,2:0|0:0|0:0,0:0:0:0:
1,96,204988,2,0,B|-12:64|1:48|23:16,2,49.9999995231629,2|0|0,0:2|0:0|0:0,0:0:0:0:
119,59,205331,1,8,2:0:0:0:
6,198,205503,6,0,B|25:230|25:230|26:258|26:258|44:298|44:298|64:364,1,149.999998569489
177,324,206016,6,0,B|185:293|185:293|210:260,2,49.9999995231629,4|0|0,2:0|0:0|0:0,0:0:0:0:
314,343,206353,2,0,B|309:372|332:350|363:388,2,49.9999995231629,2|0|0,0:2|0:0|0:0,0:0:0:0:
418,271,206690,1,8,2:0:0:0:
228,189,206858,6,0,B|205:155|205:155|193:112|193:112|174:104|174:104|154:38,1,149.999998569489
315,62,207350,6,0,B|312:45|326:12|351:13,2,49.9999995231629,4|0|0,2:0|0:0|0:0,0:0:0:0:
326,104,207683,1,2,0:2:0:0:
366,132,207794,1,0,0:0:0:0:
391,156,207905,1,0,0:0:0:0:
409,199,208016,1,8,2:0:0:0:
250,228,208183,6,0,B|205:235|187:252|187:252|150:255|150:255|92:312,1,149.999998569489
53,110,208668,6,0,B|54:128|54:128|37:161,1,37.4999996423721,8|0,2:0|0:0,0:0:0:0:
133,178,208827,2,0,B|125:154|125:154|126:124,1,37.4999996423721,8|0,2:0|0:0,0:0:0:0:
181,80,208987,1,2,2:0:0:0:
257,121,209146,1,0,0:0:0:0:
353,48,209306,6,0,L|374:-30,1,49.9999976158143,8|0,2:0|0:0,0:0:0:0:
417,137,209471,1,8,2:0:0:0:
466,2,209637,2,0,B|452:13|441:36|452:62,1,49.9999976158143,10|0,2:0|0:0,0:0:0:0:
512,103,209803,1,0,0:0:0:0:
255,23,209968,5,12,2:0:0:0:
256,192,210134,12,0,220576,0:0:0:0:
458,90,221158,6,0,P|349:68|188:44,1,239.999988555908,4|0,2:0|0:0,0:0:0:0:
62,3,221855,2,0,P|97:36|85:88,1,79.9999961853028,8|0,2:0|0:0,0:0:0:0:
38,335,222324,1,0,0:0:0:0:
112,281,222487,2,0,P|167:268|225:268,1,99.9999952316285,0|2,0:0|2:0,0:0:0:0:
276,333,222976,1,0,0:0:0:0:
29,233,223139,1,8,2:0:0:0:
53,350,223292,1,0,0:0:0:0:
112,191,223445,2,0,P|89:133|85:119,1,49.9999976158143,2|0,2:0|0:0,0:0:0:0:
226,22,223778,6,0,P|216:90|196:195,1,149.999992847443
93,51,224416,2,0,P|152:29|171:30,1,49.9999976158143,8|0,2:0|0:0,0:0:0:0:
249,106,224735,2,0,P|293:130|308:133,1,49.9999976158143,2|0,2:0|0:0,0:0:0:0:
463,45,225022,5,8,2:0:0:0:
381,93,225178,1,0,0:0:0:0:
362,187,225334,1,2,2:0:0:0:
430,261,225490,1,0,0:0:0:0:
446,276,225647,5,8,2:0:0:0:
344,196,225803,1,0,0:0:0:0:
231,243,225959,1,10,2:0:0:0:
135,152,226115,1,0,0:0:0:0:
50,248,226280,6,0,B|147:198|200:330|278:328,1,239.999988555908
302,158,226925,2,0,P|268:213|260:247,1,79.9999961853028,8|0,2:0|0:0,0:0:0:0:
337,280,227247,1,2,2:0:0:0:
408,136,227388,2,0,P|384:58|377:10,2,99.9999952316285
504,268,228169,2,0,P|442:284|437:379,1,149.999992847443,8|0,2:0|0:0,0:0:0:0:
430,367,228796,6,0,P|388:348|300:328,1,99.9999952316285,4|2,2:0|2:0,0:0:0:0:
244,346,229257,1,0,0:0:0:0:
130,293,229411,2,0,P|154:339|166:375,1,49.9999976158143,8|0,2:0|0:0,0:0:0:0:
216,249,229719,1,2,2:0:0:0:
129,177,229866,1,0,0:0:0:0:
14,319,230022,2,0,P|51:342|82:351,2,49.9999976158143,8|0|2,2:0|0:0|2:0,0:0:0:0:
136,192,230494,5,0,0:0:0:0:
107,104,230662,1,8,3:0:0:0:
78,21,230831,1,8,2:0:0:0:
393,57,231128,1,0,0:0:0:0:
341,129,231287,6,0,P|373:222|409:378,1,239.999988555908,4|0,2:0|0:0,0:0:0:0:
406,370,231912,2,0,P|482:324|504:328,1,79.9999961853028,8|0,2:0|0:0,0:0:0:0:
480,330,232224,1,2,2:0:0:0:
321,300,232390,2,0,P|291:315|233:319,1,49.9999976158143,8|0,2:0|0:0,0:0:0:0:
203,268,232687,1,8,2:0:0:0:
264,171,232835,2,0,P|278:205|292:264,1,49.9999976158143
113,220,233132,2,0,P|137:132|147:50,1,149.999992847443,8|0,2:0|0:0,0:0:0:0:
78,20,233757,1,8,2:0:0:0:
7,237,233913,2,0,P|56:215|123:246,1,99.9999952316285
231,308,234382,2,0,P|286:341|311:346,1,49.9999976158143
358,301,234694,1,2,2:0:0:0:
276,113,234842,5,0,0:0:0:0:
239,206,234995,1,8,2:0:0:0:
407,127,235149,1,0,0:0:0:0:
356,47,235303,1,2,2:0:0:0:
281,120,235457,5,0,0:0:0:0:
327,207,235611,1,8,2:0:0:0:
377,279,235772,1,0,0:0:0:0:
428,336,235933,1,2,2:0:0:0:
457,356,236094,2,0,P|473:365|482:369,1,24.9999988079071
489,368,236256,6,0,P|459:273|437:188,1,159.999992370606,12|2,2:0|2:0,0:0:0:0:
473,92,236676,1,0,0:0:0:0:
365,165,236816,2,0,P|268:199|212:203,1,159.999992370606,8|2,2:0|2:0,0:0:0:0:
315,15,237276,2,0,B|364:32|364:32|386:108,2,99.9999952316285,0|2|0,0:0|2:0|0:0,0:0:0:0:
136,141,238028,2,0,P|84:110|29:113,1,99.9999952316285,8|2,2:0|2:0,0:0:0:0:
6,182,238473,1,0,0:0:0:0:
86,303,238622,5,8,2:0:0:0:
95,301,238696,1,0,0:0:0:0:
104,299,238770,1,0,0:0:0:0:
113,297,238844,1,0,0:0:0:0:
123,296,238919,1,2,2:0:0:0:
190,236,239072,6,0,L|194:193,4,24.9999988079071,8|0|0|0|2,2:0|0:0|0:0|0:0|2:0,0:0:0:0:
231,321,239526,5,8,2:0:0:0:
244,322,239602,1,0,0:0:0:0:
257,325,239678,1,0,0:0:0:0:
270,328,239753,1,0,0:0:0:0:
282,330,239829,1,2,2:0:0:0:
373,296,239954,6,0,L|383:333,4,24.9999988079071,8|8|8|8|8,2:0|2:0|2:0|2:0|2:0,0:0:0:0:
284,222,240452,6,0,L|290:192,1,24.9999988079071
373,184,240599,2,0,L|368:208,1,24.9999988079071
302,115,240746,2,0,L|308:85,1,24.9999988079071
391,77,240893,2,0,L|386:101,1,24.9999988079071
208,144,241040,6,0,P|104:168|0:200,1,159.999992370606,12|2,2:0|2:0,0:0:0:0:
112,64,241513,1,0,0:0:0:0:
168,240,241671,2,0,P|216:256|264:264,1,79.9999961853028,8|0,2:0|0:0,0:0:0:0:
32,296,241987,1,8,2:0:0:0:
32,296,242283,1,0,0:0:0:0:
128,256,242441,1,8,2:0:0:0:
168,352,242599,1,0,0:0:0:0:
64,384,242757,1,0,0:0:0:0:
0,192,242915,2,0,P|8:104|48:8,1,159.999992370606,8|2,2:0|2:0,0:0:0:0:
160,128,243365,1,0,0:0:0:0:
264,240,243510,6,0,P|320:264|376:272,1,79.9999961853028
472,192,243813,2,0,P|392:152|296:136,1,159.999992370606,2|8,2:0|2:0,0:0:0:0:
338,268,244267,1,0,0:0:0:0:
184,288,244408,6,0,P|128:272|88:248,1,79.9999961853028,2|0,2:0|0:0,0:0:0:0:
160,32,244711,2,0,P|192:128|168:200,1,159.999992370606,8|0,2:0|0:0,0:0:0:0:
48,336,245165,2,0,P|16:272|16:216,2,99.9999952316285
264,336,245938,6,0,P|328:336|400:368,1,119.999994277954,12|0,2:0|0:0,0:0:0:0:
512,264,246245,2,0,P|456:280|432:280,1,79.9999961853028,2|0,2:0|0:0,0:0:0:0:
320,208,246553,2,0,P|304:136|296:24,1,159.999992370606,8|2,2:0|2:0,0:0:0:0:
392,0,247016,5,8,2:0:0:0:
448,80,247170,1,0,0:0:0:0:
360,136,247325,1,10,2:0:0:0:
296,48,247479,1,0,0:0:0:0:
392,0,247634,1,0,0:0:0:0:
464,184,247798,2,0,P|480:248|488:352,1,149.999992847443,8|0,2:0|0:0,0:0:0:0:
336,368,248392,6,0,L|272:352,1,49.9999976158143,8|0,2:0|0:0,0:0:0:0:
184,248,248701,2,0,L|248:264,1,49.9999976158143,2|0,2:0|0:0,0:0:0:0:
328,256,249010,1,8,2:0:0:0:
192,360,249165,1,0,0:0:0:0:
40,296,249319,1,2,2:0:0:0:
40,296,249642,6,0,P|32:248|24:176,1,99.9999952316285,8|2,2:0|2:0,0:0:0:0:
128,16,250100,2,0,P|136:64|144:136,1,99.9999952316285
152,208,250556,1,10,2:0:0:0:
144,304,250717,1,0,0:0:0:0:
128,16,250878,6,0,P|136:64|136:88,1,49.9999976158143,12|0,2:0|0:0,0:0:0:0:
144,304,251193,2,0,P|208:272|288:288,1,119.999994277954,2|0,2:0|0:0,0:0:0:0:
376,192,251509,2,0,P|320:184|208:120,1,159.999992370606,8|2,2:0|2:0,0:0:0:0:
352,8,251996,6,0,P|344:64|320:104,1,79.9999961853028,8|0,2:0|0:0,0:0:0:0:
152,192,252287,2,0,P|88:200|-8:264,1,159.999992370606,8|0,2:0|0:0,0:0:0:0:
128,328,252722,2,0,P|168:352|232:368,2,99.9999952316285,8|2|0,2:0|2:0|0:0,0:0:0:0:
144,304,253481,1,0,0:0:0:0:
192,272,253634,1,2,2:0:0:0:
288,280,253787,1,0,0:0:0:0:
408,240,253940,5,8,2:0:0:0:
488,120,254093,2,0,P|504:56|504:8,1,99.9999952316285
408,240,254552,2,0,P|408:288|416:352,1,99.9999952316285,8|0,2:0|0:0,0:0:0:0:
384,128,254995,2,0,L|328:136,1,49.9999976158143,8|0,2:0|0:0,0:0:0:0:
488,120,255290,1,0,0:0:0:0:
312,240,255438,2,0,L|256:248,1,49.9999976158143,8|0,3:0|0:0,0:0:0:0:
120,120,255746,5,12,2:0:0:0:
160,0,255897,1,0,0:0:0:0:
280,32,256049,1,2,2:0:0:0:
240,160,256201,1,0,0:0:0:0:
48,208,256353,2,0,P|24:128|32:32,1,159.999992370606,8|2,2:0|2:0,0:0:0:0:
120,120,256809,2,0,P|144:184|144:216,1,79.9999961853028,8|0,2:0|0:0,0:0:0:0:
272,328,257113,6,0,P|352:360|440:360,1,159.999992370606,8|0,2:0|0:0,0:0:0:0:
448,216,257568,2,0,P|384:232|344:256,1,79.9999961853028,8|0,2:0|0:0,0:0:0:0:
112,384,257872,1,2,2:0:0:0:
64,272,258024,1,0,0:0:0:0:
112,384,258176,6,0,P|168:376|200:368,1,79.9999961853028,8|0,2:0|0:0,0:0:0:0:
245,234,258479,1,2,2:0:0:0:
253,218,258554,1,0,0:0:0:0:
258,198,258630,1,0,0:0:0:0:
262,178,258706,1,0,0:0:0:0:
264,158,258782,2,0,P|263:128|261:101,3,39.9999980926514,8|0|0|0,2:0|0:0|0:0|0:0,0:0:0:0:
208,8,259085,1,2,2:0:0:0:
160,128,259236,1,0,0:0:0:0:
360,152,259414,6,0,P|376:96|376:64,1,79.9999961853028,8|0,2:0|0:0,0:0:0:0:
160,128,259711,1,0,0:0:0:0:
152,144,259785,1,0,0:0:0:0:
147,164,259859,1,8,2:0:0:0:
143,184,259933,1,0,0:0:0:0:
141,204,260008,2,0,P|142:234|144:261,3,39.9999980926514
200,352,260305,2,0,L|208:312,1,39.9999980926514,12|0,2:0|0:0,0:0:0:0:
296,256,260453,2,0,L|304:312,1,39.9999980926514
448,360,260618,6,0,P|435:275|423:163,1,159.999992370606,12|2,2:0|2:0,0:0:0:0:
470,117,261091,1,0,0:0:0:0:
348,22,261249,2,0,P|360:71|368:116,1,79.9999961853028,8|0,2:0|0:0,0:0:0:0:
316,179,261565,1,2,2:0:0:0:
340,328,261730,2,0,P|346:295|350:264,2,49.9999976158143,8|0|8,2:0|0:0|2:0,0:0:0:0:
226,336,262146,1,0,0:0:0:0:
231,357,262285,1,2,2:0:0:0:
118,230,262466,2,0,P|107:294|102:348,1,99.9999952316285,8|2,2:0|2:0,0:0:0:0:
33,368,262925,1,0,0:0:0:0:
172,159,263078,6,0,B|187:111|187:111|144:62,1,99.9999952316285,8|2,2:0|2:0,0:0:0:0:
83,27,263537,1,0,0:0:0:0:
243,39,263690,2,0,P|281:40|302:44,1,49.9999976158143,8|0,2:0|0:0,0:0:0:0:
374,77,263996,1,2,2:0:0:0:
463,58,264149,1,0,0:0:0:0:
370,57,264302,1,8,2:0:0:0:
487,81,264438,6,0,P|476:129|476:146,1,49.9999976158143,0|2,0:0|2:0,0:0:0:0:
500,208,264744,1,0,0:0:0:0:
429,317,264897,1,8,3:0:0:0:
358,245,265045,1,0,0:0:0:0:
265,208,265194,1,10,2:0:0:0:
163,207,265342,1,0,0:0:0:0:
72,255,265500,6,0,P|58:173|40:90,1,159.999992370606,12|2,2:0|2:0,0:0:0:0:
0,27,265963,1,0,0:0:0:0:
117,48,266118,2,0,P|177:39|209:29,1,79.9999961853028,8|0,2:0|0:0,0:0:0:0:
327,1,266418,1,8,2:0:0:0:
278,81,266566,2,0,P|289:128|300:157,1,49.9999976158143,0|2,0:0|2:0,0:0:0:0:
383,253,266892,2,0,P|371:205|361:187,1,49.9999976158143,0|2,0:0|2:0,0:0:0:0:
281,215,267180,1,0,0:0:0:0:
373,108,267324,2,0,P|426:97|481:94,1,99.9999952316285,8|2,2:0|2:0,0:0:0:0:
511,165,267797,1,0,0:0:0:0:
295,167,267948,6,0,P|192:152|114:144,1,149.999992847443,8|0,2:0|0:0,0:0:0:0:
9,215,268530,2,0,P|69:207|103:205,1,49.9999976158143,8|0,2:0|0:0,0:0:0:0:
138,238,268821,1,2,2:0:0:0:
63,120,268974,2,0,P|82:86|88:62,1,49.9999976158143,0|8,0:0|2:0,0:0:0:0:
33,12,269293,1,0,0:0:0:0:
180,70,269452,6,0,P|190:138|193:179,1,99.9999952316285,8|2,2:0|2:0,0:0:0:0:
143,250,269915,1,0,0:0:0:0:
47,284,270070,1,8,2:0:0:0:
51,196,270225,1,0,0:0:0:0:
113,349,270379,5,0,0:0:0:0:
209,314,270524,1,0,0:0:0:0:
300,341,270670,1,2,2:0:0:0:
370,286,270815,1,0,0:0:0:0:
467,313,270966,6,0,P|466:274|458:214,1,99.9999952316285,8|2,2:0|2:0,0:0:0:0:
334,95,271429,2,0,P|379:112|399:116,1,49.9999976158143,8|0,2:0|0:0,0:0:0:0:
512,105,271739,2,0,P|480:129|467:134,1,49.9999976158143,8|2,2:0|2:0,0:0:0:0:
445,24,272048,1,0,0:0:0:0:
340,7,272178,1,8,2:0:0:0:
250,32,272331,1,0,0:0:0:0:
181,93,272484,1,8,2:0:0:0:
103,46,272637,1,0,0:0:0:0:
21,118,272790,6,0,P|10:168|-1:224,1,99.9999952316285,8|2,2:0|2:0,0:0:0:0:
71,354,273244,1,0,0:0:0:0:
104,261,273396,2,0,P|91:213|81:188,1,49.9999976158143,8|0,2:0|0:0,0:0:0:0:
200,298,273699,1,2,2:0:0:0:
286,344,273850,1,0,0:0:0:0:
360,282,274002,1,8,2:0:0:0:
275,182,274153,6,0,P|271:229|271:253,1,49.9999976158143,0|2,0:0|2:0,0:0:0:0:
357,127,274447,1,0,0:0:0:0:
273,86,274594,1,8,3:0:0:0:
351,30,274748,2,0,P|401:44|458:64,1,99.9999952316285,0|2,0:0|2:0,0:0:0:0:
264,91,275236,6,0,P|217:31|221:6,1,79.9999961853028,8|0,2:0|0:0,0:0:0:0:
357,127,275540,2,0,P|342:193|337:224,1,79.9999961853028,2|0,2:0|0:0,0:0:0:0:
291,314,275845,2,0,P|380:299|479:291,1,159.999992370606,8|2,2:0|2:0,0:0:0:0:
222,364,276298,2,0,P|188:350|151:341,1,49.9999976158143
100,279,276610,2,0,P|75:286|24:297,1,49.9999976158143
12,365,276923,1,2,2:0:0:0:
189,241,277079,2,0,P|166:193|115:182,1,99.9999952316285,8|2,2:0|2:0,0:0:0:0:
68,239,277547,1,0,0:0:0:0:
264,295,277704,5,8,2:0:0:0:
238,373,277848,1,0,0:0:0:0:
471,346,277992,1,2,2:0:0:0:
436,270,278136,1,0,0:0:0:0:
512,232,278280,2,0,P|498:177|496:153,1,49.9999976158143,8|0,2:0|0:0,0:0:0:0:
346,347,278600,5,8,2:0:0:0:
367,164,278747,1,0,0:0:0:0:
336,254,278894,1,2,2:0:0:0:
196,162,279041,1,0,0:0:0:0:
48,243,279188,6,0,P|23:202|3:180,1,49.9999976158143,8|0,3:0|0:0,0:0:0:0:
167,267,279502,2,0,P|154:288|147:312,1,49.9999976158143,8|0,2:0|0:0,0:0:0:0:
65,341,279811,5,10,2:0:0:0:
230,352,279965,1,0,0:0:0:0:
388,359,280120,1,12,2:0:0:0:
256,192,280275,12,0,299295,0:0:0:0:
