osu file format v14

[General]
AudioFilename: audio.ogg
AudioLeadIn: 0
PreviewTime: 15
Countdown: 0
SampleSet: Normal
StackLeniency: 0.7
Mode: 0
LetterboxInBreaks: 0
WidescreenStoryboard: 1

[Editor]
Bookmarks: 24057,45329,66083,81680,97052,112426,127760,148304,168652,188744,209968,221158,241040,260618,280120,299295
DistanceSpacing: 0.1
BeatDivisor: 4
GridSize: 8
TimelineZoom: 3.850002

[Metadata]
Title:Be Quiet and Drive (Far Away)
TitleUnicode:Be Quiet and Drive (Far Away)
Artist:Deftones
ArtistUnicode:Deftones
Creator:aishiteiru-
Version:collab extra
Source:
Tags:english around the fur nu metal alternative rock mirash semaphore riffy myahkey godsenger florescence
BeatmapID:3590498
BeatmapSetID:1701335

[Difficulty]
HPDrainRate:5
CircleSize:3.8
OverallDifficulty:8
ApproachRate:8
SliderMultiplier:2.79999990463257
SliderTickRate:1

[Events]
//Background and Video events
0,0,"21782.jpg",0,0
//Break Periods
//Storyboard Layer 0 (Background)
//Storyboard Layer 1 (Fail)
//Storyboard Layer 2 (Pass)
//Storyboard Layer 3 (Foreground)
//Storyboard Layer 4 (Overlay)
//Storyboard Sound Samples

[TimingPoints]
24042,674.157303370787,4,1,1,65,1,0
25394,689.655172413793,4,1,1,65,1,0
26762,689.655172413793,4,1,1,65,1,0
28110,666.666666666667,4,1,1,65,1,0
29466,674.157303370786,4,1,1,65,1,0
30802,681.818181818182,4,1,1,65,1,0
32122,657.534246575342,4,1,1,65,1,0
34772,677.966101694915,4,1,1,65,1,0
36094,677.966101694915,4,1,1,65,1,0
37439,666.666666666666,4,1,1,65,1,0
38105,652.173913043479,4,1,1,65,1,0
40067,655.737704918032,4,1,1,65,1,0
41370,652.173913043479,4,1,1,65,1,0
42680,666.666666666666,4,1,1,65,1,0
44003,646.900269541779,4,1,1,65,1,0
44649,681.818181818183,4,1,1,65,1,0
45329,674.157303370787,4,1,1,65,1,0
46003,659.340659340661,4,1,1,65,1,0
47969,655.737704918034,4,1,1,65,1,0
49288,643.43163538874,4,1,1,65,1,0
50574,628.272251308902,4,1,1,65,1,0
51202,652.173913043479,4,1,1,65,1,0
53158,659.34065934066,4,1,1,65,1,0
54466,638.297872340427,4,1,1,65,1,0
55734,674.157303370788,4,1,1,65,1,0
57066,652.173913043479,4,1,1,65,1,0
58362,662.983425414365,4,1,1,65,1,0
59686,641.711229946524,4,1,1,65,1,0
62231,648.648648648649,4,1,1,65,1,0
63530,638.297872340425,4,1,1,65,1,0
66083,655.737704918034,4,1,1,65,1,0
66083,-83.3333333333333,4,1,1,65,0,0
67232,659.34065934066,4,1,1,65,1,0
67232,-83.3333333333333,4,1,1,65,0,0
68070,625,4,1,1,65,1,0
68070,-83.3333333333333,4,1,1,65,0,0
68718,648.648648648649,4,1,1,65,1,0
68718,-83.3333333333333,4,1,1,65,0,0
69997,655.737704918034,4,1,1,65,1,0
69997,-83.3333333333333,4,1,1,65,0,0
71307,638.297872340426,4,1,1,65,1,0
71307,-83.3333333333333,4,1,1,65,0,0
72444,625,4,1,1,65,1,0
72444,-83.3333333333333,4,1,1,65,0,0
73233,648.648648648649,4,1,1,65,1,0
73233,-83.3333333333333,4,1,1,65,0,0
73854,634.920634920636,4,1,1,65,1,0
73854,-83.3333333333333,4,1,1,65,0,0
75123,670.391061452514,4,1,1,65,1,0
75123,-83.3333333333333,4,1,1,65,0,0
75785,645.161290322581,4,1,1,65,1,0
75785,-83.3333333333333,4,1,1,65,0,0
76439,659.34065934066,4,1,1,65,1,0
77770,662.983425414365,4,1,1,65,1,0
79096,648.648648648649,4,1,1,65,1,0
81680,650.406504065041,4,1,1,65,1,0
84262,641.711229946524,4,1,1,65,1,0
86828,612.244897959184,4,1,1,65,1,0
87440,646.900269541779,4,1,1,65,1,0
89380,643.43163538874,4,1,1,65,1,0
91956,641.711229946524,4,1,1,65,1,0
93881,631.578947368422,4,1,1,65,1,0
94506,628.272251308901,4,1,1,65,1,0
95758,645.161290322581,4,1,1,65,1,0
97052,655.737704918033,4,1,1,55,1,0
97052,-83.3333333333333,4,1,1,55,0,0
99019,645.161290322581,4,1,1,55,1,0
99019,-83.3333333333333,4,1,1,55,0,0
99664,641.711229946525,4,1,1,55,1,0
99664,-83.3333333333333,4,1,1,55,0,0
102220,662.983425414365,4,1,1,55,1,0
102220,-83.3333333333333,4,1,1,55,0,0
103533,634.920634920636,4,1,1,55,1,0
103533,-83.3333333333333,4,1,1,55,0,0
104796,634.920634920635,4,1,1,55,1,0
104796,-83.3333333333333,4,1,1,55,0,0
106700,621.761658031089,4,1,1,55,1,0
106700,-83.3333333333333,4,1,1,55,0,0
107321,653.950953678475,4,1,1,55,1,0
107321,-83.3333333333333,4,1,1,55,0,0
108612,631.578947368422,4,1,1,55,1,0
108612,-83.3333333333333,4,1,1,55,0,0
109875,662.983425414365,4,1,1,55,1,0
109875,-83.3333333333333,4,1,1,55,0,0
111170,625.000000000001,4,1,1,55,1,0
111170,-83.3333333333333,4,1,1,55,0,0
112426,638.297872340426,4,1,1,55,1,0
112426,-83.3333333333333,4,1,1,55,0,0
113682,645.161290322581,4,1,1,55,1,0
113682,-83.3333333333333,4,1,1,55,0,0
114962,631.578947368421,4,1,1,55,1,0
114962,-83.3333333333333,4,1,1,55,0,0
116237,652.173913043479,4,1,1,55,1,0
116237,-83.3333333333333,4,1,1,55,0,0
116889,-83.3333333333333,4,1,1,65,0,0
117541,655.737704918033,4,1,1,65,1,0
117541,-83.3333333333333,4,1,1,65,0,0
118694,641.711229946524,4,1,1,65,1,0
118694,-83.3333333333333,4,1,1,65,0,0
119500,648.648648648649,4,1,1,65,1,0
119500,-83.3333333333333,4,1,1,65,0,0
120154,634.920634920636,4,1,1,65,1,0
120154,-83.3333333333333,4,1,1,65,0,0
121265,638.297872340426,4,1,1,65,1,0
121265,-83.3333333333333,4,1,1,65,0,0
122062,625,4,1,1,65,1,0
122062,-83.3333333333333,4,1,1,65,0,0
122687,652.173913043479,4,1,1,65,1,0
122687,-83.3333333333333,4,1,1,65,0,0
123828,615.384615384616,4,1,1,65,1,0
123828,-83.3333333333333,4,1,1,65,0,0
124597,618.556701030928,4,1,1,65,1,0
124597,-83.3333333333333,4,1,1,65,0,0
125215,640,4,1,1,65,1,0
125215,-83.3333333333333,4,1,1,65,0,0
127135,625,4,1,1,65,1,0
127135,-83.3333333333333,4,1,1,65,0,0
127760,666.666666666667,4,1,1,65,1,0
127760,-90.9090909090909,4,1,1,65,0,0
129760,655.737704918034,4,1,1,65,1,0
129760,-90.9090909090909,4,1,1,65,0,0
130415,648.648648648649,4,1,1,65,1,0
130415,-90.9090909090909,4,1,1,65,0,0
131712,638.297872340426,4,1,1,65,1,0
131712,-90.9090909090909,4,1,1,65,0,0
132988,662.983425414365,4,1,1,65,1,0
132988,-90.9090909090909,4,1,1,65,0,0
134297,640,4,1,1,65,1,0
134297,-90.9090909090909,4,1,1,65,0,0
136217,652.173913043479,4,1,1,65,1,0
136217,-90.9090909090909,4,1,1,65,0,0
136869,638.297872340426,4,1,1,65,1,0
136869,-90.9090909090909,4,1,1,65,0,0
138135,640,4,1,1,65,1,0
138135,-90.9090909090909,4,1,1,65,0,0
140055,631.578947368421,4,1,1,65,1,0
140055,-90.9090909090909,4,1,1,65,0,0
140689,641.711229946524,4,1,1,65,1,0
140689,-90.9090909090909,4,1,1,65,0,0
142614,631.578947368422,4,1,1,65,1,0
142614,-90.9090909090909,4,1,1,65,0,0
143245,634.920634920636,4,1,1,65,1,0
143245,-90.9090909090909,4,1,1,65,0,0
145149,641.711229946524,4,1,1,65,1,0
145149,-90.9090909090909,4,1,1,65,0,0
145790,631.578947368422,4,1,1,65,1,0
145790,-90.9090909090909,4,1,1,65,0,0
146421,612.244897959184,4,1,1,65,1,0
146421,-90.9090909090909,4,1,1,65,0,0
147048,618.556701030928,4,1,1,65,1,0
147048,-90.9090909090909,4,1,1,65,0,0
147678,609.137055837564,4,1,1,65,1,0
147678,-90.9090909090909,4,1,1,65,0,0
148304,653.950953678475,4,1,1,55,1,0
148304,-76.9230769230769,4,1,1,55,0,0
150886,666.666666666667,4,1,1,55,1,0
150886,-76.9230769230769,4,1,1,55,0,0
152212,631.578947368421,4,1,1,55,1,0
152212,-76.9230769230769,4,1,1,55,0,0
153458,652.173913043479,4,1,1,55,1,0
153458,-76.9230769230769,4,1,1,55,0,0
154746,631.578947368422,4,1,1,55,1,0
154746,-76.9230769230769,4,1,1,55,0,0
155998,620.15503875969,4,1,1,55,1,0
155998,-76.9230769230769,4,1,1,55,0,0
158482,674.157303370787,4,1,1,55,1,0
158482,-76.9230769230769,4,1,1,55,0,0
159794,631.578947368422,4,1,1,55,1,0
159794,-76.9230769230769,4,1,1,55,0,0
161052,659.34065934066,4,1,1,55,1,0
161052,-76.9230769230769,4,1,1,55,0,0
162348,625.000000000001,4,1,1,55,1,0
162973,-76.9230769230769,4,1,1,55,0,0
163590,659.34065934066,4,1,1,55,1,0
163590,-76.9230769230769,4,1,1,55,0,0
164872,638.297872340426,4,1,1,55,1,0
164872,-76.9230769230769,4,1,1,55,0,0
166142,631.578947368422,4,1,1,55,1,0
167410,618.556701030928,4,1,1,55,1,0
167873,-100,4,1,1,55,0,0
168028,-100,4,1,1,65,0,0
168647,-76.9230769230769,4,1,1,65,0,0
168652,681.818181818182,4,1,1,65,1,1
168652,-62.5,4,1,1,65,0,1
169810,645.161290322581,4,1,1,65,1,1
169810,-76.9230769230769,4,1,1,65,0,1
170616,638.297872340426,4,1,1,65,1,1
170616,-76.9230769230769,4,1,1,65,0,1
171258,618.556701030928,4,1,1,65,1,1
171258,-76.9230769230769,4,1,1,65,0,1
172498,631.578947368421,4,1,1,65,1,1
172498,-76.9230769230769,4,1,1,65,0,1
173750,652.173913043479,4,1,1,65,1,1
173750,-76.9230769230769,4,1,1,65,0,1
174860,631.578947368422,4,1,1,65,1,1
174860,-76.9230769230769,4,1,1,65,0,1
176264,612.244897959184,4,1,1,65,1,1
176264,-76.9230769230769,4,1,1,65,0,1
177500,631.578947368421,4,1,1,65,1,1
177500,-76.9230769230769,4,1,1,65,0,1
177978,606.060606060606,4,1,1,65,1,1
177978,-76.9230769230769,4,1,1,65,0,1
178735,-76.9230769230769,4,1,1,65,0,1
178738,615.384615384615,4,1,1,65,1,1
178738,-62.5,4,1,1,65,0,1
179840,600,4,1,1,65,1,1
179840,-76.9230769230769,4,1,1,65,0,1
181200,631.578947368422,4,1,1,65,1,1
181200,-76.9230769230769,4,1,1,65,0,1
182456,625,4,1,1,65,1,1
182456,-76.9230769230769,4,1,1,65,0,1
183698,638.297872340426,4,1,1,65,1,1
183698,-76.9230769230769,4,1,1,65,0,1
184820,618.556701030928,4,1,1,65,1,1
184820,-76.9230769230769,4,1,1,65,0,1
185593,606.060606060606,4,1,1,65,1,1
185593,-76.9230769230769,4,1,1,65,0,1
186206,645.161290322581,4,1,1,65,1,1
186206,-76.9230769230769,4,1,1,65,0,1
187476,631.578947368422,4,1,1,65,1,1
187476,-76.9230769230769,4,1,1,65,0,1
188107,645.161290322581,4,1,1,65,1,1
188107,-76.9230769230769,4,1,1,65,0,1
188744,759.493670886077,4,1,1,65,1,0
189456,689.655172413794,4,1,1,65,1,0
189456,-76.9230769230769,4,1,1,65,0,0
190130,689.655172413793,4,1,1,65,1,0
190788,666.666666666667,4,1,1,65,1,0
190788,-153.846153846154,4,1,1,65,0,0
191472,664.819944598338,4,1,1,65,1,0
191472,-103.092783505155,4,1,1,65,0,0
192777,646.900269541779,4,1,1,65,1,0
194078,668.523676880223,4,1,1,65,1,0
194078,-71.4285714285714,4,1,1,65,0,0
195415,674.157303370787,4,1,1,65,1,0
195415,-66.6666666666667,4,1,1,65,0,0
196763,666.666666666667,4,1,1,65,1,0
197596,-71.4285714285714,4,1,1,65,0,0
198088,638.297872340426,4,1,1,65,1,0
198088,-71.4285714285714,4,1,1,65,0,0
199372,683.760683760684,4,1,1,65,1,0
199372,-83.3333333333333,4,1,1,65,0,0
200226,-133.333333333333,4,1,1,65,0,0
200720,681.818181818182,4,1,1,65,1,0
200720,-83.3333333333333,4,1,1,65,0,0
201572,-133.333333333333,4,1,1,65,0,0
202088,659.34065934066,4,1,1,65,1,0
202088,-83.3333333333333,4,1,1,65,0,0
202892,681.818181818182,4,1,1,65,1,0
202892,-83.3333333333333,4,1,1,65,0,0
203384,625,4,1,1,65,1,0
203540,-71.4285714285714,4,1,1,65,0,0
204646,685.714285714286,4,1,1,65,1,0
204646,-66.6666666666667,4,1,1,65,0,0
206016,674.157303370787,4,1,1,65,1,0
206016,-66.6666666666667,4,1,1,65,0,0
207350,666.666666666667,4,1,1,65,1,0
207350,-66.6666666666667,4,1,1,65,0,0
208183,-133.333333333333,4,1,1,65,0,0
208668,638.297872340426,4,1,1,65,1,0
208668,-66.6666666666667,4,1,1,65,0,0
209306,662.983425414366,4,1,1,65,1,0
209306,-50,4,1,1,65,0,0
209803,-50,4,1,1,65,0,0
209968,-50,4,1,1,65,0,0
210134,-50,4,2,1,5,0,0
211129,-50,4,2,1,5,0,0
221158,697.674418604651,4,1,1,65,1,0
221158,-66.6666666666667,4,1,1,65,0,1
222324,652.173913043479,4,1,1,65,1,1
222324,-66.6666666666667,4,1,1,65,0,1
223139,612.244897959184,4,1,1,65,1,1
223139,-66.6666666666667,4,1,1,65,0,1
223778,638.297872340426,4,1,1,65,1,1
223778,-66.6666666666667,4,1,1,65,0,1
225022,625,4,1,1,65,1,1
225022,-66.6666666666667,4,1,1,65,0,1
226280,645.161290322581,4,1,1,65,1,1
226280,-62.5,4,1,1,65,0,1
227388,625,4,1,1,65,1,1
227388,-66.6666666666667,4,1,1,65,0,1
228169,638.297872340426,4,1,1,65,1,1
228169,-66.6666666666667,4,1,1,65,0,1
228796,615.384615384616,4,1,1,65,1,1
228796,-66.6666666666667,4,1,1,65,0,1
229866,625,4,1,1,65,1,1
229866,-66.6666666666667,4,1,1,65,0,1
230494,674.157303370787,4,1,1,65,1,1
230494,-66.6666666666667,4,1,1,65,0,1
231128,638.297872340426,4,1,1,65,1,1
231128,-66.6666666666667,4,1,1,65,0,1
231287,625,4,1,1,65,1,1
231287,-66.6666666666667,4,1,1,65,0,1
232380,-66.6666666666667,4,1,1,65,0,1
232390,594.059405940595,4,1,1,65,1,1
232390,-66.6666666666667,4,1,1,65,0,1
233132,625,4,1,1,65,1,1
233132,-66.6666666666667,4,1,1,65,0,1
233757,625,4,1,1,65,1,1
233757,-66.6666666666667,4,1,1,65,0,1
234842,615.384615384616,4,1,1,65,1,1
234842,-66.6666666666667,4,1,1,65,0,1
235611,645.161290322581,4,1,1,65,1,1
235611,-66.6666666666667,4,1,1,65,0,1
236256,560.747663551402,4,1,1,65,1,1
236256,-66.6666666666667,4,1,1,65,0,1
237201,-66.6666666666667,4,1,1,65,0,1
237276,594.059405940595,4,1,1,65,1,1
237276,-66.6666666666667,4,1,1,65,0,1
238028,594.059405940594,4,1,1,65,1,1
238028,-66.6666666666667,4,1,1,65,0,1
239072,606.060606060606,4,1,1,65,1,1
239072,-66.6666666666667,4,1,1,65,0,1
239954,566.037735849057,4,1,1,65,1,1
239954,-66.6666666666667,4,1,1,65,0,1
240452,588.235294117648,4,1,1,65,1,1
240452,-66.6666666666667,4,1,1,65,0,1
241040,631.578947368422,4,1,1,65,1,1
241040,-62.5,4,1,1,65,0,1
242126,631.578947368422,4,1,1,65,1,1
242126,-62.5,4,1,1,65,0,1
242915,600,4,1,1,65,1,1
242915,-62.5,4,1,1,65,0,1
243510,606.060606060606,4,1,1,65,1,1
243510,-62.5,4,1,1,65,0,1
244408,606.060606060606,4,1,1,65,1,1
244408,-62.5,4,1,1,65,0,1
245165,-100,4,1,1,65,0,1
245938,615.384615384616,4,1,1,65,1,1
245938,-62.5,4,1,1,65,0,1
247016,618.556701030928,4,1,1,65,1,1
247016,-62.5,4,1,1,65,0,1
247798,594.059405940594,4,1,1,65,1,1
247798,-62.5,4,1,1,65,0,1
248392,618.556701030928,4,1,1,65,1,1
248392,-62.5,4,1,1,65,0,1
249642,594.059405940595,4,1,1,65,1,1
250100,576.923076923077,4,1,1,65,1,1
250556,645.161290322581,4,1,1,65,1,1
250878,631.578947368422,4,1,1,65,1,1
250878,-62.5,4,1,1,65,0,1
251193,-62.5,4,1,1,65,0,1
251996,582.52427184466,4,1,1,65,1,1
251996,-62.5,4,1,1,65,0,1
252722,606.060606060606,4,1,1,65,1,1
252722,-62.5,4,1,1,65,0,1
253328,612.244897959184,4,1,1,65,1,1
253328,-62.5,4,1,1,65,0,1
254552,591.133004926108,4,1,1,65,1,1
255746,607.594936708862,4,1,1,65,1,1
256353,-62.5,4,1,1,65,0,1
258176,606.060606060606,4,1,1,65,1,1
258176,-62.5,4,1,1,65,0,1
259414,594.059405940594,4,1,1,65,1,1
259414,-62.5,4,1,1,65,0,1
260618,631.578947368422,4,1,1,65,1,1
260618,-71.4285714285714,4,1,1,65,0,1
261730,555.555555555556,4,1,1,65,1,1
261730,-71.4285714285714,4,1,1,65,0,1
262466,612.244897959184,4,1,1,65,1,1
262466,-71.4285714285714,4,1,1,65,0,1
263078,612.244897959184,4,1,1,65,1,1
263078,-71.4285714285714,4,1,1,65,0,1
264438,612.244897959184,4,1,1,65,1,1
264438,-71.4285714285714,4,1,1,65,0,1
264897,594.059405940595,4,1,1,65,1,1
264897,-71.4285714285714,4,1,1,65,0,1
265500,618.556701030928,4,1,1,65,1,1
265500,-71.4285714285714,4,1,1,65,0,1
266418,594.059405940595,4,1,1,65,1,1
266418,-71.4285714285714,4,1,1,65,0,1
266892,576.923076923077,4,1,1,65,1,1
266892,-71.4285714285714,4,1,1,65,0,1
267324,631.578947368421,4,1,1,65,1,1
267324,-71.4285714285714,4,1,1,65,0,1
267948,582.52427184466,4,1,1,65,1,1
267948,-71.4285714285714,4,1,1,65,0,1
268974,638.297872340426,4,1,1,65,1,1
268974,-71.4285714285714,4,1,1,65,0,1
269452,618.556701030928,4,1,1,65,1,1
269452,-71.4285714285714,4,1,1,65,0,1
270379,582.524271844661,4,1,1,60,1,1
270379,-71.4285714285714,4,1,1,60,0,1
270966,618.556701030928,4,1,1,60,1,1
270966,-71.4285714285714,4,1,1,60,0,1
271429,-71.4285714285714,4,1,1,55,0,1
272178,612.244897959184,4,1,1,55,1,1
272178,-71.4285714285714,4,1,1,55,0,1
272790,606.060606060606,4,1,1,55,1,1
272790,-71.4285714285714,4,1,1,55,0,1
274153,588.235294117647,4,1,1,55,1,1
274153,-71.4285714285714,4,1,1,55,0,1
274748,638.297872340426,4,1,1,50,1,1
274748,-71.4285714285714,4,1,1,50,0,1
275236,609.137055837564,4,1,1,50,1,1
275236,-100,4,1,1,50,0,1
276298,625,4,1,1,50,1,1
276298,-100,4,1,1,50,0,1
277079,625,4,1,1,45,1,1
277079,-71.4285714285714,4,1,1,45,0,1
277704,576.923076923077,4,1,1,45,1,1
277704,-100,4,1,1,45,0,1
278600,588.235294117647,4,1,1,40,1,1
278600,-71.4285714285714,4,1,1,40,0,1
279502,618.556701030928,4,1,1,35,1,1
279502,-71.4285714285714,4,1,1,35,0,1
280120,-71.4285714285714,4,1,1,35,0,0
280275,-71.4285714285714,4,2,1,5,0,0
299295,-71.4285714285714,4,2,1,5,0,0

[Colours]
Combo1 : 255,149,149
Combo2 : 255,186,130
Combo3 : 226,184,254
Combo4 : 187,219,255

[HitObjects]
0,250,24042,6,0,P|107:279|159:296,1,139.999995231629,4|0,2:0|0:0,0:0:0:0:
333,241,24547,1,0,0:0:0:0:
243,302,24716,1,8,2:0:0:0:
247,321,24884,1,0,0:0:0:0:
197,133,25221,1,0,0:0:0:0:
188,104,25394,6,0,P|262:123|345:145,1,139.999995231629,0|2,0:0|2:0,0:0:0:0:
485,73,25911,1,0,0:0:0:0:
427,160,26083,1,8,2:0:0:0:
435,186,26256,1,0,0:0:0:0:
474,349,26600,1,0,0:0:0:0:
432,332,26762,6,0,P|343:344|256:363,1,139.999995231629,4|0,2:0|0:0,0:0:0:0:
77,282,27279,1,0,0:0:0:0:
178,365,27451,1,8,2:0:0:0:
171,344,27624,1,0,0:0:0:0:
216,183,27968,1,0,0:0:0:0:
188,162,28110,6,0,P|118:135|96:130,1,69.9999976158143
10,130,28443,1,0,0:0:0:0:
74,51,28610,1,0,0:0:0:0:
67,226,28776,1,8,2:0:0:0:
72,239,28943,2,0,P|83:276|93:320,1,69.9999976158143,0|2,0:0|2:0,0:0:0:0:
219,288,29276,1,0,0:0:0:0:
201,314,29466,6,0,P|280:345|340:376,1,139.999995231629,4|0,2:0|0:0,0:0:0:0:
498,289,29971,1,0,0:0:0:0:
373,202,30140,2,0,P|368:264|365:306,1,69.9999976158143,8|0,2:0|0:0,0:0:0:0:
408,342,30477,1,0,0:0:0:0:
482,181,30645,1,0,0:0:0:0:
469,152,30802,6,0,P|403:105|338:68,1,139.999995231629,0|2,0:0|2:0,0:0:0:0:
155,26,31313,1,0,0:0:0:0:
212,167,31483,1,8,2:0:0:0:
229,143,31654,1,0,0:0:0:0:
122,206,31824,1,2,2:0:0:0:
245,364,31995,1,0,0:0:0:0:
276,346,32122,6,0,P|365:327|440:313,1,139.999995231629,4|0,2:0|0:0,0:0:0:0:
227,262,32615,1,0,0:0:0:0:
145,332,32779,2,0,P|102:335|78:303,1,69.9999976158143,8|0,2:0|0:0,0:0:0:0:
15,173,33108,1,0,0:0:0:0:
0,197,33272,1,0,0:0:0:0:
95,74,33437,1,0,0:0:0:0:
83,44,33601,2,0,L|4:24,1,69.9999976158143,0|2,0:0|2:0,0:0:0:0:
184,20,33930,1,0,0:0:0:0:
177,144,34094,1,8,2:0:0:0:
164,175,34258,2,0,L|86:159,1,69.9999976158143,0|8,0:0|3:0,0:0:0:0:
279,118,34587,1,0,0:0:0:0:
250,82,34772,6,0,P|329:77|415:85,1,139.999995231629,4|0,2:0|0:0,0:0:0:0:
500,213,35280,1,0,0:0:0:0:
502,68,35449,1,8,2:0:0:0:
486,96,35619,1,0,0:0:0:0:
341,205,35958,1,0,0:0:0:0:
378,232,36094,6,0,P|401:294|406:310,1,69.9999976158143
412,375,36432,1,2,2:0:0:0:
492,320,36602,1,0,0:0:0:0:
325,341,36771,2,0,P|280:341|273:375,1,69.9999976158143,8|0,2:0|0:0,0:0:0:0:
156,238,37110,1,2,2:0:0:0:
164,276,37280,1,0,0:0:0:0:
144,347,37439,6,0,P|86:319|-1:295,1,139.999995231629,4|0,2:0|0:0,0:0:0:0:
159,185,37939,1,0,0:0:0:0:
25,110,38105,1,8,2:0:0:0:
41,139,38268,2,0,P|41:180|4:208,1,69.9999976158143
144,86,38594,1,0,0:0:0:0:
310,106,38757,1,0,0:0:0:0:
291,74,38920,2,0,P|291:33|328:5,1,69.9999976158143,0|2,0:0|2:0,0:0:0:0:
469,103,39246,1,0,0:0:0:0:
456,230,39409,1,8,2:0:0:0:
479,253,39572,1,0,0:0:0:0:
363,229,39735,1,0,0:0:0:0:
325,324,39898,1,0,1:0:0:0:
241,177,40067,5,0,0:0:0:0:
256,212,40230,1,0,0:0:0:0:
58,109,40558,1,0,0:0:0:0:
128,167,40722,1,8,2:0:0:0:
140,213,40886,1,0,0:0:0:0:
33,355,41214,5,0,0:0:0:0:
13,325,41370,2,0,P|103:349|155:376,1,139.999995231629,0|2,0:0|2:0,0:0:0:0:
213,272,41859,1,0,0:0:0:0:
222,308,42022,2,0,P|304:350|352:384,1,139.999995231629,8|2,2:0|2:0,0:0:0:0:
490,327,42511,1,0,0:0:0:0:
443,248,42680,6,0,P|449:178|464:87,1,139.999995231629,4|2,2:0|0:2,0:0:0:0:
325,8,43180,1,0,0:0:0:0:
207,127,43346,1,8,2:0:0:0:
232,103,43513,1,0,0:0:0:0:
105,139,43680,1,2,2:0:0:0:
37,21,43846,1,0,0:0:0:0:
84,242,44003,5,8,2:0:0:0:
54,271,44164,2,0,P|53:320|54:365,1,69.9999976158143,8|2,2:0|2:0,0:0:0:0:
229,209,44488,1,0,0:0:0:0:
193,252,44649,6,0,P|212:332|215:341,1,69.9999976158143,8|0,3:0|0:0,0:0:0:0:
380,110,44989,1,10,2:0:0:0:
306,178,45160,1,0,0:0:0:0:
417,321,45329,6,0,P|427:251|461:173,1,139.999995231629,4|2,2:0|2:0,0:0:0:0:
445,44,45834,1,0,0:0:0:0:
297,123,46003,2,0,P|315:159|360:190,1,69.9999976158143,8|0,2:0|0:0,0:0:0:0:
457,187,46332,1,2,2:0:0:0:
398,304,46497,1,0,0:0:0:0:
417,321,46662,2,0,P|299:326|181:356,1,209.999992847443
102,282,47321,1,8,2:0:0:0:
123,308,47486,1,0,0:0:0:0:
50,100,47816,1,0,0:0:0:0:
0,180,47969,6,0,P|61:148|145:140,1,139.999995231629,4|0,2:0|0:0,0:0:0:0:
306,200,48460,1,0,0:0:0:0:
204,13,48624,2,0,P|206:47|218:93,1,69.9999976158143,8|0,2:0|0:0,0:0:0:0:
366,145,48952,2,0,P|346:115|331:84,1,69.9999976158143,2|0,2:0|0:0,0:0:0:0:
195,186,49288,1,0,0:0:0:0:
180,206,49448,2,0,P|248:228|304:283,1,139.999995231629
79,366,49931,1,8,2:0:0:0:
132,290,50092,1,0,0:0:0:0:
48,241,50253,1,2,2:0:0:0:
85,166,50414,1,0,0:0:0:0:
95,166,50494,1,0,0:0:0:0:
104,162,50574,6,0,P|136:93|78:52,1,139.999995231629,0|2,0:0|2:0,0:0:0:0:
11,124,51045,1,0,0:0:0:0:
217,23,51202,1,8,2:0:0:0:
200,48,51365,1,0,0:0:0:0:
346,156,51691,2,0,P|333:119|312:82,1,69.9999976158143
428,15,52017,2,0,P|416:50|409:83,1,69.9999976158143,0|2,0:0|2:0,0:0:0:0:
491,173,52343,1,0,0:0:0:0:
406,299,52506,1,8,2:0:0:0:
424,272,52669,2,0,P|412:305|405:353,1,69.9999976158143,0|2,0:0|2:0,0:0:0:0:
278,264,52995,1,0,0:0:0:0:
366,188,53158,6,0,P|338:120|316:37,1,139.999995231629,4|2,2:0|2:0,0:0:0:0:
391,18,53652,1,0,0:0:0:0:
245,199,53817,2,0,P|257:160|267:110,2,69.9999976158143,8|0|2,2:0|0:0|2:0,0:0:0:0:
156,267,54311,1,0,0:0:0:0:
168,289,54466,1,0,0:0:0:0:
79,369,54625,2,0,P|84:304|19:289,1,139.999995231629
165,158,55104,1,8,2:0:0:0:
151,183,55263,1,0,0:0:0:0:
56,94,55423,1,2,2:0:0:0:
64,109,55583,1,0,0:0:0:0:
10,197,55734,6,0,P|108:200|234:229,1,209.999992847443
366,292,56408,1,8,2:0:0:0:
348,313,56576,1,0,0:0:0:0:
134,289,56913,1,0,0:0:0:0:
112,281,57066,2,0,P|95:210|212:126,1,209.999992847443,4|0,2:0|0:0,0:0:0:0:
25,27,57718,1,8,2:0:0:0:
39,44,57881,2,0,P|30:112|-6:181,1,139.999995231629
26,307,58362,6,0,L|181:285,1,139.999995231629,0|2,0:0|2:0,0:0:0:0:
304,339,58859,1,0,0:0:0:0:
264,122,59024,2,0,P|246:158|235:209,1,69.9999976158143,8|0,2:0|0:0,0:0:0:0:
168,46,59356,2,0,P|179:91|184:128,1,69.9999976158143,2|0,2:0|0:0,0:0:0:0:
323,61,59687,1,0,0:0:0:0:
363,175,59846,2,0,P|383:102|415:26,1,139.999995231629
406,257,60327,1,8,2:0:0:0:
435,242,60488,1,0,0:0:0:0:
452,204,60648,1,2,2:0:0:0:
372,343,60808,1,0,0:0:0:0:
376,337,60889,1,0,0:0:0:0:
377,330,60969,6,0,P|302:319|252:358,1,139.999995231629,4|2,2:0|2:0,0:0:0:0:
201,283,61450,1,0,0:0:0:0:
5,378,61611,2,0,P|5:304|-7:218,1,139.999995231629,8|2,2:0|2:0,0:0:0:0:
58,157,62092,1,0,0:0:0:0:
84,182,62231,2,0,L|77:105,1,69.9999976158143
180,194,62555,2,0,L|172:271,1,69.9999976158143,2|0,2:0|0:0,0:0:0:0:
262,53,62879,2,0,P|307:110|379:85,1,139.999995231629,8|2,2:0|2:0,0:0:0:0:
429,41,63366,1,0,0:0:0:0:
158,107,63530,5,8,2:0:0:0:
86,26,63689,1,0,0:0:0:0:
152,118,64008,5,0,0:0:0:0:
49,327,64168,1,8,2:0:0:0:
101,225,64327,1,0,0:0:0:0:
61,337,64647,5,0,0:0:0:0:
298,270,64806,1,8,2:0:0:0:
225,338,64966,1,0,0:0:0:0:
243,192,65125,5,10,2:0:0:0:
251,208,65285,1,0,0:0:0:0:
435,314,65444,5,8,3:0:0:0:
491,234,65604,1,0,0:0:0:0:
241,10,65923,5,0,0:0:0:0:
97,274,66083,2,0,B|139:213|139:213|182:142|128:103,1,167.999989151001,4|2,2:0|2:0,0:0:0:0:
35,22,66574,1,0,0:0:0:0:
222,229,66738,2,0,B|282:216|282:216|329:222|329:222|413:200,1,167.999989151001,8|2,2:0|2:0,0:0:0:0:
276,319,67232,6,0,B|282:331|298:330|298:330|365:315,1,83.9999945755007,8|0,2:0|0:0,0:0:0:0:
453,115,67561,2,0,B|429:94|408:98|408:98|293:122,1,167.999989151001,8|0,2:0|0:0,0:0:0:0:
93,224,68070,5,8,2:0:0:0:
17,73,68226,2,0,P|52:26|87:38,1,83.9999945755007,0|2,0:0|2:0,0:0:0:0:
32,116,68538,1,0,0:0:0:0:
16,305,68718,6,0,P|132:321|210:356,1,167.999989151001,4|2,2:0|2:0,0:0:0:0:
363,242,69204,1,0,0:0:0:0:
276,309,69366,2,0,P|332:327|441:381,1,167.999989151001,8|2,2:0|2:0,0:0:0:0:
356,231,69853,1,0,0:0:0:0:
133,216,69997,5,0,0:0:0:0:
79,138,70160,2,0,P|93:81|114:40,1,83.9999945755007,8|2,2:0|2:0,0:0:0:0:
140,224,70488,1,0,0:0:0:0:
93,302,70652,1,8,2:0:0:0:
29,351,70816,2,0,P|66:308|103:281,1,83.9999945755007,0|2,0:0|2:0,0:0:0:0:
186,294,71144,1,0,0:0:0:0:
57,162,71308,6,0,P|29:77|17:-12,1,167.999989151001,4|2,2:0|2:0,0:0:0:0:
79,138,71785,1,0,0:0:0:0:
9,237,71945,2,0,P|52:295|129:245,1,167.999989151001,8|2,2:0|2:0,0:0:0:0:
282,107,72444,5,8,2:0:0:0:
341,190,72600,2,0,P|282:226|210:163,1,167.999989151001
313,22,73069,1,0,0:0:0:0:
136,75,73233,6,0,L|306:112,1,167.999989151001,8|2,2:0|2:0,0:0:0:0:
321,18,73719,1,0,0:0:0:0:
400,113,73854,1,8,2:0:0:0:
437,122,74012,1,8,2:0:0:0:
120,195,74330,1,0,0:0:0:0:
10,161,74488,1,8,2:0:0:0:
341,328,74965,1,0,0:0:0:0:
491,359,75123,5,8,2:0:0:0:
362,309,75290,1,8,2:0:0:0:
411,369,75458,1,2,2:0:0:0:
422,248,75625,1,0,0:0:0:0:
280,350,75785,5,8,3:0:0:0:
505,349,75946,1,0,0:0:0:0:
362,299,76107,1,10,2:0:0:0:
417,377,76268,1,0,0:0:0:0:
440,159,76439,6,0,P|469:86|499:23,1,139.999995231629,4|0,2:0|0:0,0:0:0:0:
463,194,76933,1,0,0:0:0:0:
282,105,77098,1,8,2:0:0:0:
293,54,77263,1,0,0:0:0:0:
186,162,77428,2,0,P|147:184|117:151,1,69.9999976158143,2|0,2:0|0:0,0:0:0:0:
10,36,77770,6,0,P|109:55|175:74,1,139.999995231629,0|2,0:0|2:0,0:0:0:0:
32,64,78267,1,0,0:0:0:0:
5,155,78432,1,8,2:0:0:0:
18,191,78598,1,0,0:0:0:0:
209,314,78930,1,0,0:0:0:0:
181,267,79096,6,0,P|278:298|338:329,1,139.999995231629,4|2,2:0|2:0,0:0:0:0:
416,257,79582,1,0,0:0:0:0:
508,357,79744,2,0,P|453:372|437:357,1,69.9999976158143,8|0,2:0|0:0,0:0:0:0:
499,197,80068,1,2,2:0:0:0:
485,223,80231,1,0,0:0:0:0:
438,105,80393,1,0,0:0:0:0:
328,158,80555,2,0,P|258:166|153:195,1,139.999995231629
91,93,81041,1,8,2:0:0:0:
49,170,81204,2,0,P|16:165|-1:133,1,69.9999976158143,0|2,0:0|2:0,0:0:0:0:
127,259,81528,1,0,0:0:0:0:
0,360,81680,6,0,P|64:336|118:378,1,139.999995231629,4|2,2:0|2:0,0:0:0:0:
222,319,82167,1,0,0:0:0:0:
143,171,82330,2,0,P|154:210|158:258,1,69.9999976158143,8|0,2:0|0:0,0:0:0:0:
222,319,82655,1,2,2:0:0:0:
282,268,82818,1,0,0:0:0:0:
338,366,82980,2,0,P|345:329|362:285,1,69.9999976158143
449,239,83306,1,2,2:0:0:0:
464,265,83468,1,0,0:0:0:0:
512,112,83631,2,0,B|358:149|358:149|316:158|307:118,1,209.999992847443,8|0,2:0|0:0,0:0:0:0:
386,20,84262,5,8,2:0:0:0:
410,46,84422,1,0,0:0:0:0:
121,247,84743,1,0,0:0:0:0:
38,184,84903,2,0,L|49:257,1,69.9999976158143,8|0,2:0|0:0,0:0:0:0:
90,118,85224,1,2,2:0:0:0:
65,92,85384,1,0,0:0:0:0:
177,20,85545,1,0,0:0:0:0:
160,49,85705,2,0,L|318:26,1,139.999995231629
449,136,86187,1,8,2:0:0:0:
424,116,86347,2,0,P|389:152|380:192,1,69.9999976158143,0|10,0:0|2:0,0:0:0:0:
505,283,86668,1,0,0:0:0:0:
509,279,86748,1,0,0:0:0:0:
512,274,86828,6,0,B|503:246|458:259|458:259|291:299,1,209.999992847443,4|0,2:0|0:0,0:0:0:0:
107,262,87440,2,0,P|178:245|174:180,1,139.999995231629,8|2,2:0|2:0,0:0:0:0:
101,135,87925,1,0,0:0:0:0:
6,325,88086,2,0,L|159:357,1,139.999995231629
234,309,88572,1,0,0:0:0:0:
11,205,88733,1,8,2:0:0:0:
3,186,88895,1,0,0:0:0:0:
154,33,89218,1,0,0:0:0:0:
141,64,89380,5,0,0:0:0:0:
264,120,89540,1,0,0:0:0:0:
259,107,89701,1,2,2:0:0:0:
352,48,89862,1,0,0:0:0:0:
447,215,90023,2,0,P|464:179|503:144,1,69.9999976158143,8|0,2:0|0:0,0:0:0:0:
352,226,90345,2,0,L|371:309,1,69.9999976158143,2|0,2:0|0:0,0:0:0:0:
242,364,90666,1,0,0:0:0:0:
228,352,90827,2,0,B|212:309|212:309|241:196,1,139.999995231629,10|0,2:0|0:0,0:0:0:0:
107,100,91310,1,8,2:0:0:0:
159,183,91471,1,0,0:0:0:0:
173,159,91632,1,2,2:0:0:0:
0,251,91792,1,0,0:0:0:0:
32,178,91956,6,0,L|51:330,1,139.999995231629,4|0,2:0|0:0,0:0:0:0:
143,352,92437,1,0,0:0:0:0:
108,99,92597,1,8,2:0:0:0:
91,90,92758,2,0,L|185:72,1,69.9999976158143,0|2,0:0|2:0,0:0:0:0:
255,124,93078,1,0,0:0:0:0:
327,45,93239,1,0,0:0:0:0:
318,67,93399,1,0,0:0:0:0:
408,109,93560,1,2,2:0:0:0:
472,63,93720,1,0,0:0:0:0:
509,224,93881,2,0,P|446:196|361:194,1,139.999995231629,8|2,2:0|2:0,0:0:0:0:
282,255,94354,5,0,0:0:0:0:
53,155,94506,1,8,2:0:0:0:
233,51,94663,1,0,0:0:0:0:
153,365,94977,5,0,0:0:0:0:
114,102,95134,1,8,2:0:0:0:
146,353,95291,1,0,0:0:0:0:
494,136,95605,5,0,0:0:0:0:
222,182,95758,1,8,2:0:0:0:
469,331,96080,5,2,2:0:0:0:
364,238,96241,1,0,0:0:0:0:
415,173,96403,1,8,3:0:0:0:
319,94,96564,5,0,0:0:0:0:
226,317,96725,1,12,2:0:0:0:
121,224,96887,1,0,0:0:0:0:
226,30,97052,6,0,P|179:150|140:287,1,251.999983726502,4|0,2:0|0:0,0:0:0:0:
133,373,97707,1,8,2:0:0:0:
446,365,98363,1,0,0:0:0:0:
422,351,98527,2,0,P|388:241|377:165,1,167.999989151001
382,81,99019,1,8,2:0:0:0:
485,11,99664,5,8,2:0:0:0:
459,34,99824,2,0,P|374:28|292:15,1,167.999989151001
216,70,100305,1,8,2:0:0:0:
89,338,100626,6,0,P|66:303|40:379,1,167.999989151001
170,343,101107,2,0,P|233:354|341:381,1,167.999989151001
472,333,101589,2,0,P|449:298|434:369,1,167.999989151001,8|0,2:0|0:0,0:0:0:0:
512,248,102070,1,0,0:0:0:0:
422,213,102220,5,8,2:0:0:0:
496,41,102385,1,0,0:0:0:0:
475,58,102717,1,0,0:0:0:0:
250,29,102882,2,0,P|350:15|434:2,1,167.999989151001,8|0,2:0|0:0,0:0:0:0:
394,29,103380,1,0,0:0:0:0:
246,3,103533,5,0,0:0:0:0:
34,62,103691,1,0,0:0:0:0:
34,62,104167,2,0,P|29:144|8:243,1,167.999989151001,8|0,2:0|0:0,0:0:0:0:
83,259,104644,1,0,0:0:0:0:
6,344,104796,5,0,0:0:0:0:
155,336,104954,2,0,P|109:295|11:329,1,167.999989151001
240,378,105430,2,0,P|315:369|427:358,1,167.999989151001,8|0,2:0|0:0,0:0:0:0:
481,47,106065,1,0,0:0:0:0:
432,117,106224,2,0,P|364:87|246:63,1,167.999989151001
141,17,106700,6,0,P|88:72|39:161,1,167.999989151001,8|0,2:0|0:0,0:0:0:0:
129,88,107166,1,0,0:0:0:0:
28,124,107321,5,8,2:0:0:0:
98,206,107484,2,0,P|101:274|101:379,1,167.999989151001
235,162,107974,2,0,P|197:211|99:178,1,167.999989151001,8|0,2:0|0:0,0:0:0:0:
39,21,108612,5,0,0:0:0:0:
31,114,108769,2,0,P|16:154|6:221,1,83.9999945755007
104,84,109085,1,0,0:0:0:0:
99,174,109243,2,0,P|80:89|42:11,1,167.999989151001,8|0,2:0|0:0,0:0:0:0:
112,87,109717,1,0,0:0:0:0:
7,194,109875,5,0,0:0:0:0:
137,354,110040,2,0,P|149:272|176:172,1,167.999989151001
345,25,110537,2,0,P|368:88|395:189,1,167.999989151001,8|0,2:0|0:0,0:0:0:0:
462,127,111035,1,0,0:0:0:0:
283,184,111170,5,0,0:0:0:0:
369,142,111326,1,0,0:0:0:0:
162,349,111795,2,0,P|107:310|-4:255,1,167.999989151001,8|0,2:0|0:0,0:0:0:0:
147,270,112263,1,0,0:0:0:0:
34,352,112426,5,0,0:0:0:0:
53,240,112585,2,0,P|11:83|3:68,1,167.999989151001
184,2,113064,2,0,P|192:53|99:118,1,167.999989151001,8|0,2:0|0:0,0:0:0:0:
242,302,113682,1,0,0:0:0:0:
242,302,113843,2,0,P|284:181|305:144,1,167.999989151001
416,270,114327,2,0,P|418:337|331:368,1,167.999989151001,8|0,2:0|0:0,0:0:0:0:
239,319,114811,1,0,0:0:0:0:
40,372,114962,5,0,0:0:0:0:
93,316,115119,2,0,L|73:213,1,83.9999945755007
154,159,115435,1,0,0:0:0:0:
340,211,115593,2,0,P|255:229|166:255,1,167.999989151001,8|0,2:0|0:0,0:0:0:0:
175,145,116067,1,0,0:0:0:0:
303,295,116237,2,0,P|348:301|396:314,1,83.9999945755007,8|0,2:0|0:0,0:0:0:0:
476,359,116563,1,2,2:0:0:0:
509,276,116726,1,0,0:0:0:0:
396,98,116889,1,8,2:0:0:0:
300,320,117052,1,0,0:0:0:0:
250,243,117215,1,10,2:0:0:0:
267,217,117378,1,0,0:0:0:0:
151,369,117541,6,0,P|83:312|8:349,1,167.999989151001,12|0,2:0|0:0,0:0:0:0:
101,279,118032,1,0,0:0:0:0:
8,91,118196,1,8,2:0:0:0:
87,151,118360,1,0,0:0:0:0:
138,65,118524,1,2,2:0:0:0:
118,46,118694,2,0,P|164:38|216:17,1,83.9999945755007,8|0,2:0|0:0,0:0:0:0:
240,165,119014,2,0,P|194:173|142:194,1,83.9999945755007,2|0,2:0|0:0,0:0:0:0:
200,267,119335,1,0,0:0:0:0:
284,74,119500,2,0,P|339:136|415:81,1,167.999989151001,8|2,2:0|2:0,0:0:0:0:
361,25,119986,1,0,0:0:0:0:
465,178,120154,6,0,P|486:137|512:98,2,83.9999945755007,0|0|2,0:0|0:0|2:0,0:0:0:0:
496,254,120630,1,0,0:0:0:0:
381,362,120788,2,0,P|360:321|334:282,2,83.9999945755007,8|0|2,2:0|0:0|2:0,0:0:0:0:
254,279,121265,1,0,0:0:0:0:
196,361,121424,1,0,0:0:0:0:
32,271,121584,2,0,P|57:310|75:353,1,83.9999945755007,0|2,0:0|2:0,0:0:0:0:
90,194,121903,1,0,0:0:0:0:
250,288,122062,1,8,2:0:0:0:
200,197,122218,2,0,P|212:156|230:118,1,83.9999945755007,0|2,0:0|2:0,0:0:0:0:
307,54,122530,1,0,0:0:0:0:
469,205,122687,6,0,P|420:146|337:193,1,167.999989151001,12|0,2:0|0:0,0:0:0:0:
400,265,123176,1,0,0:0:0:0:
301,38,123339,2,0,P|328:111|330:206,1,167.999989151001,8|2,2:0|2:0,0:0:0:0:
237,287,123828,2,0,P|193:273|136:266,1,83.9999945755007,8|0,2:0|0:0,0:0:0:0:
294,358,124135,1,10,2:0:0:0:
284,346,124289,1,0,0:0:0:0:
378,384,124443,1,0,0:0:0:0:
461,189,124597,2,0,P|474:266|513:348,1,167.999989151001,8|0,2:0|0:0,0:0:0:0:
415,308,125060,1,0,0:0:0:0:
483,63,125215,5,8,2:0:0:0:
326,121,125375,1,8,2:0:0:0:
114,337,125695,5,0,0:0:0:0:
56,165,125855,1,8,2:0:0:0:
41,188,126175,5,2,2:0:0:0:
144,238,126335,1,0,0:0:0:0:
200,52,126495,1,8,2:0:0:0:
232,145,126655,1,0,0:0:0:0:
128,112,126815,5,2,2:0:0:0:
323,70,126975,1,8,2:0:0:0:
310,93,127135,1,8,3:0:0:0:
372,167,127291,1,0,0:0:0:0:
253,351,127447,5,10,2:0:0:0:
315,258,127603,1,0,0:0:0:0:
512,356,127760,6,0,P|414:327|274:317,1,230.999999181748,4|0,2:0|0:0,0:0:0:0:
32,364,128426,1,8,2:0:0:0:
132,170,128593,2,0,P|127:217|116:258,1,76.9999997272492
157,152,128926,2,0,P|146:222|96:386,1,230.999999181748,0|2,0:0|2:0,0:0:0:0:
44,192,129593,1,0,0:0:0:0:
186,356,129760,5,8,2:0:0:0:
84,118,129923,1,0,0:0:0:0:
151,157,130087,1,2,2:0:0:0:
40,200,130251,1,0,0:0:0:0:
158,19,130415,6,0,P|82:34|-1:57,1,153.999999454498,0|2,0:0|2:0,0:0:0:0:
239,69,130901,1,0,0:0:0:0:
353,22,131063,2,0,P|341:79|381:92,1,76.9999997272492,8|0,2:0|0:0,0:0:0:0:
512,199,131387,1,2,2:0:0:0:
482,106,131550,1,0,0:0:0:0:
344,4,131712,6,0,P|310:48|402:79,1,153.999999454498,8|2,2:0|2:0,0:0:0:0:
509,211,132190,1,0,0:0:0:0:
506,25,132350,1,8,2:0:0:0:
464,95,132509,1,0,0:0:0:0:
361,215,132669,1,2,2:0:0:0:
424,364,132829,1,0,0:0:0:0:
193,212,132988,6,0,P|145:241|10:365,1,230.999999181748,4|0,2:0|0:0,0:0:0:0:
150,285,133650,1,8,2:0:0:0:
64,256,133816,1,0,0:0:0:0:
116,378,133982,1,2,2:0:0:0:
236,298,134148,1,0,0:0:0:0:
447,346,134297,6,0,P|413:370|365:356,2,76.9999997272492,8|0|2,2:0|0:0|2:0,0:0:0:0:
224,303,134777,1,0,0:0:0:0:
492,197,134937,2,0,P|417:228|324:278,1,153.999999454498,8|2,2:0|2:0,0:0:0:0:
143,220,135417,1,0,0:0:0:0:
106,326,135577,2,0,P|54:310|0:301,1,76.9999997272492,8|0,2:0|0:0,0:0:0:0:
182,383,135897,1,2,2:0:0:0:
276,231,136057,1,0,0:0:0:0:
493,361,136217,5,8,2:0:0:0:
484,259,136380,2,0,P|412:287|327:331,1,153.999999454498
180,238,136869,5,8,2:0:0:0:
139,311,137028,1,0,0:0:0:0:
115,168,137188,1,2,2:0:0:0:
202,370,137347,1,0,0:0:0:0:
48,281,137507,1,8,2:0:0:0:
187,240,137666,1,0,0:0:0:0:
332,347,137826,1,10,2:0:0:0:
266,109,137986,1,0,0:0:0:0:
0,116,138135,6,0,P|36:197|59:267,1,153.999999454498,4|2,2:0|2:0,0:0:0:0:
58,140,138615,1,0,0:0:0:0:
127,365,138775,2,0,P|150:312|164:269,1,76.9999997272492,8|0,2:0|0:0,0:0:0:0:
19,353,139095,1,2,2:0:0:0:
0,203,139255,1,0,0:0:0:0:
349,321,139415,2,0,P|300:265|142:168,1,230.999999181748
343,250,140055,5,8,2:0:0:0:
203,350,140212,1,0,0:0:0:0:
290,380,140370,1,0,0:0:0:0:
472,277,140528,1,0,0:0:0:0:
405,108,140689,6,0,P|442:66|467:34,1,76.9999997272492
287,151,141009,1,2,2:0:0:0:
321,72,141170,1,0,0:0:0:0:
348,285,141330,2,0,P|380:254|407:226,1,76.9999997272492,8|0,2:0|0:0,0:0:0:0:
249,359,141651,1,2,2:0:0:0:
174,262,141811,1,0,0:0:0:0:
13,343,141972,2,0,P|68:308|188:181,1,230.999999181748
87,363,142614,5,8,2:0:0:0:
30,258,142771,1,0,0:0:0:0:
195,330,142929,1,2,2:0:0:0:
192,185,143087,1,0,0:0:0:0:
334,318,143245,6,0,P|372:248|415:145,1,153.999999454498,4|2,2:0|2:0,0:0:0:0:
254,279,143721,1,0,0:0:0:0:
504,367,143879,1,8,2:0:0:0:
431,317,144038,1,0,0:0:0:0:
234,371,144197,1,2,2:0:0:0:
161,255,144356,1,0,0:0:0:0:
28,377,144514,1,0,0:0:0:0:
2,303,144673,1,0,0:0:0:0:
119,368,144832,1,2,2:0:0:0:
173,249,144991,1,0,0:0:0:0:
64,98,145149,6,0,P|58:41|76:15,1,76.9999997272492,8|0,2:0|0:0,0:0:0:0:
131,161,145469,1,2,2:0:0:0:
80,237,145630,1,0,0:0:0:0:
238,149,145790,1,8,2:0:0:0:
132,174,145947,1,8,2:0:0:0:
43,26,146105,1,2,2:0:0:0:
82,99,146263,1,0,0:0:0:0:
42,250,146421,5,8,2:0:0:0:
139,183,146574,1,0,0:0:0:0:
245,159,146727,1,2,2:0:0:0:
322,221,146880,1,0,0:0:0:0:
438,194,147048,5,8,2:0:0:0:
498,251,147202,1,0,0:0:0:0:
502,147,147357,1,2,2:0:0:0:
360,163,147511,1,8,2:0:0:0:
285,311,147678,5,8,3:0:0:0:
382,282,147830,1,0,0:0:0:0:
321,379,147982,1,10,2:0:0:0:
209,293,148134,1,0,0:0:0:0:
317,25,148304,6,0,P|216:132|87:187,1,272.999978204728,4|0,2:0|0:0,0:0:0:0:
7,134,148957,1,8,2:0:0:0:
96,286,149284,1,0,0:0:0:0:
360,167,149611,1,0,0:0:0:0:
360,167,149775,2,0,P|296:238|264:338,1,181.999985469819
355,380,150265,1,8,2:0:0:0:
164,364,150592,1,0,0:0:0:0:
223,158,150886,5,0,0:0:0:0:
237,169,151052,2,0,L|426:146,1,181.999985469819
310,33,151552,1,8,2:0:0:0:
296,44,151718,2,0,P|211:75|158:9,1,181.999985469819
86,128,152212,1,8,2:0:0:0:
71,107,152369,1,0,0:0:0:0:
101,292,152843,2,0,P|186:261|239:327,1,181.999985469819,8|0,2:0|0:0,0:0:0:0:
175,379,153317,1,0,0:0:0:0:
218,137,153458,5,8,2:0:0:0:
203,162,153621,2,0,L|226:288,1,90.9999927349095
43,92,154110,2,0,P|107:31|188:88,1,181.999985469819,8|0,2:0|0:0,0:0:0:0:
309,219,154746,1,0,0:0:0:0:
322,236,154903,2,0,L|504:213,1,181.999985469819
443,348,155377,2,0,P|365:311|305:371,1,181.999985469819,8|0,2:0|0:0,0:0:0:0:
428,70,155998,5,0,0:0:0:0:
381,136,156153,1,0,0:0:0:0:
381,136,156308,1,0,0:0:0:0:
381,136,156463,1,0,0:0:0:0:
270,23,156618,1,8,2:0:0:0:
131,155,156928,1,0,0:0:0:0:
8,48,157238,1,0,0:0:0:0:
72,103,157393,1,0,0:0:0:0:
70,108,157548,1,0,0:0:0:0:
68,113,157703,1,0,0:0:0:0:
11,237,157858,2,0,P|100:213|212:205,1,181.999985469819,8|0,2:0|0:0,0:0:0:0:
473,299,158482,5,8,2:0:0:0:
485,313,158650,2,0,L|287:290,1,181.999985469819
19,355,159156,2,0,P|96:329|70:248,1,181.999985469819,8|0,2:0|0:0,0:0:0:0:
142,98,159794,1,0,0:0:0:0:
150,128,159951,2,0,P|58:72|-13:123,1,181.999985469819
262,106,160425,2,0,P|241:209|145:212,1,181.999985469819,8|0,2:0|0:0,0:0:0:0:
423,20,161052,5,0,0:0:0:0:
443,34,161216,2,0,P|424:83|434:138,2,90.9999927349095
485,198,161711,2,0,B|366:194|428:262|300:256,1,181.999985469819,8|0,2:0|0:0,0:0:0:0:
492,345,162348,1,0,0:0:0:0:
499,318,162504,1,0,0:0:0:0:
301,0,162973,2,0,P|333:84|334:192,1,181.999985469819,8|0,2:0|0:0,0:0:0:0:
254,237,163441,1,0,0:0:0:0:
152,165,163590,5,8,2:0:0:0:
165,180,163754,2,0,P|232:134|344:189,1,181.999985469819
154,275,164249,2,0,P|58:307|-2:231,1,181.999985469819,8|0,2:0|0:0,0:0:0:0:
245,384,164872,1,0,0:0:0:0:
227,363,165031,2,0,L|532:326,2,272.999978204728,0|8|0,0:0|2:0|0:0,0:0:0:0:
294,244,166142,5,0,0:0:0:0:
360,195,166299,1,0,0:0:0:0:
356,188,166457,1,0,0:0:0:0:
352,181,166615,1,0,0:0:0:0:
301,76,166773,1,8,2:0:0:0:
99,348,167247,5,0,0:0:0:0:
152,258,167410,1,0,0:0:0:0:
47,57,167873,5,0,0:0:0:0:
208,162,168028,1,8,2:0:0:0:
179,63,168183,1,0,0:0:0:0:
95,149,168337,1,2,2:0:0:0:
107,135,168492,1,0,0:0:0:0:
277,283,168652,6,0,P|343:237|479:151,1,223.999992370606,12|0,2:0|0:0,0:0:0:0:
352,174,169163,1,0,0:0:0:0:
494,320,169333,2,0,P|463:368|407:350,1,111.999996185303,8|0,2:0|0:0,0:0:0:0:
307,276,169674,1,2,2:0:0:0:
107,363,169810,5,8,2:0:0:0:
37,309,169971,2,0,P|80:228|127:151,1,181.999985469819
56,9,170455,1,0,0:0:0:0:
167,268,170616,6,0,P|85:229|0:198,1,181.999985469819,8|2,2:0|2:0,0:0:0:0:
41,113,171094,1,0,0:0:0:0:
185,17,171258,6,0,P|298:159|390:316,1,363.999970939638,0|8,0:0|2:0,0:0:0:0:
390,317,172498,6,0,P|436:361|493:273,1,181.999985469819,8|2,2:0|2:0,0:0:0:0:
315,372,172971,1,0,0:0:0:0:
84,342,173129,2,0,P|154:357|190:367,1,90.9999927349095,8|0,2:0|0:0,0:0:0:0:
48,367,173445,1,2,2:0:0:0:
168,239,173603,1,0,0:0:0:0:
22,22,173750,6,0,P|33:151|46:231,1,181.999985469819,8|2,2:0|2:0,0:0:0:0:
75,82,174239,1,0,0:0:0:0:
161,251,174402,2,0,P|143:315|134:369,1,90.9999927349095,8|0,2:0|0:0,0:0:0:0:
58,255,174728,1,2,2:0:0:0:
267,149,174860,6,0,P|180:148|76:167,1,181.999985469819,8|10,2:0|2:0,0:0:0:0:
261,245,175333,1,0,0:0:0:0:
170,243,175491,1,0,0:0:0:0:
302,333,175649,2,0,P|368:361|435:275,1,181.999985469819,8|0,2:0|0:0,0:0:0:0:
212,362,176123,1,0,0:0:0:0:
358,277,176264,5,8,2:0:0:0:
497,146,176417,2,0,P|382:163|48:246,1,454.999963674547,0|2,0:0|2:0,0:0:0:0:
132,254,177335,1,0,0:0:0:0:
53,8,177500,6,0,P|26:96|-1:188,1,181.999985469819,8|0,2:0|0:0,0:0:0:0:
232,359,177978,5,0,0:0:0:0:
77,313,178129,2,0,P|128:282|175:319,1,90.9999927349095,8|0,2:0|0:0,0:0:0:0:
244,367,178432,1,8,2:0:0:0:
356,359,178584,1,0,0:0:0:0:
62,304,178738,6,0,P|190:277|318:266,1,223.999992370606,4|2,2:0|2:0,0:0:0:0:
202,228,179199,1,0,0:0:0:0:
448,256,179353,2,0,P|469:322|440:362,1,111.999996185303,8|0,2:0|0:0,0:0:0:0:
404,176,179661,1,2,2:0:0:0:
346,334,179840,1,8,2:0:0:0:
444,267,179990,1,0,0:0:0:0:
283,232,180140,2,0,P|224:227|160:230,1,90.9999927349095,10|0,2:0|0:0,0:0:0:0:
350,349,180440,1,0,0:0:0:0:
445,27,180590,2,0,P|408:94|374:221,1,181.999985469819,8|2,2:0|2:0,0:0:0:0:
371,365,181040,1,0,0:0:0:0:
292,261,181200,5,8,2:0:0:0:
384,197,181357,1,0,0:0:0:0:
379,375,181515,2,0,P|408:329|454:288,1,90.9999927349095,2|0,2:0|0:0,0:0:0:0:
265,365,181831,2,0,P|192:314|23:229,1,272.999978204728,8|0,2:0|0:0,0:0:0:0:
256,251,182456,6,0,P|189:304|112:372,1,181.999985469819,8|2,2:0|2:0,0:0:0:0:
181,170,182924,1,0,0:0:0:0:
368,247,183081,2,0,P|361:203|318:172,1,90.9999927349095,8|0,3:0|0:0,0:0:0:0:
303,367,183393,1,10,2:0:0:0:
387,333,183549,1,0,0:0:0:0:
174,312,183698,6,0,P|314:343|388:363,1,181.999985469819,4|2,2:0|2:0,0:0:0:0:
199,375,184176,1,0,0:0:0:0:
3,259,184336,2,0,P|88:300|69:382,1,181.999985469819,8|2,2:0|2:0,0:0:0:0:
152,211,184820,5,8,2:0:0:0:
65,41,184974,1,0,0:0:0:0:
223,121,185129,2,0,P|148:99|94:91,1,90.9999927349095,2|0,2:0|0:0,0:0:0:0:
76,154,185438,1,0,0:0:0:0:
239,118,185593,6,0,P|306:61|406:2,1,181.999985469819,8|2,2:0|2:0,0:0:0:0:
234,59,186047,1,0,0:0:0:0:
494,159,186206,5,0,0:0:0:0:
316,221,186367,1,0,0:0:0:0:
152,353,186528,1,2,2:0:0:0:
245,322,186689,1,0,0:0:0:0:
35,254,186851,2,0,P|57:335|65:369,1,90.9999927349095,8|0,2:0|0:0,0:0:0:0:
56,353,187173,2,0,P|84:286|101:254,1,90.9999927349095,2|0,2:0|0:0,0:0:0:0:
184,36,187476,5,8,2:0:0:0:
232,336,187633,2,0,P|222:263|186:124,1,181.999985469819
14,29,188107,5,8,2:0:0:0:
103,242,188268,2,0,P|64:330|55:360,1,90.9999927349095,0|10,0:0|2:0,0:0:0:0:
215,171,188590,1,0,0:0:0:0:
417,357,188744,5,4,2:0:0:0:
48,150,189123,1,0,0:0:0:0:
365,32,189456,1,8,2:0:0:0:
346,45,189628,2,0,B|385:94|385:94|371:157|371:157|421:221,1,181.999985469819
496,152,190130,5,4,2:0:0:0:
144,356,190474,1,0,0:0:0:0:
175,20,190788,1,8,2:0:0:0:
192,39,190954,2,0,B|173:67|173:67|168:98|168:98|177:135,1,90.9999927349095
286,151,191472,5,4,2:0:0:0:
5,12,191804,1,0,0:0:0:0:
33,340,192136,1,8,2:0:0:0:
44,321,192303,2,0,B|65:271|65:271|51:175,1,135.799998586502
168,287,192777,5,8,2:0:0:0:
237,187,192939,1,0,0:0:0:0:
338,261,193101,1,2,2:0:0:0:
251,266,193262,1,0,0:0:0:0:
356,156,193423,5,8,3:0:0:0:
334,286,193585,1,0,0:0:0:0:
508,224,193747,1,10,2:0:0:0:
437,55,193909,1,0,0:0:0:0:
494,243,194078,5,0,0:0:0:0:
173,346,194412,1,0,0:0:0:0:
263,34,194746,1,8,2:0:0:0:
263,51,194913,2,0,B|293:83|293:83|394:124|394:124|433:128|404:103,1,195.999987342835
129,96,195415,5,4,2:0:0:0:
387,322,195752,1,0,0:0:0:0:
20,361,196089,1,8,2:0:0:0:
45,344,196257,2,0,B|50:294|50:294|19:258|19:258|45:229|45:229|32:156|7:203,1,210.000000858307
262,317,196763,5,4,2:0:0:0:
139,40,197096,2,0,L|114:125,1,69.9999976158143
430,114,197429,1,8,2:0:0:0:
443,130,197596,2,0,B|369:128|369:128|308:174|308:174|288:189|307:218,1,195.999987342835
459,261,198088,5,8,2:0:0:0:
342,357,198247,1,0,0:0:0:0:
304,238,198407,1,2,2:0:0:0:
377,281,198566,1,0,0:0:0:0:
237,138,198726,6,0,P|220:182|214:250,1,97.9999936714175,8|0,3:0|0:0,0:0:0:0:
131,340,199045,2,0,P|124:291|107:245,1,97.9999936714175,10|0,2:0|0:0,0:0:0:0:
471,356,199372,5,0,0:0:0:0:
303,50,199713,1,0,0:0:0:0:
42,303,200055,1,8,2:0:0:0:
42,303,200226,1,0,0:0:0:0:
2,217,200568,1,0,0:0:0:0:
395,373,200720,5,4,2:0:0:0:
52,149,201060,1,0,0:0:0:0:
385,24,201401,1,8,2:0:0:0:
385,24,201572,1,0,0:0:0:0:
433,98,201913,1,0,0:0:0:0:
224,369,202088,5,4,2:0:0:0:
81,57,202417,1,0,0:0:0:0:
455,220,202747,1,8,2:0:0:0:
445,233,202892,2,0,B|381:248|381:248|368:246|368:246|302:259|302:259|320:273|346:268,1,167.999989151001
208,151,203384,1,8,2:0:0:0:
186,176,203540,6,0,L|229:397,1,195.999987342835
0,239,204009,1,8,3:0:0:0:
78,172,204165,1,0,0:0:0:0:
455,339,204477,1,0,0:0:0:0:
425,320,204646,6,0,P|442:271|520:240,1,105.000000429154,4|0,2:0|0:0,0:0:0:0:
191,137,204988,2,0,P|241:127|307:179,1,105.000000429154,2|0,0:2|0:0,0:0:0:0:
459,17,205331,1,8,2:0:0:0:
424,22,205503,2,0,B|388:77|388:77|404:201|383:228|373:176,1,210.000000858307
94,108,206016,6,0,B|44:88|44:88|17:20,1,105.000000429154,4|0,2:0|0:0,0:0:0:0:
177,233,206353,2,0,B|134:266|134:266|62:255,1,105.000000429154,2|0,0:2|0:0,0:0:0:0:
306,384,206690,1,8,2:0:0:0:
291,370,206858,2,0,B|211:352|211:352|172:350|172:350|60:337,1,210.000000858307
309,67,207350,6,0,L|294:198,1,105.000000429154,4|0,2:0|0:0,0:0:0:0:
483,261,207683,2,0,L|495:129,1,105.000000429154,2|0,0:2|0:0,0:0:0:0:
180,234,208016,1,8,2:0:0:0:
166,223,208183,2,0,B|154:188|149:175|202:137,1,105.000000429154
16,35,208668,5,8,2:0:0:0:
101,101,208827,1,8,2:0:0:0:
197,35,208987,1,2,2:0:0:0:
110,16,209146,1,0,0:0:0:0:
139,231,209306,5,8,2:0:0:0:
258,228,209471,1,8,2:0:0:0:
289,128,209637,1,10,2:0:0:0:
210,152,209803,1,0,0:0:0:0:
311,305,209968,5,12,2:0:0:0:
256,192,210134,12,0,220576,0:0:0:0:
66,37,221158,6,0,L|127:368,1,315.000001287461,4|0,2:0|0:0,0:0:0:0:
156,51,221855,2,0,L|100:287,1,210.000000858307,8|2,2:0|2:0,0:0:0:0:
38,375,222324,6,0,L|13:254,1,105.000000429154
134,353,222650,1,0,0:0:0:0:
107,255,222813,1,2,2:0:0:0:
37,374,222976,1,0,0:0:0:0:
211,240,223139,2,0,L|513:333,1,315.000001287461,8|0,2:0|0:0,0:0:0:0:
238,380,223778,6,0,L|127:345,1,105.000000429154
506,326,224097,2,0,P|389:351|271:383,1,210.000000858307,2|8,2:0|2:0,0:0:0:0:
59,348,224575,2,0,P|81:285|127:281,1,105.000000429154,0|2,0:0|2:0,0:0:0:0:
299,370,224895,1,0,0:0:0:0:
207,226,225022,6,0,P|335:265|511:333,1,315.000001287461,8|0,2:0|0:0,0:0:0:0:
140,342,225647,2,0,L|29:374,1,105.000000429154,8|0,2:0|0:0,0:0:0:0:
273,371,225959,1,10,2:0:0:0:
267,359,226115,1,0,0:0:0:0:
167,99,226280,6,0,L|498:208,1,335.999988555908
112,205,226925,2,0,P|76:257|105:306,1,111.999996185303,8|0,2:0|0:0,0:0:0:0:
212,229,227247,1,2,2:0:0:0:
21,33,227388,5,0,0:0:0:0:
39,133,227544,1,2,2:0:0:0:
291,124,227700,1,0,0:0:0:0:
201,216,227856,1,0,0:0:0:0:
166,83,228013,1,0,0:0:0:0:
67,323,228169,6,0,P|83:260|105:185,1,105.000000429154,8|0,2:0|0:0,0:0:0:0:
363,237,228488,2,0,P|344:308|332:367,1,105.000000429154,2|0,2:0|0:0,0:0:0:0:
258,5,228796,1,4,2:0:0:0:
228,206,228949,2,0,P|245:149|268:100,1,105.000000429154,0|2,0:0|2:0,0:0:0:0:
201,348,229257,1,0,0:0:0:0:
45,279,229411,2,0,P|88:321|71:354,1,105.000000429154,8|0,2:0|0:0,0:0:0:0:
142,220,229719,1,2,2:0:0:0:
32,32,229866,5,0,0:0:0:0:
381,31,230022,2,0,P|240:59|133:88,1,210.000000858307,8|2,2:0|2:0,0:0:0:0:
136,236,230494,2,0,L|28:195,1,105.000000429154,0|8,0:0|3:0,0:0:0:0:
245,166,230831,1,8,2:0:0:0:
294,355,230999,1,10,2:0:0:0:
370,340,231128,1,0,0:0:0:0:
512,324,231287,6,0,L|301:263,1,210.000000858307,4|2,2:0|2:0,0:0:0:0:
457,256,231755,1,0,0:0:0:0:
450,42,231912,2,0,P|415:82|427:141,1,105.000000429154,8|0,2:0|0:0,0:0:0:0:
468,246,232224,1,2,2:0:0:0:
135,272,232390,6,0,L|25:308,1,105.000000429154,8|0,2:0|0:0,0:0:0:0:
237,237,232687,1,8,2:0:0:0:
24,296,232984,1,0,0:0:0:0:
258,148,233132,2,0,L|212:368,1,210.000000858307,8|0,2:0|0:0,0:0:0:0:
125,266,233600,1,0,0:0:0:0:
221,370,233757,5,8,2:0:0:0:
0,237,233913,2,0,P|219:287|512:356,1,525.000002145768,0|2,0:0|2:0,0:0:0:0:
386,280,234842,5,0,0:0:0:0:
0,384,234995,2,0,P|110:369|222:355,1,210.000000858307,8|2,2:0|2:0,0:0:0:0:
409,167,235457,1,0,0:0:0:0:
277,282,235611,6,0,P|315:333|304:369,1,105.000000429154,8|0,2:0|0:0,0:0:0:0:
176,238,235933,1,2,2:0:0:0:
198,368,236094,1,0,0:0:0:0:
45,307,236256,6,0,P|121:290|288:269,1,210.000000858307,12|2,2:0|2:0,0:0:0:0:
491,196,236676,1,0,0:0:0:0:
512,363,236816,2,0,P|436:351|290:301,1,210.000000858307,8|2,2:0|2:0,0:0:0:0:
50,362,237276,5,0,0:0:0:0:
2,251,237424,1,0,0:0:0:0:
85,279,237573,1,2,2:0:0:0:
70,125,237721,1,0,0:0:0:0:
34,364,237870,1,0,0:0:0:0:
230,250,238028,6,0,P|315:236|455:219,1,210.000000858307,8|2,2:0|2:0,0:0:0:0:
273,193,238473,1,0,0:0:0:0:
165,364,238622,2,0,P|153:344|134:313,3,52.5000002145768,8|0|0|0,2:0|0:0|0:0|0:0,0:0:0:0:
101,295,238919,2,0,L|118:227,1,52.5000002145768,2|0,2:0|0:0,0:0:0:0:
12,334,239072,6,0,L|42:385,3,52.5000002145768,8|0|0|0,2:0|0:0|0:0|0:0,0:0:0:0:
32,215,239375,1,2,2:0:0:0:
22,202,239450,1,0,0:0:0:0:
9,186,239526,2,0,P|10:157|33:135,1,52.5000002145768,8|0,2:0|0:0,0:0:0:0:
63,66,239678,2,0,P|58:37|32:26,1,52.5000002145768
118,137,239829,2,0,L|173:142,1,52.5000002145768,2|0,2:0|0:0,0:0:0:0:
256,179,239954,6,0,L|318:165,6,52.5000002145768,8|8|8|8|8|8|8,2:0|2:0|2:0|2:0|2:0|2:0|2:0,0:0:0:0:
401,281,240452,2,0,L|339:274,3,52.5000002145768
204,312,240746,1,0,0:0:0:0:
199,291,240819,1,0,0:0:0:0:
193,273,240893,2,0,L|122:258,1,52.5000002145768
53,333,241040,6,0,P|157:319|272:377,1,223.999992370606,12|2,2:0|2:0,0:0:0:0:
367,284,241513,1,0,0:0:0:0:
276,84,241671,2,0,L|292:219,1,111.999996185303,8|0,2:0|0:0,0:0:0:0:
186,22,241987,1,8,2:0:0:0:
118,103,242126,2,0,P|62:82|9:120,1,111.999996185303,8|0,2:0|0:0,0:0:0:0:
118,289,242441,1,8,2:0:0:0:
178,209,242599,2,0,P|239:200|313:193,1,111.999996185303
512,345,242915,2,0,P|361:320|158:295,1,335.999988555908,8|0,2:0|0:0,0:0:0:0:
501,108,243510,6,0,P|454:82|390:125,1,111.999996185303
371,186,243813,2,0,P|424:208|486:172,1,111.999996185303,2|0,2:0|0:0,0:0:0:0:
296,52,244116,1,8,2:0:0:0:
106,369,244408,1,2,2:0:0:0:
35,39,244711,1,8,2:0:0:0:
92,109,244862,1,0,0:0:0:0:
275,33,245014,1,0,0:0:0:0:
258,45,245317,5,8,2:0:0:0:
371,183,245468,1,0,0:0:0:0:
293,253,245620,1,2,2:0:0:0:
354,171,245771,1,0,0:0:0:0:
441,361,245938,6,0,P|457:299|483:243,1,111.999996185303,12|0,2:0|0:0,0:0:0:0:
216,308,246245,1,2,2:0:0:0:
289,364,246399,1,0,0:0:0:0:
239,182,246553,2,0,P|103:206|69:124,1,223.999992370606,8|2,2:0|2:0,0:0:0:0:
190,1,247016,1,8,2:0:0:0:
169,10,247170,2,0,L|178:133,2,111.999996185303,0|10|0,0:0|2:0|0:0,0:0:0:0:
69,148,247634,1,0,0:0:0:0:
232,338,247798,2,0,L|-5:286,1,223.999992370606,8|2,2:0|2:0,0:0:0:0:
352,263,248392,5,8,2:0:0:0:
261,184,248701,1,2,2:0:0:0:
499,8,249010,1,8,2:0:0:0:
493,133,249165,2,0,L|476:23,1,111.999996185303,0|2,0:0|2:0,0:0:0:0:
414,182,249474,1,0,0:0:0:0:
119,43,249642,1,8,2:0:0:0:
210,109,249790,1,0,0:0:0:0:
199,81,249939,1,2,2:0:0:0:
136,321,250100,1,0,0:0:0:0:
168,215,250244,1,8,3:0:0:0:
485,327,250556,1,10,2:0:0:0:
408,376,250717,1,0,0:0:0:0:
334,310,250878,6,0,P|369:251|441:225,1,111.999996185303,12|0,2:0|0:0,0:0:0:0:
512,114,251193,1,2,2:0:0:0:
448,45,251351,1,0,0:0:0:0:
322,151,251509,2,0,L|96:127,1,223.999992370606,8|2,2:0|2:0,0:0:0:0:
154,288,251996,2,0,P|208:274|260:320,2,111.999996185303,8|0|8,2:0|0:0|2:0,0:0:0:0:
6,116,252578,1,0,0:0:0:0:
266,325,252722,2,0,L|40:349,1,223.999992370606,8|2,2:0|2:0,0:0:0:0:
500,307,253328,5,0,0:0:0:0:
360,124,253634,1,2,2:0:0:0:
376,133,253787,2,0,L|143:156,1,223.999992370606
61,164,254246,1,2,2:0:0:0:
11,92,254399,1,0,0:0:0:0:
220,36,254552,1,8,2:0:0:0:
137,26,254699,1,0,0:0:0:0:
457,203,254995,1,8,2:0:0:0:
490,123,255143,1,0,0:0:0:0:
232,369,255438,1,8,3:0:0:0:
137,26,255746,5,12,2:0:0:0:
275,223,255897,1,0,0:0:0:0:
114,122,256049,1,2,2:0:0:0:
429,54,256353,2,0,P|323:95|209:166,1,223.999992370606,8|2,2:0|2:0,0:0:0:0:
479,363,256961,1,0,0:0:0:0:
456,342,257113,2,0,L|505:114,1,223.999992370606,8|0,2:0|0:0,0:0:0:0:
143,217,257568,2,0,P|250:260|375:244,1,223.999992370606,8|2,2:0|2:0,0:0:0:0:
253,122,258176,5,8,2:0:0:0:
138,358,258327,1,0,0:0:0:0:
70,304,258479,1,2,2:0:0:0:
61,319,258630,1,0,0:0:0:0:
40,83,258782,1,8,2:0:0:0:
291,296,259085,5,2,2:0:0:0:
272,277,259236,1,0,0:0:0:0:
419,18,259414,2,0,L|368:258,1,223.999992370606,8|0,2:0|0:0,0:0:0:0:
512,322,259859,1,8,2:0:0:0:
338,384,260008,1,0,0:0:0:0:
369,253,260156,1,0,0:0:0:0:
251,32,260305,1,12,2:0:0:0:
292,109,260453,1,0,0:0:0:0:
29,288,260618,6,0,P|76:362|169:323,1,195.999987342835,12|2,2:0|2:0,0:0:0:0:
83,206,261091,1,0,0:0:0:0:
277,258,261249,2,0,P|259:327|255:366,1,97.9999936714175,8|0,2:0|0:0,0:0:0:0:
157,347,261565,1,2,2:0:0:0:
214,184,261730,5,8,2:0:0:0:
21,282,261868,2,0,P|75:307|114:283,1,97.9999936714175,0|8,0:0|2:0,0:0:0:0:
23,157,262146,1,0,0:0:0:0:
149,359,262285,1,2,2:0:0:0:
478,226,262466,6,0,P|392:270|291:333,1,195.999987342835,8|2,2:0|2:0,0:0:0:0:
447,298,262925,1,0,0:0:0:0:
491,137,263078,1,8,2:0:0:0:
394,190,263231,1,0,0:0:0:0:
394,62,263384,2,0,L|11:144,1,391.99997468567,2|2,2:0|2:0,0:0:0:0:
74,82,264149,1,0,0:0:0:0:
140,147,264302,1,8,2:0:0:0:
56,313,264438,6,0,P|59:232|68:201,1,97.9999936714175,0|2,0:0|2:0,0:0:0:0:
65,66,264744,1,0,0:0:0:0:
147,152,264897,2,0,P|206:136|253:122,1,97.9999936714175,8|0,3:0|0:0,0:0:0:0:
5,138,265194,1,10,2:0:0:0:
139,245,265342,1,0,0:0:0:0:
329,42,265500,6,0,P|345:157|355:245,1,195.999987342835,12|2,2:0|2:0,0:0:0:0:
383,154,265963,1,0,0:0:0:0:
272,248,266118,2,0,P|260:314|251:379,1,97.9999936714175,8|0,2:0|0:0,0:0:0:0:
461,256,266418,5,8,2:0:0:0:
450,351,266566,1,0,0:0:0:0:
267,120,266892,1,0,0:0:0:0:
224,28,267036,2,0,P|276:25|346:29,1,97.9999936714175,2|0,2:0|0:0,0:0:0:0:
230,226,267324,6,0,P|166:218|-13:210,1,195.999987342835,8|2,2:0|2:0,0:0:0:0:
175,165,267797,1,0,0:0:0:0:
109,254,267948,1,8,2:0:0:0:
53,57,268093,2,0,P|238:80|467:115,1,391.99997468567
352,46,268821,1,2,2:0:0:0:
358,157,268974,5,0,0:0:0:0:
138,77,269133,2,0,P|193:68|258:66,1,97.9999936714175,8|0,2:0|0:0,0:0:0:0:
249,268,269452,2,0,L|26:234,1,195.999987342835,8|2,2:0|2:0,0:0:0:0:
177,214,269915,1,0,0:0:0:0:
102,373,270070,1,8,2:0:0:0:
38,246,270225,1,0,0:0:0:0:
236,368,270379,6,0,P|298:343|430:301,1,195.999987342835,0|2,0:0|2:0,0:0:0:0:
279,300,270815,1,0,0:0:0:0:
82,230,270966,6,0,P|53:163|148:92,1,195.999987342835,8|2,2:0|2:0,0:0:0:0:
229,157,271429,2,0,L|116:172,1,97.9999936714175,8|0,2:0|0:0,0:0:0:0:
232,61,271739,2,0,P|298:65|336:70,1,97.9999936714175,8|2,2:0|2:0,0:0:0:0:
164,10,272048,1,0,0:0:0:0:
237,164,272178,6,0,P|230:240|226:293,1,97.9999936714175,8|0,2:0|0:0,0:0:0:0:
50,365,272484,1,8,2:0:0:0:
3,219,272637,1,0,0:0:0:0:
114,288,272790,5,8,2:0:0:0:
94,273,273093,2,0,P|204:293|500:349,1,391.99997468567,2|2,2:0|2:0,0:0:0:0:
398,282,273850,1,0,0:0:0:0:
336,354,274002,1,8,2:0:0:0:
489,345,274153,5,0,0:0:0:0:
99,336,274447,1,0,0:0:0:0:
181,282,274594,1,8,3:0:0:0:
104,99,274748,2,0,P|92:192|93:216,2,97.9999936714175,0|0|2,0:0|0:0|2:0,0:0:0:0:
23,17,275236,5,8,2:0:0:0:
257,103,275540,2,0,P|352:49|414:34,2,139.999995231629,2|8|2,2:0|2:0|2:0,0:0:0:0:
168,184,276298,6,0,P|138:176|113:125,1,69.9999976158143
184,171,276610,1,0,0:0:0:0:
169,329,276923,1,2,2:0:0:0:
244,289,277079,5,8,2:0:0:0:
324,353,277235,1,0,0:0:0:0:
432,288,277391,1,2,2:0:0:0:
494,330,277547,2,0,P|505:361|492:385,1,48.9999968357087
480,363,277704,6,0,P|483:249|491:144,1,209.999992847443,8|0,2:0|0:0,0:0:0:0:
436,212,278280,1,8,2:0:0:0:
314,38,278600,1,8,2:0:0:0:
135,153,279041,1,0,0:0:0:0:
135,153,279188,1,8,3:0:0:0:
37,84,279502,1,8,2:0:0:0:
129,19,279656,2,0,P|141:14|165:39,2,48.9999968357087,0|0|10,0:0|0:0|2:0,0:0:0:0:
256,192,280120,12,0,299295,0:0:0:0:
