osu file format v14

[General]
AudioFilename: audio.ogg
AudioLeadIn: 0
PreviewTime: 49928
Countdown: 0
SampleSet: Normal
StackLeniency: 0.7
Mode: 1
LetterboxInBreaks: 0
WidescreenStoryboard: 1

[Editor]
Bookmarks: 1005,2851,17620,32389,36082,49928,50851,65620,80389,93312,95158,108082
DistanceSpacing: 0.4
BeatDivisor: 4
GridSize: 32
TimelineZoom: 1.4

[Metadata]
Title:Anarchy Rainbow
TitleUnicode:蛮殻ミックスモダン
Artist:Deep Cut
ArtistUnicode:すりみ連合
Creator:aceticke
Version:Kantan
Source:Splatoon 3
Tags:inkling inklish other japanese folk pop jpop j-pop video game surimi rengo rengou frye shiver big man フウカ fuuka ウツホ utsuho マンタロー mantaro- bankara mix modern splatfest フェス スプラトゥーン Splatune Nintendo
BeatmapID:3752163
BeatmapSetID:1827171

[Difficulty]
HPDrainRate:9
CircleSize:2
OverallDifficulty:2
ApproachRate:10
SliderMultiplier:1.4
SliderTickRate:1

[Events]
//Background and Video events
0,0,"wtfitsdeepcut.jpg",0,100
Video,900,"pegi7.mp4"
//Break Periods
//Storyboard Layer 0 (Background)
//Storyboard Layer 1 (Fail)
//Storyboard Layer 2 (Pass)
//Storyboard Layer 3 (Foreground)
//Storyboard Layer 4 (Overlay)
//Storyboard Sound Samples

[TimingPoints]
1005,461.538461538462,4,1,0,80,1,0
2851,461.538461538462,4,1,0,80,1,0
36082,461.538461538462,4,1,0,80,1,0
49928,-96.8054211035818,4,1,0,80,0,0
50389,-93.8086303939962,4,1,0,80,0,0
50851,-83.3333333333333,4,1,0,80,0,1
51197,-90.9090909090909,4,1,0,80,0,1
65620,-83.3333333333333,4,1,0,80,0,1
65851,-90.9090909090909,4,1,0,80,0,1
80389,-83.3333333333333,4,1,0,80,0,0
80735,-100,4,1,0,80,0,0
104389,-100,4,1,0,60,0,0
105543,-100,4,1,0,40,0,0
107158,-100,4,1,0,20,0,0
108082,-100,4,1,0,5,0,0

[HitObjects]
256,192,1005,5,8,0:0:0:0:
256,192,1928,1,0,0:0:0:0:
256,192,2389,1,8,0:0:0:0:
256,192,2851,1,4,0:0:0:0:
256,192,3774,1,8,0:0:0:0:
256,192,4697,1,8,0:0:0:0:
256,192,5158,1,0,0:0:0:0:
256,192,5620,1,8,0:0:0:0:
256,192,6543,1,0,0:0:0:0:
256,192,7466,1,8,0:0:0:0:
256,192,8389,1,0,0:0:0:0:
256,192,8851,1,8,0:0:0:0:
256,192,9312,1,0,0:0:0:0:
256,192,10235,1,8,0:0:0:0:
256,192,11158,1,0,0:0:0:0:
256,192,12081,1,8,0:0:0:0:
256,192,12543,1,0,0:0:0:0:
256,192,13005,1,8,0:0:0:0:
256,192,13928,1,0,0:0:0:0:
256,192,14851,1,8,0:0:0:0:
256,192,15774,1,0,0:0:0:0:
256,192,17620,1,4,0:0:0:0:
256,192,18543,1,8,0:0:0:0:
256,192,19466,1,8,0:0:0:0:
256,192,19928,1,0,0:0:0:0:
256,192,20389,1,8,0:0:0:0:
256,192,21312,1,8,0:0:0:0:
256,192,23158,1,8,0:0:0:0:
256,192,24081,1,0,0:0:0:0:
256,192,24543,1,0,0:0:0:0:
256,192,25005,1,8,0:0:0:0:
256,192,25928,1,8,0:0:0:0:
256,192,26851,1,0,0:0:0:0:
256,192,27312,1,8,0:0:0:0:
256,192,27774,1,0,0:0:0:0:
256,192,28697,1,8,0:0:0:0:
256,192,29620,1,8,0:0:0:0:
256,192,30081,1,8,0:0:0:0:
256,192,30543,1,0,0:0:0:0:
256,192,31466,1,8,0:0:0:0:
256,192,31928,1,0,0:0:0:0:
256,192,32389,1,8,0:0:0:0:
256,192,33312,1,0,0:0:0:0:
256,192,34235,1,8,0:0:0:0:
256,192,34697,1,0,0:0:0:0:
256,192,35158,1,0,0:0:0:0:
256,192,36081,1,12,0:0:0:0:
256,192,37005,1,8,0:0:0:0:
256,192,37928,1,8,0:0:0:0:
256,192,38389,1,0,0:0:0:0:
256,192,39774,1,8,0:0:0:0:
256,192,40235,1,0,0:0:0:0:
256,192,40697,1,8,0:0:0:0:
256,192,41620,1,8,0:0:0:0:
256,192,42081,1,0,0:0:0:0:
256,192,42543,1,8,0:0:0:0:
256,192,43466,1,8,0:0:0:0:
256,192,43928,1,8,0:0:0:0:
256,192,44389,1,0,0:0:0:0:
256,192,45312,1,8,0:0:0:0:
256,192,45774,1,0,0:0:0:0:
256,192,46235,1,8,0:0:0:0:
256,192,47158,1,8,0:0:0:0:
256,192,48081,1,8,0:0:0:0:
256,192,49005,1,0,0:0:0:0:
256,192,49466,1,0,0:0:0:0:
256,192,49928,1,8,0:0:0:0:
256,192,50389,1,0,0:0:0:0:
256,192,50851,1,12,0:0:0:0:
256,192,51774,1,8,0:0:0:0:
256,192,52235,1,0,0:0:0:0:
256,192,52697,1,8,0:0:0:0:
256,192,53620,1,0,0:0:0:0:
256,192,54081,1,0,0:0:0:0:
256,192,54543,1,8,0:0:0:0:
256,192,55466,1,8,0:0:0:0:
256,192,55928,1,0,0:0:0:0:
256,192,56389,1,0,0:0:0:0:
256,192,57312,1,8,0:0:0:0:
256,192,57774,1,0,0:0:0:0:
256,192,58235,1,8,0:0:0:0:
256,192,59158,1,8,0:0:0:0:
256,192,59620,1,0,0:0:0:0:
256,192,60081,1,0,0:0:0:0:
256,192,61005,1,0,0:0:0:0:
256,192,61466,1,8,0:0:0:0:
256,192,61928,1,8,0:0:0:0:
256,192,62851,1,8,0:0:0:0:
256,192,63312,1,0,0:0:0:0:
256,192,63774,1,0,0:0:0:0:
256,192,64697,1,0,0:0:0:0:
256,192,65158,1,0,0:0:0:0:
256,192,65620,1,12,0:0:0:0:
256,192,66543,1,0,0:0:0:0:
256,192,67466,1,8,0:0:0:0:
256,192,67928,1,0,0:0:0:0:
256,192,68389,1,0,0:0:0:0:
256,192,68851,1,8,0:0:0:0:
256,192,69312,1,0,0:0:0:0:
256,192,70235,1,8,0:0:0:0:
256,192,70697,1,8,0:0:0:0:
256,192,71158,1,0,0:0:0:0:
256,192,72081,1,8,0:0:0:0:
256,192,72543,1,0,0:0:0:0:
256,192,73005,1,0,0:0:0:0:
256,192,73928,1,8,0:0:0:0:
256,192,74389,1,0,0:0:0:0:
256,192,74851,1,8,0:0:0:0:
256,192,75774,1,0,0:0:0:0:
256,192,76235,1,0,0:0:0:0:
256,192,76697,1,8,0:0:0:0:
256,192,77158,1,0,0:0:0:0:
256,192,77620,1,8,0:0:0:0:
256,192,78081,1,0,0:0:0:0:
256,192,78543,1,8,0:0:0:0:
256,192,79928,1,0,0:0:0:0:
256,192,80389,1,12,0:0:0:0:
256,192,81312,1,8,0:0:0:0:
256,192,82235,1,0,0:0:0:0:
256,192,83158,1,8,0:0:0:0:
256,192,84081,1,0,0:0:0:0:
256,192,85005,1,8,0:0:0:0:
256,192,85928,1,0,0:0:0:0:
256,192,86851,1,8,0:0:0:0:
256,192,87774,1,0,0:0:0:0:
256,192,88697,1,0,0:0:0:0:
256,192,89158,1,0,0:0:0:0:
256,192,89620,1,8,0:0:0:0:
256,192,90543,1,8,0:0:0:0:
256,192,91466,1,0,0:0:0:0:
256,192,92389,1,8,0:0:0:0:
256,192,93312,1,8,0:0:0:0:
256,192,94235,1,0,0:0:0:0:
256,192,94697,1,8,0:0:0:0:
256,192,95158,1,4,0:0:0:0:
256,192,96081,1,8,0:0:0:0:
256,192,97005,1,8,0:0:0:0:
256,192,97466,1,0,0:0:0:0:
256,192,97928,1,8,0:0:0:0:
256,192,98851,1,0,0:0:0:0:
256,192,99774,1,8,0:0:0:0:
256,192,100697,1,0,0:0:0:0:
256,192,101158,1,8,0:0:0:0:
256,192,101620,1,0,0:0:0:0:
256,192,102543,1,8,0:0:0:0:
256,192,103466,1,0,0:0:0:0:
256,192,104389,1,8,0:0:0:0:
256,192,104851,1,0,0:0:0:0:
256,192,105312,1,8,0:0:0:0:
256,192,106235,1,0,0:0:0:0:
256,192,106466,8,0,108081,0:0:0:0:
