osu file format v14

[General]
AudioFilename: audio.ogg
AudioLeadIn: 0
PreviewTime: 49928
Countdown: 0
SampleSet: Normal
StackLeniency: 0.7
Mode: 1
LetterboxInBreaks: 0
WidescreenStoryboard: 0

[Editor]
Bookmarks: 1005,2851,17620,32389,36082,49928,50851,65620,80389,93312,95158,108082
DistanceSpacing: 0.4
BeatDivisor: 4
GridSize: 32
TimelineZoom: 1.4

[Metadata]
Title:Anarchy Rainbow
TitleUnicode:蛮殻ミックスモダン
Artist:Deep Cut
ArtistUnicode:すりみ連合
Creator:aceticke
Version:Festival
Source:Splatoon 3
Tags:inkling inklish other japanese folk pop jpop j-pop video game surimi rengo rengou frye shiver big man フウカ fuuka ウツホ utsuho マンタロー mantaro- bankara mix modern splatfest フェス スプラトゥーン Splatune Nintendo
BeatmapID:3749787
BeatmapSetID:1827171

[Difficulty]
HPDrainRate:6
CircleSize:2
OverallDifficulty:5
ApproachRate:10
SliderMultiplier:1.4
SliderTickRate:1

[Events]
//Background and Video events
0,0,"wtfitsdeepcut.jpg",0,100
Video,900,"pegi7.mp4"
//Break Periods
//Storyboard Layer 0 (Background)
//Storyboard Layer 1 (Fail)
//Storyboard Layer 2 (Pass)
//Storyboard Layer 3 (Foreground)
//Storyboard Layer 4 (Overlay)
//Storyboard Sound Samples

[TimingPoints]
1005,461.538461538462,4,1,0,80,1,0
2851,461.538461538462,4,1,0,80,1,0
36082,461.538461538462,4,1,0,80,1,0
49928,-96.7719396310788,4,1,0,80,0,0
50274,-94.4876517942421,4,1,0,80,0,0
50389,-93.7521153455628,4,1,0,80,0,0
50620,-92.3087176752866,4,1,0,80,0,0
50851,-83.3333333333333,4,1,0,80,0,1
51197,-90.9090909090909,4,1,0,80,0,1
65620,-83.3333333333333,4,1,0,80,0,1
65851,-90.9090909090909,4,1,0,80,0,1
80389,-83.3333333333333,4,1,0,80,0,0
80735,-100,4,1,0,80,0,0
104389,-100,4,1,0,60,0,0
105543,-100,4,1,0,40,0,0
107158,-100,4,1,0,20,0,0
108082,-100,4,1,0,5,0,0

[HitObjects]
256,192,1005,5,8,0:0:0:0:
256,192,1158,1,0,0:0:0:0:
256,192,1312,1,0,0:0:0:0:
256,192,1466,1,8,0:0:0:0:
256,192,1620,1,0,0:0:0:0:
256,192,1774,1,0,0:0:0:0:
256,192,1928,1,8,0:0:0:0:
256,192,2274,1,0,0:0:0:0:
256,192,2331,1,0,0:0:0:0:
256,192,2389,1,8,0:0:0:0:
256,192,2620,1,8,0:0:0:0:
256,192,2851,1,4,0:0:0:0:
256,192,3081,1,8,0:0:0:0:
256,192,3312,1,0,0:0:0:0:
256,192,3428,1,0,0:0:0:0:
256,192,3543,1,8,0:0:0:0:
256,192,3774,1,8,0:0:0:0:
256,192,4120,1,0,0:0:0:0:
256,192,4235,1,8,0:0:0:0:
256,192,4466,1,0,0:0:0:0:
256,192,4697,1,8,0:0:0:0:
256,192,4928,1,0,0:0:0:0:
256,192,5043,1,8,0:0:0:0:
256,192,5158,1,0,0:0:0:0:
256,192,5389,1,8,0:0:0:0:
256,192,5620,1,8,0:0:0:0:
256,192,5851,1,8,0:0:0:0:
256,192,5966,1,0,0:0:0:0:
256,192,6081,1,0,0:0:0:0:
256,192,6312,1,8,0:0:0:0:
256,192,6543,1,0,0:0:0:0:
256,192,6774,1,8,0:0:0:0:
256,192,6889,1,0,0:0:0:0:
256,192,7005,1,8,0:0:0:0:
256,192,7235,1,0,0:0:0:0:
256,192,7466,1,8,0:0:0:0:
256,192,7812,1,8,0:0:0:0:
256,192,7928,1,0,0:0:0:0:
256,192,8158,1,8,0:0:0:0:
256,192,8389,1,0,0:0:0:0:
256,192,8620,1,8,0:0:0:0:
256,192,8851,1,8,0:0:0:0:
256,192,8908,1,8,0:0:0:0:
256,192,8966,1,8,0:0:0:0:
256,192,9081,1,8,0:0:0:0:
256,192,9312,1,0,0:0:0:0:
256,192,9543,1,8,0:0:0:0:
256,192,9774,1,8,0:0:0:0:
256,192,9831,1,8,0:0:0:0:
256,192,9889,1,8,0:0:0:0:
256,192,10235,1,0,0:0:0:0:
256,192,10466,1,0,0:0:0:0:
256,192,10581,1,8,0:0:0:0:
256,192,10697,1,8,0:0:0:0:
256,192,10928,1,0,0:0:0:0:
256,192,11158,1,8,0:0:0:0:
256,192,11505,1,0,0:0:0:0:
256,192,11620,1,8,0:0:0:0:
256,192,11851,1,8,0:0:0:0:
256,192,12081,1,0,0:0:0:0:
256,192,12312,1,0,0:0:0:0:
256,192,12427,1,0,0:0:0:0:
256,192,12543,1,8,0:0:0:0:
256,192,12774,1,0,0:0:0:0:
256,192,13005,1,8,0:0:0:0:
256,192,13235,1,0,0:0:0:0:
256,192,13351,1,8,0:0:0:0:
256,192,13466,1,8,0:0:0:0:
256,192,13697,1,0,0:0:0:0:
256,192,13928,1,8,0:0:0:0:
256,192,14158,1,0,0:0:0:0:
256,192,14274,1,0,0:0:0:0:
256,192,14389,1,8,0:0:0:0:
256,192,14620,1,0,0:0:0:0:
256,192,14851,1,8,0:0:0:0:
256,192,15197,1,8,0:0:0:0:
256,192,15312,1,0,0:0:0:0:
256,192,15543,1,0,0:0:0:0:
256,192,15774,1,0,0:0:0:0:
256,192,16005,1,8,0:0:0:0:
256,192,16120,1,8,0:0:0:0:
256,192,16235,1,0,0:0:0:0:
256,192,16351,1,0,0:0:0:0:
256,192,16466,1,8,0:0:0:0:
256,192,16697,1,0,0:0:0:0:
256,192,16812,1,0,0:0:0:0:
256,192,16928,1,8,0:0:0:0:
256,192,17158,1,0,0:0:0:0:
256,192,17389,1,8,0:0:0:0:
256,192,17620,1,4,0:0:0:0:
256,192,17966,1,8,0:0:0:0:
256,192,18081,1,0,0:0:0:0:
256,192,18312,1,0,0:0:0:0:
256,192,18543,1,8,0:0:0:0:
256,192,18889,1,0,0:0:0:0:
256,192,19005,1,8,0:0:0:0:
256,192,19235,1,0,0:0:0:0:
256,192,19466,1,8,0:0:0:0:
256,192,19697,1,0,0:0:0:0:
256,192,19812,1,8,0:0:0:0:
256,192,19928,1,0,0:0:0:0:
256,192,20158,1,0,0:0:0:0:
256,192,20389,1,8,0:0:0:0:
256,192,20505,1,8,0:0:0:0:
256,192,20620,1,0,0:0:0:0:
256,192,20851,1,0,0:0:0:0:
256,192,21312,1,8,0:0:0:0:
256,192,21543,1,0,0:0:0:0:
256,192,21658,1,0,0:0:0:0:
256,192,21774,1,8,0:0:0:0:
256,192,22005,1,8,0:0:0:0:
256,192,22235,1,0,0:0:0:0:
256,192,22351,1,0,0:0:0:0:
256,192,22466,1,0,0:0:0:0:
256,192,22581,1,0,0:0:0:0:
256,192,22697,1,8,0:0:0:0:
256,192,22928,1,0,0:0:0:0:
256,192,23158,1,8,0:0:0:0:
256,192,23505,1,8,0:0:0:0:
256,192,23620,1,0,0:0:0:0:
256,192,23735,1,0,0:0:0:0:
256,192,23851,1,8,0:0:0:0:
256,192,24081,1,0,0:0:0:0:
256,192,24312,1,8,0:0:0:0:
256,192,24543,1,0,0:0:0:0:
256,192,24774,1,0,0:0:0:0:
256,192,25005,1,8,0:0:0:0:
256,192,25351,1,8,0:0:0:0:
256,192,25466,1,0,0:0:0:0:
256,192,25697,1,0,0:0:0:0:
256,192,25928,1,8,0:0:0:0:
256,192,26274,1,0,0:0:0:0:
256,192,26389,1,8,0:0:0:0:
256,192,26620,1,8,0:0:0:0:
256,192,26851,1,0,0:0:0:0:
256,192,27081,1,0,0:0:0:0:
256,192,27197,1,8,0:0:0:0:
256,192,27312,1,8,0:0:0:0:
256,192,27543,1,8,0:0:0:0:
256,192,27774,1,8,0:0:0:0:
256,192,27889,1,0,0:0:0:0:
256,192,28005,1,0,0:0:0:0:
256,192,28235,1,0,0:0:0:0:
256,192,28466,1,0,0:0:0:0:
256,192,28697,1,8,0:0:0:0:
256,192,29043,1,8,0:0:0:0:
256,192,29158,1,0,0:0:0:0:
256,192,29389,1,0,0:0:0:0:
256,192,29620,1,8,0:0:0:0:
256,192,29966,1,0,0:0:0:0:
256,192,30081,1,8,0:0:0:0:
256,192,30312,1,8,0:0:0:0:
256,192,30543,1,0,0:0:0:0:
256,192,30889,1,0,0:0:0:0:
256,192,31005,1,8,0:0:0:0:
256,192,31235,1,0,0:0:0:0:
256,192,31466,1,8,0:0:0:0:
256,192,31620,1,0,0:0:0:0:
256,192,31774,1,0,0:0:0:0:
256,192,31928,1,8,0:0:0:0:
256,192,32158,1,0,0:0:0:0:
256,192,32389,1,8,0:0:0:0:
256,192,32620,1,0,0:0:0:0:
256,192,32735,1,0,0:0:0:0:
256,192,32851,1,8,0:0:0:0:
256,192,33081,1,0,0:0:0:0:
256,192,33312,1,8,0:0:0:0:
256,192,33543,1,8,0:0:0:0:
256,192,33658,1,0,0:0:0:0:
256,192,33774,1,0,0:0:0:0:
256,192,34005,1,0,0:0:0:0:
256,192,34235,1,8,0:0:0:0:
256,192,34351,1,8,0:0:0:0:
256,192,34466,1,0,0:0:0:0:
256,192,34581,1,0,0:0:0:0:
256,192,34697,1,8,0:0:0:0:
256,192,34928,1,0,0:0:0:0:
256,192,35158,1,0,0:0:0:0:
256,192,35389,1,8,0:0:0:0:
256,192,35620,1,8,0:0:0:0:
256,192,35851,1,0,0:0:0:0:
256,192,36081,1,12,0:0:0:0:
256,192,36428,1,0,0:0:0:0:
256,192,36543,1,8,0:0:0:0:
256,192,36774,1,0,0:0:0:0:
256,192,37005,1,8,0:0:0:0:
256,192,37351,1,8,0:0:0:0:
256,192,37466,1,0,0:0:0:0:
256,192,37697,1,0,0:0:0:0:
256,192,37928,1,8,0:0:0:0:
256,192,38043,1,8,0:0:0:0:
256,192,38158,1,0,0:0:0:0:
256,192,38389,1,0,0:0:0:0:
256,192,38620,1,8,0:0:0:0:
256,192,38851,1,0,0:0:0:0:
256,192,39197,1,0,0:0:0:0:
256,192,39312,1,8,0:0:0:0:
256,192,39543,1,0,0:0:0:0:
256,192,39774,1,8,0:0:0:0:
256,192,39889,1,0,0:0:0:0:
256,192,40005,1,0,0:0:0:0:
256,192,40120,1,8,0:0:0:0:
256,192,40235,1,8,0:0:0:0:
256,192,40466,1,0,0:0:0:0:
256,192,40697,1,8,0:0:0:0:
256,192,40812,1,0,0:0:0:0:
256,192,40928,1,0,0:0:0:0:
256,192,41043,1,0,0:0:0:0:
256,192,41158,1,8,0:0:0:0:
256,192,41389,1,0,0:0:0:0:
256,192,41620,1,8,0:0:0:0:
256,192,41735,1,8,0:0:0:0:
256,192,41851,1,0,0:0:0:0:
256,192,42081,1,0,0:0:0:0:
256,192,42312,1,8,0:0:0:0:
256,192,42543,1,0,0:0:0:0:
256,192,42658,1,0,0:0:0:0:
256,192,42774,1,0,0:0:0:0:
256,192,42889,1,0,0:0:0:0:
256,192,43005,1,8,0:0:0:0:
256,192,43235,1,0,0:0:0:0:
256,192,43466,1,0,0:0:0:0:
256,192,43581,1,8,0:0:0:0:
256,192,43812,1,0,0:0:0:0:
256,192,43928,1,8,0:0:0:0:
256,192,44043,1,8,0:0:0:0:
256,192,44158,1,0,0:0:0:0:
256,192,44389,1,8,0:0:0:0:
256,192,44505,1,8,0:0:0:0:
256,192,44620,1,0,0:0:0:0:
256,192,44735,1,0,0:0:0:0:
256,192,44851,1,8,0:0:0:0:
256,192,45081,1,0,0:0:0:0:
256,192,45312,1,8,0:0:0:0:
256,192,45543,1,0,0:0:0:0:
256,192,45658,1,0,0:0:0:0:
256,192,45774,1,8,0:0:0:0:
256,192,46005,1,0,0:0:0:0:
256,192,46235,1,8,0:0:0:0:
256,192,46351,1,0,0:0:0:0:
256,192,46466,1,0,0:0:0:0:
256,192,46581,1,8,0:0:0:0:
256,192,46697,1,0,0:0:0:0:
256,192,46928,1,0,0:0:0:0:
256,192,47158,1,8,0:0:0:0:
256,192,47274,1,0,0:0:0:0:
256,192,47505,1,0,0:0:0:0:
256,192,47620,1,8,0:0:0:0:
256,192,47735,1,8,0:0:0:0:
256,192,47851,1,0,0:0:0:0:
256,192,48081,1,8,0:0:0:0:
256,192,48197,1,8,0:0:0:0:
256,192,48312,1,0,0:0:0:0:
256,192,48428,1,0,0:0:0:0:
256,192,48543,1,8,0:0:0:0:
256,192,48774,1,0,0:0:0:0:
256,192,49005,1,8,0:0:0:0:
256,192,49120,1,0,0:0:0:0:
256,192,49235,1,8,0:0:0:0:
256,192,49351,1,0,0:0:0:0:
256,192,49466,1,8,0:0:0:0:
256,192,49928,1,8,0:0:0:0:
256,192,50274,1,0,0:0:0:0:
256,192,50389,1,8,0:0:0:0:
256,192,50620,1,0,0:0:0:0:
256,192,50851,1,12,0:0:0:0:
256,192,51197,1,0,0:0:0:0:
256,192,51312,1,8,0:0:0:0:
256,192,51543,1,0,0:0:0:0:
256,192,51774,1,8,0:0:0:0:
256,192,52120,1,8,0:0:0:0:
256,192,52235,1,0,0:0:0:0:
256,192,52466,1,0,0:0:0:0:
256,192,52697,1,0,0:0:0:0:
256,192,52812,1,8,0:0:0:0:
256,192,52928,1,8,0:0:0:0:
256,192,53043,1,0,0:0:0:0:
256,192,53158,1,8,0:0:0:0:
256,192,53274,1,8,0:0:0:0:
256,192,53505,1,8,0:0:0:0:
256,192,53620,1,0,0:0:0:0:
256,192,53735,1,8,0:0:0:0:
256,192,53966,1,8,0:0:0:0:
256,192,54081,1,0,0:0:0:0:
256,192,54197,1,8,0:0:0:0:
256,192,54312,1,0,0:0:0:0:
256,192,54543,1,8,0:0:0:0:
256,192,54889,1,8,0:0:0:0:
256,192,55005,1,0,0:0:0:0:
256,192,55235,1,0,0:0:0:0:
256,192,55466,1,8,0:0:0:0:
256,192,55812,1,0,0:0:0:0:
256,192,55928,1,8,0:0:0:0:
256,192,56158,1,8,0:0:0:0:
256,192,56389,1,0,0:0:0:0:
256,192,56505,1,8,0:0:0:0:
256,192,56620,1,8,0:0:0:0:
256,192,56735,1,0,0:0:0:0:
256,192,56851,1,8,0:0:0:0:
256,192,56966,1,8,0:0:0:0:
256,192,57197,1,0,0:0:0:0:
256,192,57312,1,8,0:0:0:0:
256,192,57543,1,0,0:0:0:0:
256,192,57658,1,8,0:0:0:0:
256,192,57774,1,8,0:0:0:0:
256,192,58005,1,8,0:0:0:0:
256,192,58120,1,0,0:0:0:0:
256,192,58235,1,8,0:0:0:0:
256,192,58351,1,0,0:0:0:0:
256,192,58581,1,0,0:0:0:0:
256,192,58697,1,8,0:0:0:0:
256,192,58928,1,0,0:0:0:0:
256,192,59158,1,8,0:0:0:0:
256,192,59505,1,8,0:0:0:0:
256,192,59620,1,0,0:0:0:0:
256,192,59851,1,0,0:0:0:0:
256,192,60081,1,0,0:0:0:0:
256,192,60197,1,8,0:0:0:0:
256,192,60312,1,8,0:0:0:0:
256,192,60428,1,0,0:0:0:0:
256,192,60543,1,8,0:0:0:0:
256,192,60658,1,8,0:0:0:0:
256,192,60889,1,8,0:0:0:0:
256,192,61005,1,0,0:0:0:0:
256,192,61120,1,8,0:0:0:0:
256,192,61351,1,8,0:0:0:0:
256,192,61466,1,8,0:0:0:0:
256,192,61697,1,0,0:0:0:0:
256,192,61928,1,8,0:0:0:0:
256,192,62043,1,0,0:0:0:0:
256,192,62274,1,0,0:0:0:0:
256,192,62389,1,8,0:0:0:0:
256,192,62620,1,0,0:0:0:0:
256,192,62851,1,8,0:0:0:0:
256,192,63197,1,0,0:0:0:0:
256,192,63312,1,8,0:0:0:0:
256,192,63543,1,0,0:0:0:0:
256,192,63774,1,8,0:0:0:0:
256,192,63889,1,8,0:0:0:0:
256,192,64120,1,0,0:0:0:0:
256,192,64235,1,8,0:0:0:0:
256,192,64351,1,8,0:0:0:0:
256,192,64466,1,0,0:0:0:0:
256,192,64697,1,8,0:0:0:0:
256,192,64928,1,8,0:0:0:0:
256,192,65158,1,0,0:0:0:0:
256,192,65389,1,0,0:0:0:0:
256,192,65620,1,12,0:0:0:0:
256,192,65851,1,0,0:0:0:0:
256,192,65966,1,0,0:0:0:0:
256,192,66081,1,8,0:0:0:0:
256,192,66312,1,8,0:0:0:0:
256,192,66428,1,0,0:0:0:0:
256,192,66543,1,0,0:0:0:0:
256,192,66889,1,0,0:0:0:0:
256,192,67005,1,8,0:0:0:0:
256,192,67235,1,0,0:0:0:0:
256,192,67466,1,8,0:0:0:0:
256,192,67581,1,8,0:0:0:0:
256,192,67697,1,0,0:0:0:0:
256,192,67812,1,0,0:0:0:0:
256,192,67928,1,8,0:0:0:0:
256,192,68158,1,0,0:0:0:0:
256,192,68274,1,8,0:0:0:0:
256,192,68389,1,0,0:0:0:0:
256,192,68620,1,0,0:0:0:0:
256,192,68851,1,8,0:0:0:0:
256,192,69081,1,0,0:0:0:0:
256,192,69312,1,0,0:0:0:0:
256,192,69658,1,8,0:0:0:0:
256,192,69774,1,0,0:0:0:0:
256,192,70005,1,0,0:0:0:0:
256,192,70235,1,0,0:0:0:0:
256,192,70351,1,8,0:0:0:0:
256,192,70466,1,0,0:0:0:0:
256,192,70581,1,0,0:0:0:0:
256,192,70697,1,8,0:0:0:0:
256,192,70928,1,0,0:0:0:0:
256,192,71158,1,8,0:0:0:0:
256,192,71274,1,0,0:0:0:0:
256,192,71389,1,8,0:0:0:0:
256,192,71505,1,8,0:0:0:0:
256,192,71620,1,0,0:0:0:0:
256,192,71735,1,8,0:0:0:0:
256,192,71966,1,0,0:0:0:0:
256,192,72081,1,8,0:0:0:0:
256,192,72312,1,0,0:0:0:0:
256,192,72428,1,0,0:0:0:0:
256,192,72543,1,8,0:0:0:0:
256,192,72774,1,8,0:0:0:0:
256,192,73005,1,0,0:0:0:0:
256,192,73351,1,8,0:0:0:0:
256,192,73466,1,0,0:0:0:0:
256,192,73697,1,0,0:0:0:0:
256,192,73928,1,8,0:0:0:0:
256,192,74274,1,8,0:0:0:0:
256,192,74389,1,0,0:0:0:0:
256,192,74620,1,0,0:0:0:0:
256,192,74851,1,8,0:0:0:0:
256,192,75197,1,0,0:0:0:0:
256,192,75312,1,8,0:0:0:0:
256,192,75543,1,0,0:0:0:0:
256,192,75658,1,0,0:0:0:0:
256,192,75774,1,8,0:0:0:0:
256,192,75889,1,8,0:0:0:0:
256,192,76005,1,0,0:0:0:0:
256,192,76235,1,8,0:0:0:0:
256,192,76466,1,8,0:0:0:0:
256,192,76697,1,0,0:0:0:0:
256,192,76812,1,0,0:0:0:0:
256,192,76928,1,0,0:0:0:0:
256,192,77043,1,0,0:0:0:0:
256,192,77158,1,8,0:0:0:0:
256,192,77389,1,0,0:0:0:0:
256,192,77620,1,8,0:0:0:0:
256,192,77966,1,8,0:0:0:0:
256,192,78081,1,0,0:0:0:0:
256,192,78312,1,0,0:0:0:0:
256,192,78543,1,8,0:0:0:0:
256,192,78889,1,8,0:0:0:0:
256,192,79005,1,0,0:0:0:0:
256,192,79235,1,0,0:0:0:0:
256,192,79351,1,8,0:0:0:0:
256,192,79466,1,8,0:0:0:0:
256,192,79697,1,8,0:0:0:0:
256,192,79928,1,0,0:0:0:0:
256,192,80158,1,0,0:0:0:0:
256,192,80389,1,12,0:0:0:0:
256,192,80735,1,0,0:0:0:0:
256,192,80851,1,8,0:0:0:0:
256,192,81081,1,0,0:0:0:0:
256,192,81312,1,8,0:0:0:0:
256,192,81658,1,8,0:0:0:0:
256,192,81774,1,0,0:0:0:0:
256,192,82005,1,0,0:0:0:0:
256,192,82235,1,8,0:0:0:0:
256,192,82581,1,0,0:0:0:0:
256,192,82697,1,8,0:0:0:0:
256,192,82928,1,0,0:0:0:0:
256,192,83158,1,8,0:0:0:0:
256,192,83505,1,8,0:0:0:0:
256,192,83620,1,0,0:0:0:0:
256,192,83851,1,0,0:0:0:0:
256,192,84081,1,8,0:0:0:0:
256,192,84428,1,0,0:0:0:0:
256,192,84543,1,8,0:0:0:0:
256,192,84774,1,0,0:0:0:0:
256,192,85005,1,8,0:0:0:0:
256,192,85351,1,8,0:0:0:0:
256,192,85466,1,0,0:0:0:0:
256,192,85697,1,0,0:0:0:0:
256,192,85928,1,8,0:0:0:0:
256,192,86274,1,0,0:0:0:0:
256,192,86389,1,8,0:0:0:0:
256,192,86620,1,0,0:0:0:0:
256,192,86851,1,8,0:0:0:0:
256,192,87197,1,0,0:0:0:0:
256,192,87312,1,0,0:0:0:0:
256,192,87543,1,8,0:0:0:0:
256,192,87774,1,0,0:0:0:0:
256,192,87889,1,0,0:0:0:0:
256,192,88005,1,8,0:0:0:0:
256,192,88120,1,8,0:0:0:0:
256,192,88235,1,0,0:0:0:0:
256,192,88466,1,8,0:0:0:0:
256,192,88697,1,0,0:0:0:0:
256,192,89043,1,8,0:0:0:0:
256,192,89158,1,0,0:0:0:0:
256,192,89389,1,0,0:0:0:0:
256,192,89620,1,8,0:0:0:0:
256,192,89966,1,0,0:0:0:0:
256,192,90081,1,8,0:0:0:0:
256,192,90312,1,0,0:0:0:0:
256,192,90543,1,8,0:0:0:0:
256,192,90889,1,8,0:0:0:0:
256,192,91005,1,0,0:0:0:0:
256,192,91235,1,0,0:0:0:0:
256,192,91466,1,8,0:0:0:0:
256,192,91582,1,0,0:0:0:0:
256,192,91812,1,0,0:0:0:0:
256,192,91928,1,8,0:0:0:0:
256,192,92158,1,0,0:0:0:0:
256,192,92389,1,8,0:0:0:0:
256,192,92735,1,8,0:0:0:0:
256,192,92851,1,0,0:0:0:0:
256,192,93081,1,0,0:0:0:0:
256,192,93312,1,8,0:0:0:0:
256,192,93466,1,0,0:0:0:0:
256,192,93620,1,0,0:0:0:0:
256,192,93774,1,8,0:0:0:0:
256,192,93928,1,0,0:0:0:0:
256,192,94081,1,0,0:0:0:0:
256,192,94235,1,8,0:0:0:0:
256,192,94581,1,0,0:0:0:0:
256,192,94639,1,0,0:0:0:0:
256,192,94697,1,8,0:0:0:0:
256,192,94928,1,8,0:0:0:0:
256,192,95158,1,4,0:0:0:0:
256,192,95389,1,8,0:0:0:0:
256,192,95620,1,0,0:0:0:0:
256,192,95735,1,0,0:0:0:0:
256,192,95851,1,8,0:0:0:0:
256,192,96081,1,8,0:0:0:0:
256,192,96428,1,0,0:0:0:0:
256,192,96543,1,8,0:0:0:0:
256,192,96774,1,0,0:0:0:0:
256,192,97005,1,8,0:0:0:0:
256,192,97235,1,0,0:0:0:0:
256,192,97466,1,0,0:0:0:0:
256,192,97697,1,8,0:0:0:0:
256,192,97928,1,8,0:0:0:0:
256,192,98158,1,8,0:0:0:0:
256,192,98274,1,0,0:0:0:0:
256,192,98389,1,0,0:0:0:0:
256,192,98620,1,8,0:0:0:0:
256,192,98851,1,0,0:0:0:0:
256,192,99081,1,8,0:0:0:0:
256,192,99197,1,0,0:0:0:0:
256,192,99312,1,8,0:0:0:0:
256,192,99543,1,0,0:0:0:0:
256,192,99774,1,8,0:0:0:0:
256,192,100120,1,8,0:0:0:0:
256,192,100235,1,0,0:0:0:0:
256,192,100466,1,8,0:0:0:0:
256,192,100697,1,0,0:0:0:0:
256,192,100928,1,8,0:0:0:0:
256,192,101158,1,8,0:0:0:0:
256,192,101216,1,8,0:0:0:0:
256,192,101274,1,8,0:0:0:0:
256,192,101389,1,8,0:0:0:0:
256,192,101620,1,0,0:0:0:0:
256,192,101851,1,8,0:0:0:0:
256,192,102081,1,8,0:0:0:0:
256,192,102139,1,8,0:0:0:0:
256,192,102197,1,8,0:0:0:0:
256,192,102543,1,0,0:0:0:0:
256,192,102774,1,0,0:0:0:0:
256,192,102889,1,8,0:0:0:0:
256,192,103005,1,8,0:0:0:0:
256,192,103235,1,0,0:0:0:0:
256,192,103466,1,8,0:0:0:0:
256,192,103812,1,0,0:0:0:0:
256,192,103928,1,8,0:0:0:0:
256,192,104158,1,8,0:0:0:0:
256,192,104389,1,0,0:0:0:0:
256,192,104620,1,0,0:0:0:0:
256,192,104851,1,8,0:0:0:0:
256,192,105081,1,0,0:0:0:0:
256,192,105312,1,8,0:0:0:0:
256,192,105543,1,0,0:0:0:0:
256,192,105658,1,8,0:0:0:0:
256,192,105774,1,8,0:0:0:0:
256,192,106005,1,0,0:0:0:0:
256,192,106235,1,8,0:0:0:0:
256,192,106466,8,0,108081,0:0:0:0:
