osu file format v14

[General]
AudioFilename: audio.mp3
AudioLeadIn: 0
PreviewTime: 99
Countdown: 1
SampleSet: Soft
StackLeniency: 0.7
Mode: 0
LetterboxInBreaks: 0
WidescreenStoryboard: 0

[Editor]
DistanceSpacing: 0.4
BeatDivisor: 4
GridSize: 32
TimelineZoom: 1.8

[Metadata]
Title:#1 progress
TitleUnicode:#1 progress
Artist:Dedf1sh
ArtistUnicode:Dedf1sh
Creator:Zetera
Version:Standard
Source:Splatoon 2
Tags:
BeatmapID:1791345
BeatmapSetID:857369

[Difficulty]
HPDrainRate:7
CircleSize:4
OverallDifficulty:9
ApproachRate:9
SliderMultiplier:1.4
SliderTickRate:1

[Events]
//Background and Video events
0,0,"architecture-buildings-business-325185.jpg",0,0
//Break Periods
//Storyboard Layer 0 (Background)
//Storyboard Layer 1 (Fail)
//Storyboard Layer 2 (Pass)
//Storyboard Layer 3 (Foreground)
//Storyboard Sound Samples

[TimingPoints]
99.7142857142858,344.827586206897,4,2,1,35,1,0
16651,-80,4,2,1,35,0,0
44582,-100,4,2,1,35,0,0

[Colours]
Combo1 : 244,220,187
Combo2 : 226,226,226
Combo3 : 255,198,140
Combo4 : 47,145,176

[HitObjects]
256,192,99,5,4,0:3:0:0:
256,192,272,1,0,0:0:0:0:
126,192,444,2,0,P|72:230|72:327,1,140,0|0,1:0|0:0,0:0:0:0:
178,109,961,2,0,P|146:56|118:44,1,70,0|0,1:0|0:0,0:0:0:0:
158,293,1306,5,4,0:3:0:0:
164,302,1651,1,4,0:3:0:0:
333,338,1823,2,0,L|455:322,1,105,0|0,1:0|0:0,0:0:0:0:
247,276,2168,1,4,0:3:0:0:
255,286,2341,1,4,0:3:0:0:
276,112,2513,1,8,1:0:0:0:
473,192,2685,37,0,0:0:0:0:
473,192,2772,1,0,0:0:0:0:
473,192,2858,2,0,L|384:185,1,70,4|0,0:3|0:0,0:0:0:0:
152,42,3203,2,0,L|170:201,1,140,0|0,1:0|0:0,0:0:0:0:
10,143,3720,2,0,L|103:120,1,70,0|0,1:0|0:0,0:0:0:0:
249,262,4065,37,4,0:3:0:0:
245,275,4410,1,4,0:3:0:0:
126,340,4582,2,0,P|71:344|16:296,1,105,0|0,1:0|0:0,0:0:0:0:
181,206,4927,5,4,0:3:0:0:
177,219,5099,1,6,0:3:0:0:
314,346,5272,1,8,1:0:0:0:
341,341,5358,1,0,0:0:0:0:
368,336,5444,1,2,0:3:0:0:
395,331,5530,1,0,3:0:0:0:
422,326,5616,5,4,1:3:0:0:
439,213,5789,1,2,0:0:0:0:
327,166,5961,2,0,L|341:257,1,70,8|0,0:1|0:0,0:0:0:0:
489,137,6306,1,4,0:3:0:0:
274,76,6479,2,0,B|240:104|240:104|231:220,1,140,8|4,0:1|0:3,0:0:0:0:
183,35,6996,37,2,0:0:0:0:
183,35,7082,1,0,0:0:0:0:
183,35,7168,1,0,0:0:0:0:
96,47,7341,1,8,0:1:0:0:
12,59,7513,1,0,0:0:0:0:
157,154,7685,37,4,0:3:0:0:
66,136,7858,1,4,0:3:0:0:
2,202,8030,2,0,L|-3:244,3,35,8|0|0|8,0:1|0:0|0:0|0:1,0:0:0:0:
110,246,8375,5,4,0:3:0:0:
114,273,8461,1,0,0:0:0:0:
119,300,8547,1,0,0:0:0:0:
124,327,8634,1,0,0:0:0:0:
129,354,8720,1,8,0:1:0:0:
284,58,8892,5,4,0:3:0:0:
263,38,8979,1,0,0:0:0:0:
237,26,9065,1,0,0:0:0:0:
209,25,9151,1,0,0:0:0:0:
183,35,9237,1,8,0:1:0:0:
236,316,9410,37,0,0:0:0:0:
263,318,9496,1,0,0:0:0:0:
290,321,9582,2,0,L|334:323,1,35,4|0,0:3|0:0,0:0:0:0:
403,289,9754,2,0,L|392:389,1,70,2|4,0:0|0:3,0:0:0:0:
472,242,10013,1,0,0:0:0:0:
484,251,10099,2,0,L|473:351,1,70,8|0,0:1|0:0,0:0:0:0:
345,152,10358,1,0,0:0:0:0:
333,161,10444,2,0,L|344:261,1,70,2|4,0:0|0:3,0:0:0:0:
429,107,10703,1,0,0:0:0:0:
417,116,10789,2,0,L|422:170,2,35,8|0|0,0:1|0:0|0:0,0:0:0:0:
338,50,11134,38,0,P|283:38|256:29,1,70,4|0,1:3|0:0,0:0:0:0:
195,140,11479,2,0,L|191:-2,1,140,8|0,0:1|0:0,0:0:0:0:
111,50,11996,2,0,P|71:62|22:85,1,70,8|0,0:1|0:0,0:0:0:0:
27,287,12341,5,4,0:3:0:0:
32,296,12685,1,4,0:3:0:0:
148,233,12858,1,8,0:1:0:0:
144,260,12944,1,0,0:0:0:0:
140,287,13030,1,2,0:0:0:0:
46,168,13203,1,4,0:3:0:0:
46,168,13375,1,4,0:3:0:0:
234,189,13547,2,0,B|223:275,1,70,8|2,0:1|0:0,0:0:0:0:
448,338,13892,5,4,0:3:0:0:
419,340,13979,1,0,0:0:0:0:
391,343,14065,1,2,0:0:0:0:
363,346,14151,1,0,0:0:0:0:
335,349,14237,1,8,0:1:0:0:
492,242,14410,37,4,0:3:0:0:
463,240,14497,1,0,0:0:0:0:
435,237,14583,1,2,0:0:0:0:
407,234,14669,1,0,0:0:0:0:
379,231,14755,1,8,0:1:0:0:
298,46,14927,37,4,0:3:0:0:
326,43,15013,1,0,0:0:0:0:
354,40,15099,1,2,0:0:0:0:
382,37,15185,1,0,0:0:0:0:
411,35,15272,5,8,0:1:0:0:
357,135,15444,1,0,0:0:0:0:
384,138,15530,1,0,0:0:0:0:
411,141,15616,1,8,0:1:0:0:
160,20,15789,1,4,0:3:0:0:
188,17,15875,1,0,0:0:0:0:
216,14,15961,1,2,0:0:0:0:
201,161,16134,1,8,0:1:0:0:
173,166,16220,1,0,0:0:0:0:
145,171,16306,1,8,0:1:0:0:
117,177,16392,1,0,0:3:0:0:
89,183,16479,2,0,L|49:192,2,23.3333333333333,0|0|8,0:0|0:0|0:1,0:0:0:0:
113,262,16651,22,0,L|223:275,1,87.5,4|0,1:3|0:0,0:0:0:0:
269,332,16910,1,0,0:0:0:0:
251,336,16996,1,8,0:1:0:0:
303,98,17168,1,4,0:3:0:0:
372,294,17341,2,0,P|376:332|352:385,1,87.5,0|8,0:0|0:1,0:0:0:0:
203,150,17685,5,0,0:3:0:0:
398,203,17858,2,0,P|449:195|495:174,1,87.5,4|0,0:3|0:3,0:0:0:0:
308,0,18203,1,4,0:3:0:0:
303,98,18375,2,0,L|294:249,1,131.25,8|0,0:1|0:0,0:0:0:0:
409,10,18720,5,4,0:3:0:0:
400,110,18892,1,4,0:3:0:0:
195,62,19065,2,0,L|203:161,1,87.5,8|0,0:1|0:0,0:0:0:0:
172,340,19410,5,4,0:3:0:0:
165,323,19496,1,0,0:0:0:0:
130,315,19582,1,0,0:0:0:0:
95,309,19668,1,0,0:0:0:0:
60,304,19754,1,8,0:1:0:0:
105,201,19927,1,4,0:3:0:0:
100,184,20013,1,0,0:0:0:0:
70,176,20099,1,0,0:0:0:0:
39,170,20185,1,0,0:0:0:0:
8,163,20272,1,8,0:1:0:0:
50,75,20444,1,4,0:3:0:0:
252,320,20616,6,0,L|257:215,1,87.5,4|2,0:3|0:0,0:0:0:0:
400,341,20961,1,0,0:0:0:0:
322,359,21134,1,8,0:1:0:0:
362,117,21306,5,4,0:3:0:0:
445,135,21479,2,0,P|439:197|406:236,1,87.5,2|4,0:0|0:3,0:0:0:0:
284,98,21823,2,0,P|283:54|302:15,1,87.5,8|4,0:1|0:3,0:0:0:0:
343,281,22168,5,4,1:3:0:0:
214,292,22341,1,2,0:0:0:0:
219,322,22427,1,0,0:0:0:0:
224,352,22513,1,8,0:1:0:0:
267,205,22685,1,4,0:3:0:0:
139,227,22858,2,0,P|85:222|48:205,1,87.5,2|8,0:0|0:1,0:0:0:0:
28,122,23203,1,2,0:0:0:0:
171,0,23375,22,0,L|161:110,1,87.5,4|2,0:3|0:0,0:0:0:0:
357,136,23720,1,4,0:3:0:0:
267,205,23892,2,0,L|257:44,1,131.25,8|0,0:1|0:0,0:0:0:0:
428,236,24237,5,4,0:3:0:0:
336,307,24410,1,4,0:3:0:0:
356,17,24582,2,0,P|426:39|451:71,1,87.5,8|0,0:1|0:0,0:0:0:0:
233,371,24927,5,4,0:3:0:0:
202,367,25013,1,0,0:0:0:0:
171,363,25099,1,0,0:0:0:0:
140,359,25185,1,0,0:0:0:0:
109,354,25272,1,8,1:1:0:0:
140,82,25444,1,4,0:3:0:0:
118,85,25530,1,0,0:0:0:0:
96,88,25616,1,0,0:0:0:0:
74,92,25703,1,0,0:0:0:0:
52,95,25789,1,8,1:0:0:0:
71,273,25961,1,0,0:0:0:0:
59,271,26047,1,0,0:0:0:0:
45,269,26134,1,4,0:3:0:0:
31,267,26220,1,0,0:0:0:0:
19,264,26306,5,2,0:0:0:0:
125,185,26479,1,0,0:0:0:0:
150,191,26565,1,0,0:0:0:0:
174,197,26651,2,0,L|158:317,1,87.5,4|2,0:3|0:0,0:0:0:0:
246,152,26910,1,0,0:0:0:0:
255,163,26996,2,0,L|314:244,1,87.5,4|2,0:3|0:0,0:0:0:0:
281,70,27254,1,0,0:0:0:0:
296,68,27341,2,0,L|392:62,1,87.5,8|2,0:1|0:0,0:0:0:0:
492,165,27685,6,0,P|429:192|406:222,1,87.5,4|0,1:3|0:0,0:0:0:0:
512,246,27944,1,0,0:0:0:0:
494,243,28030,1,8,0:1:0:0:
350,143,28203,1,4,0:3:0:0:
400,373,28375,2,0,L|392:276,1,87.5,0|8,0:0|0:1,0:0:0:0:
484,326,28720,1,4,0:3:0:0:
285,223,28892,6,0,P|223:236|177:269,1,87.5,4|0,1:3|0:0,0:0:0:0:
105,344,29237,1,4,0:3:0:0:
113,241,29410,2,0,P|182:288|206:333,1,131.25,8|0,0:1|0:0,0:0:0:0:
12,309,29754,5,4,0:3:0:0:
105,344,29927,1,4,0:3:0:0:
15,115,30099,2,0,L|25:229,1,87.5,8|0,0:1|0:0,0:0:0:0:
254,32,30444,5,4,0:3:0:0:
219,35,30530,1,0,0:0:0:0:
184,38,30616,1,0,0:0:0:0:
148,42,30703,1,0,0:0:0:0:
114,46,30789,1,8,0:1:0:0:
359,248,30961,1,4,0:3:0:0:
373,216,31047,1,0,0:0:0:0:
378,181,31134,1,0,0:0:0:0:
371,146,31220,1,0,0:0:0:0:
356,114,31306,1,8,0:1:0:0:
244,129,31479,1,0,0:0:0:0:
309,325,31651,6,0,P|363:342|413:317,1,87.5,4|0,0:3|0:0,0:0:0:0:
450,260,31996,1,4,0:3:0:0:
359,248,32168,1,8,0:1:0:0:
112,354,32341,5,4,0:3:0:0:
206,340,32513,2,0,L|195:235,1,87.5,2|4,0:0|0:3,0:0:0:0:
33,203,32858,2,0,L|44:308,1,87.5,8|4,0:1|0:3,0:0:0:0:
181,145,33203,5,4,1:3:0:0:
23,89,33375,1,0,0:0:0:0:
57,81,33461,1,0,0:0:0:0:
91,73,33547,1,8,0:1:0:0:
116,226,33720,1,2,0:0:0:0:
203,21,33892,2,0,P|250:44|279:85,1,87.5,0|8,0:0|0:1,0:0:0:0:
298,184,34237,1,2,0:0:0:0:
476,108,34410,22,0,P|410:138|393:186,1,87.5,4|0,0:3|0:0,0:0:0:0:
380,262,34754,1,4,0:3:0:0:
182,249,34927,2,0,P|260:268|284:334,1,131.25,8|0,0:1|0:0,0:0:0:0:
479,336,35272,5,4,0:3:0:0:
469,209,35444,1,4,0:3:0:0:
200,335,35616,2,0,L|50:323,1,131.25,8|0,0:1|0:0,0:0:0:0:
22,244,35961,5,4,0:3:0:0:
20,209,36047,1,0,0:0:0:0:
18,173,36134,1,0,0:0:0:0:
16,138,36220,1,0,0:0:0:0:
14,103,36306,1,8,1:0:0:0:
193,25,36479,1,4,0:3:0:0:
191,51,36565,1,0,0:0:0:0:
189,77,36651,1,0,0:0:0:0:
187,103,36737,1,0,0:0:0:0:
185,129,36823,1,8,1:0:0:0:
378,326,36996,1,4,0:3:0:0:
376,308,37082,1,0,0:0:0:0:
374,290,37168,1,4,0:3:0:0:
372,272,37254,1,0,0:0:0:0:
371,254,37341,5,8,0:1:0:0:
440,74,37513,1,2,0:0:0:0:
422,71,37599,1,0,0:0:0:0:
404,67,37685,2,0,L|286:44,1,87.5,8|6,0:1|0:3,0:0:0:0:
339,130,37944,1,2,0:0:0:0:
320,134,38030,2,0,L|205:156,1,87.5,8|2,0:1|0:3,0:0:0:0:
330,215,38289,1,2,0:0:0:0:
315,224,38375,1,8,0:1:0:0:
301,233,38461,1,0,0:0:0:0:
285,244,38547,2,0,L|260:260,2,29.1666666666667,2|0|0,0:0|0:0|0:0,0:0:0:0:
417,252,38720,5,4,1:0:0:0:
505,219,38892,2,0,L|511:167,2,43.75,0|0|0,0:0|0:0|1:0,0:0:0:0:
489,313,39237,1,4,0:3:0:0:
424,146,39410,2,0,L|437:44,1,87.5,0|0,0:0|1:0,0:0:0:0:
34,326,39927,5,4,0:3:0:0:
94,153,40099,2,0,L|85:31,1,87.5,2|4,0:0|0:3,0:0:0:0:
17,240,40444,2,0,B|58:245|58:245|161:227,1,131.25,0|0,1:0|0:0,0:0:0:0:
222,250,40789,1,4,0:3:0:0:
222,250,40961,1,4,0:3:0:0:
194,11,41134,2,0,L|186:113,1,87.5,8|0,0:1|0:0,0:0:0:0:
194,111,41392,1,0,0:0:0:0:
202,125,41479,1,4,0:3:0:0:
482,80,41823,6,0,P|430:54|346:139,1,175,0|4,1:0|0:3,0:0:0:0:
293,186,42341,2,0,P|345:212|429:127,1,175,0|4,1:0|0:3,0:0:0:0:
292,16,42858,2,0,L|193:0,1,87.5,2|0,0:0|0:0,0:0:0:0:
13,79,43203,2,0,L|112:63,1,87.5,0|0,1:0|0:0,0:0:0:0:
282,129,43461,1,0,0:0:0:0:
289,141,43547,2,0,L|190:125,1,87.5,4|4,0:3|0:3,0:0:0:0:
0,186,43892,2,0,L|149:211,1,131.25,8|0,0:1|0:0,0:0:0:0:
202,266,44237,22,0,P|150:281|114:306,1,87.5,4|0,0:3|0:0,0:0:0:0:
45,342,44496,1,0,0:0:0:0:
49,323,44582,1,0,1:0:0:0:
36,86,44754,1,4,0:3:0:0:
52,168,44927,2,0,L|67:245,1,70,0|0,0:0|1:0,0:0:0:0:
455,58,45444,5,4,0:3:0:0:
441,139,45616,2,0,L|430:229,1,70,0|2,0:0|0:0,0:0:0:0:
336,28,45961,2,0,L|345:148,1,105,0|0,1:0|0:0,0:0:0:0:
333,146,46306,2,0,L|257:133,1,70
217,40,46651,2,0,L|86:58,1,105,8|0,0:1|0:0,0:0:0:0:
39,94,46996,5,4,0:3:0:0:
39,94,47341,2,0,P|113:88|150:144,1,140,0|0,1:0|0:0,0:0:0:0:
219,246,47858,2,0,P|175:297|109:287,1,140,0|4,1:0|0:3,0:0:0:0:
0,200,48375,6,0,P|40:173|74:174,1,70,0|4,0:0|0:3,0:0:0:0:
78,364,48720,2,0,P|39:331|35:291,1,70,0|0,1:0|0:0,0:0:0:0:
29,295,48979,1,0,0:0:0:0:
31,276,49065,1,4,0:3:0:0:
142,43,49237,1,0,1:0:0:0:
144,56,49323,1,0,0:0:0:0:
146,69,49410,1,8,1:0:0:0:
148,82,49496,1,0,0:0:0:0:
150,95,49582,2,0,L|156:137,2,23.3333333333333,0|8|0,1:0|0:1|0:1,0:0:0:0:
227,26,49754,5,4,1:3:0:0:
304,78,49927,2,0,L|311:122,2,35,0|0|0,0:0|0:0|1:0,0:0:0:0:
366,13,50272,1,4,0:3:0:0:
465,115,50444,2,0,L|373:102,1,70,0|0,0:0|1:0,0:0:0:0:
227,367,50961,5,4,0:3:0:0:
147,264,51134,2,0,L|228:277,1,70,2|4,0:0|0:3,0:0:0:0:
142,354,51479,2,0,L|22:336,1,105,0|0,1:0|0:0,0:0:0:0:
5,274,51823,1,4,0:3:0:0:
5,274,51996,1,4,0:3:0:0:
112,98,52168,2,0,P|121:141|116:186,1,70,8|0,0:1|0:0,0:0:0:0:
108,178,52427,1,0,0:0:0:0:
93,187,52513,1,4,0:3:0:0:
362,101,52858,6,0,B|390:164|390:164|467:131,1,140,0|0,1:0|0:0,0:0:0:0:
288,51,53375,2,0,B|260:-12|260:-12|183:21,1,140,0|4,1:0|0:3,0:0:0:0:
124,97,53892,6,0,L|138:183,1,70,0|4,0:0|0:3,0:0:0:0:
35,52,54237,1,0,1:0:0:0:
225,120,54410,5,0,0:0:0:0:
45,166,54582,2,4,L|35:248,1,70,4|4,0:3|0:3,0:3:0:0:
198,310,54927,2,4,L|208:228,1,70,8|4,0:1|0:3,0:3:0:0:
90,331,55272,5,4,1:3:0:0:
296,289,55444,1,0,0:0:0:0:
298,302,55530,1,0,0:0:0:0:
302,315,55616,2,0,L|319:187,1,105,0|0,1:0|0:0,0:0:0:0:
319,188,55961,1,4,0:3:0:0:
448,357,56134,2,0,L|364:363,1,70,0|0,1:0|0:0,0:0:0:0:
498,105,56479,5,4,0:3:0:0:
402,236,56651,2,0,L|477:223,1,70,2|4,0:0|0:3,0:0:0:0:
277,96,56996,2,0,L|392:109,1,105,0|0,1:0|0:0,0:0:0:0:
401,95,57341,2,4,P|397:42|376:12,1,70,4|4,0:3|0:3,0:3:0:0:
293,183,57685,2,0,P|278:237|295:295,1,105,8|0,0:1|0:0,0:0:0:0:
364,323,58030,5,4,0:3:0:0:
364,323,58375,2,0,L|205:330,1,140,0|0,1:0|0:0,0:0:0:0:
356,234,58892,2,0,L|515:227,1,140,0|4,1:0|0:3,0:0:0:0:
140,361,59582,5,4,0:3:0:0:
49,371,59754,2,0,P|37:329|45:281,1,70,0|0,1:0|0:0,0:0:0:0:
14,233,60013,1,0,0:0:0:0:
0,221,60099,2,0,P|23:183|64:157,1,70,4|2,1:3|0:0,0:0:0:0:
60,90,60358,1,0,0:0:0:0:
91,94,60444,1,8,0:1:0:0:
121,97,60530,1,0,0:0:0:0:
151,101,60616,2,0,L|189:106,2,23.3333333333333,4|8|0,0:3|0:1|0:0,0:0:0:0:
215,178,60789,5,4,1:0:0:0:
