osu file format v14

[General]
AudioFilename: audio.mp3
AudioLeadIn: 0
PreviewTime: -1
Countdown: 1
SampleSet: Normal
StackLeniency: 0.7
Mode: 0
LetterboxInBreaks: 0
WidescreenStoryboard: 1

[Editor]
DistanceSpacing: 1.5
BeatDivisor: 4
GridSize: 8
TimelineZoom: 1

[Metadata]
Title:Delusion Tax
TitleUnicode:Delusion Tax
Artist:Deco*27&Hatsune Miku
ArtistUnicode:Deco*27&Hatsune Miku
Creator:Anthonych
Version:Hard
Source:
Tags:
BeatmapID:1428400
BeatmapSetID:675183

[Difficulty]
HPDrainRate:7
CircleSize:3.6
OverallDifficulty:6.8
ApproachRate:7.8
SliderMultiplier:1.4
SliderTickRate:1

[Events]
//Background and Video events
0,0,"Delusion_tax.png",0,0
//Break Periods
2,15801,22433
2,71768,77954
//Storyboard Layer 0 (Background)
//Storyboard Layer 1 (Fail)
//Storyboard Layer 2 (Pass)
//Storyboard Layer 3 (Foreground)
//Storyboard Sound Samples

[TimingPoints]
1721,447.761194029851,4,1,0,100,1,0
50079,223.880597014925,4,1,0,100,1,0
50079,-100,4,1,0,100,0,1
64407,447.761194029851,4,1,0,100,1,0
64407,-100,4,1,0,100,0,0
118138,223.880597014925,4,1,0,100,1,0
118138,-100,4,1,0,100,0,1
132018,447.761194029851,4,1,0,100,1,0
132018,-100,4,1,0,100,0,0
178361,223.880597014925,4,1,0,100,1,0
192465,-100,4,1,0,100,0,1
207241,447.761194029851,4,1,0,100,1,0
207241,-100,4,1,0,100,0,0

[HitObjects]
128,104,1721,5,0,2:2:0:0:
232,104,1944,2,0,P|232:160|208:176,1,70,0|0,2:2|2:2,2:2:0:0:
144,240,2392,2,0,P|88:272|64:256,1,70,0|0,2:2|2:2,2:2:0:0:
80,112,2952,1,0,2:2:0:0:
232,152,3288,5,0,2:2:0:0:
408,272,3735,2,0,P|416:320|392:336,1,70,0|0,2:2|2:2,2:2:0:0:
272,336,4183,2,0,P|216:296|216:288,1,70,0|0,2:2|2:2,2:2:0:0:
248,152,4743,1,0,2:2:0:0:
128,160,5302,6,0,P|168:112|176:120,1,70,0|0,2:2|2:2,2:2:0:0:
248,96,5750,1,0,2:2:0:0:
296,184,5974,1,0,2:2:0:0:
152,272,6198,2,0,P|200:280|224:256,1,70,0|0,2:2|2:2,2:2:0:0:
215,269,6534,1,0,2:2:0:0:
104,96,6870,6,0,B|176:128|176:136|240:104,1,140,0|0,2:2|2:2,2:2:0:0:
296,192,7541,1,0,2:2:0:0:
200,232,7765,1,0,2:2:0:0:
128,160,7989,1,0,2:2:0:0:
40,104,8213,2,0,L|96:80,1,35,0|0,2:2|2:2,2:2:0:0:
72,90,8884,6,0,P|56:144|88:168,1,70,0|0,2:2|2:2,2:2:0:0:
120,240,9332,2,0,P|160:240|168:208,1,70,0|0,2:2|2:2,2:2:0:0:
176,112,9780,1,0,2:2:0:0:
72,104,10004,2,0,L|80:152,1,35,0|0,2:2|2:2,2:2:0:0:
208,48,10452,6,0,P|240:120|184:168,1,140,0|0,2:2|2:2,2:2:0:0:
88,152,11123,1,0,2:2:0:0:
160,224,11347,1,0,2:2:0:0:
288,160,11571,2,0,P|304:208|272:248,1,105,0|0,2:2|2:2,2:2:0:0:
344,80,12466,6,0,P|384:128|376:136,1,70,0|0,2:2|2:2,2:2:0:0:
389,114,12914,1,0,2:2:0:0:
296,160,13138,1,0,2:2:0:0:
200,112,13362,1,0,2:2:0:0:
96,104,13586,2,0,L|112:160,1,35,0|0,2:2|2:2,2:2:0:0:
216,248,14034,6,0,P|280:200|352:192,1,140,0|0,2:2|2:2,2:2:0:0:
272,112,14705,1,0,2:2:0:0:
168,104,14929,2,0,P|104:88|96:104,1,70,0|0,2:2|2:2,2:2:0:0:
112,80,15601,1,4,2:2:0:0:
280,128,23212,5,0,2:2:0:0:
176,128,23436,2,0,P|176:184|208:200,1,70,0|0,2:2|2:2,2:2:0:0:
240,280,23884,2,0,P|184:312|160:304,1,70,0|0,2:2|2:2,2:2:0:0:
232,136,24444,1,0,2:2:0:0:
392,128,24779,5,0,2:2:0:0:
480,320,25227,2,0,P|488:368|464:384,1,70,0|0,2:2|2:2,2:2:0:0:
392,304,25675,2,0,P|336:264|336:256,1,70,0|0,2:2|2:2,2:2:0:0:
224,160,26235,1,0,2:2:0:0:
80,88,26794,6,0,P|144:64|152:72,1,70,0|0,2:2|2:2,2:2:0:0:
96,160,27242,1,0,2:2:0:0:
200,184,27466,1,0,2:2:0:0:
160,280,27690,2,0,P|208:288|232:264,1,70,0|0,2:2|2:2,2:2:0:0:
223,277,28026,1,0,2:2:0:0:
96,176,28361,6,0,B|168:208|168:216|232:184,1,140,0|0,2:2|2:2,2:2:0:0:
328,176,29033,1,0,2:2:0:0:
336,288,29257,1,0,2:2:0:0:
408,216,29481,1,0,2:2:0:0:
296,40,29928,1,0,2:2:0:0:
304,248,30376,6,0,P|288:302|256:304,1,70,0|0,2:2|2:2,2:2:0:0:
376,264,30824,2,0,P|416:264|440:216,1,70,0|0,2:2|2:2,2:2:0:0:
376,160,31272,1,0,2:2:0:0:
304,232,31496,2,0,L|312:280,1,35,0|0,2:2|2:2,2:2:0:0:
200,128,31943,6,0,P|232:200|176:248,1,140,0|0,2:2|2:2,2:2:0:0:
104,192,32615,1,0,2:2:0:0:
152,288,32839,1,0,2:2:0:0:
240,240,33063,2,0,P|256:288|224:328,1,105,0|0,2:2|2:2,2:2:0:0:
128,80,33958,6,0,P|168:128|160:136,1,70,0|0,2:2|2:2,2:2:0:0:
173,114,34406,1,0,2:2:0:0:
296,160,34630,1,0,2:2:0:0:
264,56,34854,1,0,2:2:0:0:
168,104,35078,2,0,L|184:160,1,35,0|0,2:2|2:2,2:2:0:0:
216,288,35525,6,0,P|280:240|352:232,1,140,0|0,2:2|2:2,2:2:0:0:
328,128,36197,1,0,2:2:0:0:
224,112,36421,2,0,P|160:96|152:112,1,70,0|0,2:2|2:2,2:2:0:0:
168,88,37092,1,0,2:2:0:0:
376,112,37540,6,0,B|288:152|296:160|216:136,3,140,0|0|0|0,2:2|2:2|2:2|2:2,2:2:0:0:
104,296,39331,5,0,2:2:0:0:
264,272,39667,1,0,2:2:0:0:
408,216,40003,1,0,2:2:0:0:
304,112,40227,2,0,B|232:80|224:96|152:96,1,140,0|0,2:2|2:2,2:2:0:0:
376,88,41122,5,0,2:2:0:0:
232,152,41458,1,0,2:2:0:0:
328,280,41794,1,0,2:2:0:0:
104,56,42465,6,0,P|128:104|112:136,1,70,0|0,2:2|2:2,2:2:0:0:
224,160,42913,1,0,2:2:0:0:
192,264,43137,2,0,L|160:304,1,35,0|0,2:2|2:2,2:2:0:0:
192,136,43585,5,0,2:2:0:0:
296,152,43809,1,0,2:2:0:0:
224,232,44032,2,0,L|176:256,1,35,0|0,2:2|2:2,2:2:0:0:
344,176,44480,5,0,2:2:0:0:
256,120,44704,1,0,2:2:0:0:
160,152,44928,2,0,L|112:176,1,35,0|0,2:2|2:2,2:2:0:0:
24,288,45376,6,0,P|72:288|96:264,1,70,0|0,2:2|2:2,2:2:0:0:
240,248,45935,1,0,2:2:0:0:
104,168,46271,1,0,2:2:0:0:
208,64,46495,2,0,B|120:176|208:288|352:136|336:32|0:120,1,490,0|0,2:2|2:2,2:2:0:0:
48,216,48286,6,4,P|96:256|144:248,2,105,4|4|4,2:2|2:2|2:2,2:2:0:0:
464,168,49405,5,10,2:2:0:0:
192,272,49629,2,10,P|152:320|48:304,1,140,10|10,2:2|2:2,2:2:0:0:
128,120,50077,1,10,2:2:0:0:
424,200,50413,1,10,2:2:0:0:
128,288,50749,1,14,2:2:0:0:
240,64,51207,6,0,B|336:104|336:160|368:176,1,140
224,312,51644,2,10,P|136:336|80:328,1,140,10|10,2:2|2:2,2:2:0:0:
8,32,52204,1,10,2:2:0:0:
296,128,52540,1,14,2:2:0:0:
160,80,52987,6,10,P|200:144|200:232,1,140,10|10,2:2|2:2,2:2:0:0:
384,312,53435,2,10,P|304:328|240:288,1,140,10|10,2:2|2:2,2:2:0:0:
32,64,53995,1,10,2:2:0:0:
344,80,54331,1,14,2:2:0:0:
128,144,54778,6,10,P|176:232|240:248,1,140,10|10,2:2|2:2,2:2:0:0:
416,248,55226,2,10,P|352:328|296:352,1,140,10|10,2:2|2:2,2:2:0:0:
96,112,55786,1,10,2:2:0:0:
408,80,56121,1,14,2:2:0:0:
32,264,56569,6,10,P|104:256|200:224,2,140,10|10|10,2:2|2:2|2:2,2:2:0:0:
216,144,57241,1,10,2:2:0:0:
440,328,57577,1,10,2:2:0:0:
336,32,57912,1,14,2:2:0:0:
208,96,58360,6,10,P|144:144|136:224,1,140,10|10,2:2|2:2,2:2:0:0:
344,168,58808,2,10,B|296:72|272:72|256:32,1,140,10|10,2:2|2:2,2:2:0:0:
16,232,59368,1,10,2:2:0:0:
320,296,59703,1,14,2:2:0:0:
232,112,60151,6,10,B|160:128|176:216|144:224,2,140,10|10|10,2:2|2:2|2:2,2:2:0:0:
432,176,60823,1,10,2:2:0:0:
136,296,61159,1,10,2:2:0:0:
360,72,61494,1,14,2:2:0:0:
168,312,61942,6,10,B|96:240|120:224|48:200,2,140,10|10|10,2:2|2:2|2:2,2:2:0:0:
344,216,62614,1,10,2:2:0:0:
56,96,62950,1,10,2:2:0:0:
368,40,63285,1,14,2:2:0:0:
256,192,63957,5,14,2:2:0:0:
80,48,64405,6,0,P|40:128|56:200,1,140,0|0,2:2|2:2,2:2:0:0:
136,200,64853,2,0,P|176:240|192:224,1,70,0|0,2:2|2:2,2:2:0:0:
280,264,65300,1,0,2:2:0:0:
384,320,65636,2,0,P|296:344|272:328,1,105,0|0,2:2|2:2,2:2:0:0:
352,256,66196,6,0,P|312:336|304:344,1,70,0|0,2:2|2:2,2:2:0:0:
208,280,66643,2,0,P|248:320|232:352,1,70,0|0,2:2|2:2,2:2:0:0:
144,352,67091,1,0,2:2:0:0:
104,256,67315,2,0,L|64:216,1,35,0|0,2:2|2:2,2:2:0:0:
200,136,67763,5,0,2:2:0:0:
304,104,67987,2,0,P|352:120|368:160,1,70,0|0,2:2|2:2,2:2:0:0:
304,224,68434,2,0,P|256:248|232:232,1,70,0|0,2:2|2:2,2:2:0:0:
245,243,68882,1,0,2:2:0:0:
112,160,69218,1,0,2:2:0:0:
248,88,69554,2,0,P|288:104|288:152,1,70,0|0,2:2|2:2,2:2:0:0:
168,120,70673,5,4,2:2:0:0:
328,112,71121,2,4,B|360:184|312:224|320:272,1,140,4|4,2:2|2:2,2:2:0:0:
64,272,78733,5,0,2:2:0:0:
160,232,78956,6,0,P|176:224|248:232,1,70,0|0,2:2|2:2,2:2:0:0:
328,304,79404,2,0,P|272:336|280:360,1,70,0|0,2:2|2:2,2:2:0:0:
160,224,79964,1,0,2:2:0:0:
304,160,80300,5,0,2:2:0:0:
96,136,80747,2,0,P|104:184|144:192,1,70,0|0,2:2|2:2,2:2:0:0:
224,224,81195,2,0,P|160:280|160:288,1,70,0|0,2:2|2:2,2:2:0:0:
304,240,81755,1,0,2:2:0:0:
48,280,82315,6,0,P|112:272|128:256,1,70,0|0,2:2|2:2,2:2:0:0:
216,280,82762,1,0,2:2:0:0:
320,256,82986,1,0,2:2:0:0:
272,160,83210,2,0,P|320:168|352:200,1,70,0|0,2:2|2:2,2:2:0:0:
336,179,83546,1,0,2:2:0:0:
184,224,83882,6,0,B|256:256|256:264|320:232,1,140,0|0,2:2|2:2,2:2:0:0:
392,160,84553,1,0,2:2:0:0:
320,80,84777,1,0,2:2:0:0:
232,136,85001,1,0,2:2:0:0:
144,192,85225,2,0,P|136:240|128:256,1,35,0|0,2:2|2:2,2:2:0:0:
352,72,85896,6,0,P|336:126|312:152,1,70,0|0,2:2|2:2,2:2:0:0:
232,176,86344,2,0,P|192:192|152:176,1,70,0|0,2:2|2:2,2:2:0:0:
72,224,86792,1,0,2:2:0:0:
152,296,87016,2,0,L|160:344,1,35,0|0,2:2|2:2,2:2:0:0:
256,208,87464,6,0,P|288:280|248:328,1,140,0|0,2:2|2:2,2:2:0:0:
360,296,88135,1,0,2:2:0:0:
376,192,88359,1,0,2:2:0:0:
272,160,88583,2,0,P|288:208|344:264,1,105,0|0,2:2|2:2,2:2:0:0:
64,224,89478,6,0,P|104:272|96:280,1,70,0|0,2:2|2:2,2:2:0:0:
109,258,89926,1,0,2:2:0:0:
216,256,90150,1,0,2:2:0:0:
304,200,90374,1,0,2:2:0:0:
400,248,90598,2,0,L|416:304,1,35,0|0,2:2|2:2,2:2:0:0:
256,264,91046,6,0,P|320:216|344:160,1,140,0|0,2:2|2:2,2:2:0:0:
288,72,91717,1,0,2:2:0:0:
208,144,91941,2,0,P|144:128|128:144,1,70,0|0,2:2|2:2,2:2:0:0:
336,224,92613,1,0,2:2:0:0:
200,64,93060,6,0,P|248:104|256:96,2,70,0|0|0,2:2|2:2|2:2,2:2:0:0:
192,192,93732,2,0,P|240:224|264:224,1,70,0|0,2:2|2:2,2:2:0:0:
408,200,94292,1,0,2:2:0:0:
312,72,94628,6,0,P|360:120|344:184,1,140,0|0,2:2|2:2,2:2:0:0:
192,192,95300,2,0,P|240:224|264:224,1,70,0|0,2:2|2:2,2:2:0:0:
408,200,95747,1,0,2:2:0:0:
280,296,96083,1,0,2:2:0:0:
432,80,96642,6,0,P|480:120|472:136,2,70,0|0|0,2:2|2:2|2:2,2:2:0:0:
352,152,97314,2,0,P|400:184|408:208,1,70,0|0,2:2|2:2,2:2:0:0:
312,320,97874,1,0,2:2:0:0:
288,168,98209,6,0,B|216:200|224:216|152:224,1,140,0|0,2:2|2:2,2:2:0:0:
200,128,98881,2,0,B|248:88|296:104|296:96,1,70,0|0,2:2|2:2,2:2:0:0:
360,152,99329,2,0,P|336:200|352:216,2,70,0|0|0,2:2|2:2|2:2,2:2:0:0:
152,168,100225,6,0,P|200:216|280:208,1,140,0|0,2:2|2:2,2:2:0:0:
304,112,100897,2,0,P|352:144|368:176,1,70,0|0,2:2|2:2,2:2:0:0:
296,296,101456,1,0,2:2:0:0:
144,344,101791,5,0,2:2:0:0:
336,264,102239,2,0,P|352:216|344:176,3,70,0|0|0|0,2:2|2:2|2:2|2:2,2:2:0:0:
216,112,103247,1,0,2:2:0:0:
480,112,103806,5,0,2:2:0:0:
392,176,104030,2,0,P|376:240|368:240,3,70,0|0|0|0,2:2|2:2|2:2|2:2,2:2:0:0:
240,184,105038,1,0,2:2:0:0:
176,40,105373,6,0,B|128:128|168:160|128:192,1,140,0|0,2:2|2:2,2:2:0:0:
96,272,106045,1,0,2:2:0:0:
200,240,106269,1,0,2:2:0:0:
304,240,106493,2,0,P|320:296|312:328,2,70,0|0|0,2:2|2:2|2:2,2:2:0:0:
112,152,107388,5,0,2:2:0:0:
192,288,107724,1,0,2:2:0:0:
320,192,108060,1,0,2:2:0:0:
224,144,108284,2,0,B|152:112|152:152|96:192,1,140,0|0,2:2|2:2,2:2:0:0:
280,304,109179,5,0,2:2:0:0:
384,184,109515,1,0,2:2:0:0:
264,88,109851,1,0,2:2:0:0:
288,232,110522,6,0,P|312:280|336:280,1,70,0|0,2:2|2:2,2:2:0:0:
360,184,110970,1,0,2:2:0:0:
296,96,111194,2,0,L|264:136,1,35,0|0,2:2|2:2,2:2:0:0:
120,136,111642,5,0,2:2:0:0:
80,232,111866,1,0,2:2:0:0:
176,280,112089,2,0,L|216:272,1,35,0|0,2:2|2:2,2:2:0:0:
168,120,112537,5,0,2:2:0:0:
64,136,112761,1,0,2:2:0:0:
152,200,112985,2,0,L|168:240,1,35,0|0,2:2|2:2,2:2:0:0:
320,232,113433,6,0,P|368:232|392:256,1,70,0|0,2:2|2:2,2:2:0:0:
240,304,113992,1,0,2:2:0:0:
80,288,114328,1,0,2:2:0:0:
136,200,114552,2,0,B|264:88|288:184|400:64|240:312|160:304|160:88|272:16,1,490,0|0,2:2|2:2,2:2:0:0:
264,128,116343,6,4,P|312:168|312:224,2,105,4|4|4,2:2|2:2|2:2,2:2:0:0:
176,192,117462,5,10,2:2:0:0:
384,232,117686,2,10,P|344:280|240:264,1,140,10|10,2:2|2:2,2:2:0:0:
200,88,118134,1,10,2:2:0:0:
512,144,118470,1,10,2:2:0:0:
232,288,118806,1,14,2:2:0:0:
88,80,119253,6,10,P|192:128|208:152,1,140,10|10,2:2|2:2,2:2:0:0:
368,280,119701,2,10,P|280:304|224:272,1,140,10|10,2:2|2:2,2:2:0:0:
16,56,120261,1,10,2:2:0:0:
328,120,120597,1,14,2:2:0:0:
328,120,121044,6,10,P|368:184|336:256,1,140,10|10,2:2|2:2,2:2:0:0:
144,200,121492,2,10,P|64:216|16:184,1,140,10|10,2:2|2:2,2:2:0:0:
304,56,122052,1,10,2:2:0:0:
432,344,122388,1,14,2:2:0:0:
72,120,122835,6,10,P|120:208|192:192,1,140,10|10,2:2|2:2,2:2:0:0:
360,216,123283,2,10,P|296:296|216:296,1,140,10|10,2:2|2:2,2:2:0:0:
88,40,123843,1,10,2:2:0:0:
384,152,124178,1,14,2:2:0:0:
152,248,124626,6,10,P|232:272|296:256,2,140,10|10|10,2:2|2:2|2:2,2:2:0:0:
272,72,125298,1,10,2:2:0:0:
488,304,125634,1,10,2:2:0:0:
176,248,125969,1,14,2:2:0:0:
120,80,126417,6,10,P|56:128|64:200,1,140,10|10,2:2|2:2,2:2:0:0:
256,240,126865,2,10,B|208:176|184:176|168:120,1,140,10|10,2:2|2:2,2:2:0:0:
464,240,127425,1,10,2:2:0:0:
168,336,127761,1,14,2:2:0:0:
232,112,128208,6,10,B|160:136|176:224|80:224,2,140,10|10|10,2:2|2:2|2:2,2:2:0:0:
232,112,128880,1,10,2:2:0:0:
464,328,129216,1,10,2:2:0:0:
336,40,129551,1,14,2:2:0:0:
224,288,129999,6,10,B|160:216|184:200|80:160,2,140,10|10|10,2:2|2:2|2:2,2:2:0:0:
408,192,130671,1,10,2:2:0:0:
112,96,131007,1,10,2:2:0:0:
376,272,131342,1,14,2:2:0:0:
256,192,132027,5,14,2:2:0:0:
384,24,132462,6,0,P|344:104|344:112,1,70,0|0,2:2|2:2,2:2:0:0:
256,144,132910,2,0,P|296:184|280:216,1,70,0|0,2:2|2:2,2:2:0:0:
208,248,133357,1,0,2:2:0:0:
336,336,133693,2,0,P|248:360|224:344,1,105,0|0,2:2|2:2,2:2:0:0:
208,256,134253,6,0,P|168:336|168:344,1,70,0|0,2:2|2:2,2:2:0:0:
272,304,134700,2,0,P|312:344|344:352,1,70,0|0,2:2|2:2,2:2:0:0:
376,256,135148,1,0,2:2:0:0:
328,168,135372,2,0,L|288:128,1,35,0|0,2:2|2:2,2:2:0:0:
152,112,135820,5,0,2:2:0:0:
104,208,136044,2,0,P|152:224|176:248,1,70,0|0,2:2|2:2,2:2:0:0:
232,320,136491,2,0,P|184:344|160:328,1,70,0|0,2:2|2:2,2:2:0:0:
88,280,136939,1,0,2:2:0:0:
136,128,137275,1,0,2:2:0:0:
296,128,137611,2,0,P|336:144|336:192,1,70,0|0,2:2|2:2,2:2:0:0:
296,128,138730,5,4,2:2:0:0:
352,96,139626,6,2,B|408:136|384:176|424:224,1,140,2|2,2:2|2:2,2:2:0:0:
224,136,140521,2,2,B|240:192|248:232|192:296,1,140,2|2,2:2|2:2,2:2:0:0:
48,144,141417,2,2,B|104:184|80:224|144:248,1,140,2|2,2:2|2:2,2:2:0:0:
328,152,142312,2,2,P|360:200|360:224,2,70,2|2|2,2:2|2:2|2:2,2:2:0:0:
120,112,143208,6,2,B|176:152|152:192|192:240,1,140,2|2,2:2|2:2,2:2:0:0:
344,88,144103,2,2,B|360:144|368:184|312:248,1,140,2|2,2:2|2:2,2:2:0:0:
120,208,144999,2,2,B|176:248|152:288|216:312,1,140,2|2,2:2|2:2,2:2:0:0:
408,232,145894,2,2,P|440:280|440:304,2,70,2|2|2,2:2|2:2|2:2,2:2:0:0:
240,104,146790,6,2,B|296:144|272:184|312:232,1,140,2|2,2:2|2:2,2:2:0:0:
440,64,147685,2,2,B|456:120|464:160|408:224,1,140,2|2,2:2|2:2,2:2:0:0:
224,264,148581,2,2,B|280:304|328:344|320:368,1,140,2|2,2:2|2:2,2:2:0:0:
144,256,149476,2,2,P|176:304|200:312,2,70,2|2|2,2:2|2:2|2:2,2:2:0:0:
440,152,150596,6,2,P|392:184|376:200,1,70,2|2,2:2|2:2,2:2:0:0:
176,144,151267,2,2,P|160:192|168:216,1,70,2|2,2:2|2:2,2:2:0:0:
272,24,151939,2,2,P|320:72|344:80,1,70,2|2,2:2|2:2,2:2:0:0:
304,280,152610,2,6,P|264:304|240:328,1,70,6|6,2:2|2:2,2:2:0:0:
352,96,153954,6,10,B|408:136|432:176|472:152,1,140,10|10,2:2|2:2,2:2:0:0:
264,136,154849,2,10,B|280:192|320:176|344:256,1,140,10|10,2:2|2:2,2:2:0:0:
136,192,155745,2,10,B|176:200|160:304|232:296,1,140,10|10,2:2|2:2,2:2:0:0:
424,256,156640,2,10,P|456:304|456:328,2,70,10|10|10,2:2|2:2|2:2,2:2:0:0:
120,112,157536,6,10,B|192:144|152:192|192:240,1,140,10|10,2:2|2:2,2:2:0:0:
392,176,158431,2,10,B|352:232|416:272|360:336,1,140,10|10,2:2|2:2,2:2:0:0:
192,216,159327,2,10,B|248:256|312:248|288:320,1,140,10|10,2:2|2:2,2:2:0:0:
384,112,160222,2,10,P|416:160|416:184,2,70,10|10|10,2:2|2:2|2:2,2:2:0:0:
240,104,161118,6,10,B|312:144|272:184|312:232,1,140,10|10,2:2|2:2,2:2:0:0:
112,136,162013,2,10,B|80:184|136:232|80:296,1,140,10|10,2:2|2:2,2:2:0:0:
272,152,162909,2,10,B|280:216|376:232|368:256,1,140,10|10,2:2|2:2,2:2:0:0:
168,176,163804,2,10,P|200:224|224:232,2,70,10|10|10,2:2|2:2|2:2,2:2:0:0:
440,152,164924,6,10,P|392:184|376:200,1,70,10|10,2:2|2:2,2:2:0:0:
184,248,165595,2,10,P|168:296|176:320,1,70,10|10,2:2|2:2,2:2:0:0:
264,128,166267,2,14,P|312:176|336:184,1,70,14|14,2:2|2:2,2:2:0:0:
256,192,166714,12,0,167946,2:2:0:0:
216,192,168281,5,0,2:2:0:0:
328,304,168617,1,0,2:2:0:0:
392,160,168953,1,0,2:2:0:0:
312,232,169177,2,0,B|240:200|232:216|176:192,1,140,0|0,2:2|2:2,2:2:0:0:
80,184,170072,5,0,2:2:0:0:
224,112,170408,1,0,2:2:0:0:
352,208,170744,1,0,2:2:0:0:
40,256,171415,6,0,P|64:304|96:320,1,70,0|0,2:2|2:2,2:2:0:0:
144,232,171863,1,0,2:2:0:0:
248,232,172087,2,0,L|288:240,1,35,0|0,2:2|2:2,2:2:0:0:
240,88,172535,5,0,2:2:0:0:
328,136,172759,1,0,2:2:0:0:
272,224,172982,2,0,L|224:248,1,35,0|0,2:2|2:2,2:2:0:0:
360,136,173430,5,0,2:2:0:0:
264,240,173654,1,0,2:2:0:0:
224,144,173878,2,0,L|176:168,1,35,0|0,2:2|2:2,2:2:0:0:
104,288,174326,6,0,P|152:288|200:296,1,70,0|0,2:2|2:2,2:2:0:0:
304,200,174885,1,0,2:2:0:0:
176,104,175221,1,0,2:2:0:0:
280,80,175445,2,0,B|184:192|312:264|448:216|168:336|32:168|168:32|304:120,1,490,0|0,2:2|2:2,2:2:0:0:
376,144,177236,6,4,P|424:184|432:248,2,105,4|4|4,2:2|2:2|2:2,2:2:0:0:
168,152,178370,6,2,P|168:216|232:240,2,140,2|2|2,2:2|2:2|2:2,2:2:0:0:
200,64,179041,1,2,2:2:0:0:
384,320,179489,1,2,2:2:0:0:
360,8,179937,1,2,2:2:0:0:
160,248,180384,1,2,2:2:0:0:
424,72,180832,2,2,P|432:152|336:256,2,210,2|2|2,2:2|2:2|2:2,2:2:0:0:
112,16,181952,6,2,P|136:64|192:136,2,140,2|2|2,2:2|2:2|2:2,2:2:0:0:
264,48,182623,1,2,2:2:0:0:
72,296,183071,1,2,2:2:0:0:
352,152,183519,1,2,2:2:0:0:
40,136,183967,1,2,2:2:0:0:
456,96,184414,2,2,P|464:216|408:288,2,210,2|2|2,2:2|2:2|2:2,2:2:0:0:
64,136,185534,6,2,P|88:184|160:256,2,140,2|2|2,2:2|2:2|2:2,2:2:0:0:
272,112,186205,2,2,P|200:208|240:288,2,210,2|2|2,2:2|2:2|2:2,2:2:0:0:
296,96,187325,2,2,P|328:160|304:240,2,140,2|2|2,2:2|2:2|2:2,2:2:0:0:
496,152,187996,2,2,P|488:272|432:344,2,210,2|2|2,2:2|2:2|2:2,2:2:0:0:
168,8,189116,6,2,P|192:56|264:144,2,140,2|2|2,2:2|2:2|2:2,2:2:0:0:
32,168,189787,2,2,P|88:216|168:328,2,210,2|2|2,2:2|2:2|2:2,2:2:0:0:
448,232,190907,2,2,P|480:312|528:336,2,140,2|2|2,2:2|2:2|2:2,2:2:0:0:
264,128,191578,2,2,P|264:224|168:288,2,210,2|2|2,2:2|2:2|2:2,2:2:0:0:
256,72,192474,5,0,2:2:0:0:
464,168,192698,5,10,2:2:0:0:
192,272,192922,2,10,P|152:320|48:304,1,140,10|10,2:2|2:2,2:2:0:0:
128,120,193370,1,10,2:2:0:0:
432,200,193706,1,10,2:2:0:0:
128,288,194042,1,10,2:2:0:0:
360,64,194489,6,10,P|464:112|480:136,1,140,10|10,2:2|2:2,2:2:0:0:
288,216,194937,2,10,P|200:240|144:208,1,140,10|10,2:2|2:2,2:2:0:0:
0,32,195497,1,10,2:2:0:0:
296,128,195833,1,10,2:2:0:0:
376,24,196280,6,10,P|416:88|432:168,1,140,10|10,2:2|2:2,2:2:0:0:
224,112,196728,2,10,P|144:128|120:176,1,140,10|10,2:2|2:2,2:2:0:0:
432,216,197288,1,10,2:2:0:0:
136,320,197624,1,14,2:2:0:0:
104,152,198070,6,10,P|152:72|216:56,2,140,10|10|10,2:2|2:2|2:2,2:2:0:0:
296,240,198742,1,10,2:2:0:0:
32,72,199078,1,10,2:2:0:0:
168,352,199413,1,14,2:2:0:0:
168,72,199861,6,10,P|104:120|88:184,1,140,10|10,2:2|2:2,2:2:0:0:
296,208,200309,2,10,B|248:144|224:144|264:80,1,140,10|10,2:2|2:2,2:2:0:0:
0,256,200869,1,10,2:2:0:0:
312,312,201204,1,14,2:2:0:0:
152,48,201652,6,10,B|80:72|96:160|88:224,2,140,10|10|10,2:2|2:2|2:2,2:2:0:0:
360,80,202324,1,10,2:2:0:0:
184,344,202660,1,10,2:2:0:0:
24,136,202995,1,14,2:2:0:0:
432,232,203443,6,10,B|368:160|392:144|328:184,2,140,10|10|10,2:2|2:2|2:2,2:2:0:0:
248,336,204115,1,10,2:2:0:0:
56,80,204451,1,10,2:2:0:0:
368,48,204786,1,14,2:2:0:0:
96,368,205234,6,10,B|32:296|56:280|80:224,2,140,10|10|10,2:2|2:2|2:2,2:2:0:0:
288,280,205906,1,10,2:2:0:0:
40,88,206242,1,10,2:2:0:0:
344,176,206577,1,14,2:2:0:0:
256,160,207249,5,14,2:2:0:0:
48,152,207683,6,0,P|8:232|8:240,1,70,0|0,2:2|2:2,2:2:0:0:
112,224,208131,2,0,P|168:280|176:280,1,70,0|0,2:2|2:2,2:2:0:0:
256,272,208578,1,0,2:2:0:0:
272,112,208914,2,0,P|184:136|176:152,1,105,0|0,2:2|2:2,2:2:0:0:
128,232,209474,6,0,P|120:288|96:312,1,70,0|0,2:2|2:2,2:2:0:0:
216,280,209921,2,0,P|256:320|256:352,1,70,0|0,2:2|2:2,2:2:0:0:
152,344,210369,1,0,2:2:0:0:
160,264,210593,2,0,L|168:216,1,35,0|0,2:2|2:2,2:2:0:0:
200,136,211041,5,0,2:2:0:0:
304,168,211265,2,0,P|352:184|400:168,1,70,0|0,2:2|2:2,2:2:0:0:
376,288,211712,2,0,P|328:312|304:296,1,70,0|0,2:2|2:2,2:2:0:0:
240,240,212160,1,0,2:2:0:0:
128,128,212496,1,0,2:2:0:0:
288,112,212832,2,0,P|328:128|360:160,1,70,0|0,2:2|2:2,2:2:0:0:
256,192,213168,12,4,213951,2:2:0:0:
