osu file format v14

[General]
AudioFilename: asdf.mp3
AudioLeadIn: 0
PreviewTime: 174265
Countdown: 1
SampleSet: Normal
StackLeniency: 0.7
Mode: 1
LetterboxInBreaks: 0
WidescreenStoryboard: 0

[Editor]
DistanceSpacing: 1.9
BeatDivisor: 4
GridSize: 32
TimelineZoom: 3.199999

[Metadata]
Title:HIBANA feat. Hatsune Miku
TitleUnicode:HIBANA feat. Hatsune Miku
Artist:Deco*27
ArtistUnicode:Deco*27
Creator:Raphalge
Version:Inner Oni
Source:
Tags:
BeatmapID:2033692
BeatmapSetID:971291

[Difficulty]
HPDrainRate:6
CircleSize:2
OverallDifficulty:6
ApproachRate:10
SliderMultiplier:1.4
SliderTickRate:1

[Events]
//Background and Video events
0,0,"HIBANA.jpg",0,0
//Break Periods
//Storyboard Layer 0 (Background)
//Storyboard Layer 1 (Fail)
//Storyboard Layer 2 (Pass)
//Storyboard Layer 3 (Foreground)
//Storyboard Sound Samples

[TimingPoints]
565,300,4,1,0,75,1,0
46165,-100,4,1,0,75,0,1
64165,-100,4,1,0,75,0,0
103765,-100,4,1,0,75,0,1
121765,-100,4,1,0,75,0,0
174565,-100,4,1,0,75,0,1
200815,-100,4,1,0,75,0,0

[HitObjects]
256,193,565,5,4,0:0:0:0:
248,193,765,1,12,0:0:0:0:
248,193,965,1,12,0:0:0:0:
248,193,1165,1,4,0:0:0:0:
248,193,1365,1,12,0:0:0:0:
248,193,1565,1,12,0:0:0:0:
248,193,1765,1,4,0:0:0:0:
248,193,1965,1,12,0:0:0:0:
248,193,2165,1,12,0:0:0:0:
248,193,2365,1,4,0:0:0:0:
236,179,2665,1,8,0:0:0:0:
269,179,2965,1,0,0:0:0:0:
269,179,3040,1,0,0:0:0:0:
269,179,3115,1,0,0:0:0:0:
269,179,3190,1,0,0:0:0:0:
269,179,3265,1,8,0:0:0:0:
270,176,3340,1,8,0:0:0:0:
270,173,3415,1,0,0:0:0:0:
270,174,3490,1,0,0:0:0:0:
269,177,3565,1,0,0:0:0:0:
253,183,3640,1,0,0:0:0:0:
253,183,3715,1,8,0:0:0:0:
253,183,3790,1,0,0:0:0:0:
253,172,3865,1,8,0:0:0:0:
253,172,3940,1,8,0:0:0:0:
253,172,4015,1,0,0:0:0:0:
253,172,4090,1,0,0:0:0:0:
253,172,4165,1,8,0:0:0:0:
233,169,4240,1,8,0:0:0:0:
232,169,4315,1,0,0:0:0:0:
232,169,4390,1,0,0:0:0:0:
232,169,4465,1,8,0:0:0:0:
232,169,4540,1,0,0:0:0:0:
232,169,4615,1,8,0:0:0:0:
232,169,4690,1,8,0:0:0:0:
232,169,4765,1,0,0:0:0:0:
241,163,4840,1,0,0:0:0:0:
241,163,4915,1,8,0:0:0:0:
241,164,4990,1,0,0:0:0:0:
241,164,5065,1,8,0:0:0:0:
241,164,5140,1,8,0:0:0:0:
242,208,5215,1,0,0:0:0:0:
242,208,5290,1,8,0:0:0:0:
221,159,5365,1,0,0:0:0:0:
247,193,5440,1,0,0:0:0:0:
247,193,5515,1,8,0:0:0:0:
247,193,5590,1,8,0:0:0:0:
247,193,5665,1,0,0:0:0:0:
247,193,5740,1,0,0:0:0:0:
246,192,5815,1,8,0:0:0:0:
245,192,5890,1,0,0:0:0:0:
245,192,5965,1,8,0:0:0:0:
242,192,6040,1,0,0:0:0:0:
241,192,6115,1,8,0:0:0:0:
239,190,6190,1,8,0:0:0:0:
239,190,6265,1,0,0:0:0:0:
239,190,6340,1,0,0:0:0:0:
223,170,6415,1,8,0:0:0:0:
231,172,6490,1,8,0:0:0:0:
231,172,6565,1,0,0:0:0:0:
272,224,6715,1,8,0:0:0:0:
272,224,6865,1,0,0:0:0:0:
256,208,7015,1,8,0:0:0:0:
256,208,7165,1,8,0:0:0:0:
256,208,7315,1,0,0:0:0:0:
266,203,7465,1,8,0:0:0:0:
300,268,7540,1,8,0:0:0:0:
300,268,7615,1,8,0:0:0:0:
292,256,7690,1,8,0:0:0:0:
292,256,7765,1,4,0:0:0:0:
351,252,7915,1,8,0:0:0:0:
351,252,8065,1,0,0:0:0:0:
368,256,8215,1,8,0:0:0:0:
368,256,8290,1,8,0:0:0:0:
368,256,8365,1,0,0:0:0:0:
368,256,8440,1,0,0:0:0:0:
294,227,8515,1,8,0:0:0:0:
294,227,8665,1,8,0:0:0:0:
308,237,8815,1,0,0:0:0:0:
308,237,8890,1,0,0:0:0:0:
308,237,8965,1,8,0:0:0:0:
308,237,9040,1,0,0:0:0:0:
308,237,9115,1,8,0:0:0:0:
308,237,9190,1,8,0:0:0:0:
308,237,9265,1,0,0:0:0:0:
306,245,9415,1,8,0:0:0:0:
327,229,9565,1,8,0:0:0:0:
327,227,9640,1,0,0:0:0:0:
321,220,9715,1,8,0:0:0:0:
321,220,9790,1,8,0:0:0:0:
322,222,9865,1,0,0:0:0:0:
333,226,10015,1,0,0:0:0:0:
304,224,10090,1,0,0:0:0:0:
384,256,10165,1,8,0:0:0:0:
368,240,10315,1,8,0:0:0:0:
384,240,10465,1,0,0:0:0:0:
384,240,10615,1,8,0:0:0:0:
384,240,10690,1,8,0:0:0:0:
384,240,10765,1,0,0:0:0:0:
368,240,10840,1,0,0:0:0:0:
325,244,10915,1,8,0:0:0:0:
311,216,11065,1,8,0:0:0:0:
263,188,11215,1,0,0:0:0:0:
263,188,11290,1,8,0:0:0:0:
263,188,11365,1,0,0:0:0:0:
263,188,11440,1,0,0:0:0:0:
326,229,11515,1,8,0:0:0:0:
347,250,11590,1,0,0:0:0:0:
348,249,11665,1,8,0:0:0:0:
346,248,11740,1,8,0:0:0:0:
346,248,11815,1,0,0:0:0:0:
346,254,11965,1,8,0:0:0:0:
336,242,12115,1,0,0:0:0:0:
336,242,12190,1,0,0:0:0:0:
336,242,12265,1,8,0:0:0:0:
336,242,12340,1,8,0:0:0:0:
336,242,12415,1,8,0:0:0:0:
336,242,12490,1,8,0:0:0:0:
337,242,12565,1,0,0:0:0:0:
352,224,12715,1,8,0:0:0:0:
352,224,12865,1,0,0:0:0:0:
336,208,13015,1,8,0:0:0:0:
336,208,13090,1,8,0:0:0:0:
336,208,13165,1,0,0:0:0:0:
320,208,13240,1,0,0:0:0:0:
320,208,13315,1,8,0:0:0:0:
320,224,13465,1,8,0:0:0:0:
320,224,13615,1,0,0:0:0:0:
320,224,13690,1,0,0:0:0:0:
320,224,13765,1,8,0:0:0:0:
320,224,13840,1,0,0:0:0:0:
320,224,13915,1,8,0:0:0:0:
320,224,13990,1,8,0:0:0:0:
320,224,14065,1,0,0:0:0:0:
320,224,14215,1,8,0:0:0:0:
304,224,14365,1,8,0:0:0:0:
304,224,14440,1,0,0:0:0:0:
304,224,14515,1,8,0:0:0:0:
320,224,14590,1,8,0:0:0:0:
320,224,14665,1,0,0:0:0:0:
336,240,14740,1,0,0:0:0:0:
336,240,14815,1,8,0:0:0:0:
336,240,14890,1,8,0:0:0:0:
336,240,14965,1,4,0:0:0:0:
336,224,15115,1,8,0:0:0:0:
336,224,15265,1,8,0:0:0:0:
352,240,15415,1,4,0:0:0:0:
336,224,15565,1,8,0:0:0:0:
336,224,15715,1,0,0:0:0:0:
352,256,15865,1,12,0:0:0:0:
352,288,16015,1,8,0:0:0:0:
352,256,16165,1,4,0:0:0:0:
352,256,16315,1,8,0:0:0:0:
352,256,16390,1,8,0:0:0:0:
352,256,16465,1,8,0:0:0:0:
352,256,16615,1,0,0:0:0:0:
368,256,16765,1,12,0:0:0:0:
432,272,16915,1,0,0:0:0:0:
432,272,17065,1,4,0:0:0:0:
432,272,17215,1,8,0:0:0:0:
256,192,17365,1,4,0:0:0:0:
256,192,17815,1,8,0:0:0:0:
256,192,17965,1,0,0:0:0:0:
256,192,18115,1,8,0:0:0:0:
256,192,18265,1,8,0:0:0:0:
256,192,18415,1,0,0:0:0:0:
272,224,18715,1,0,0:0:0:0:
272,208,19015,1,8,0:0:0:0:
272,224,19315,1,0,0:0:0:0:
272,224,19465,1,8,0:0:0:0:
272,224,19615,1,8,0:0:0:0:
272,224,19765,1,0,0:0:0:0:
288,224,20215,1,0,0:0:0:0:
304,240,20365,1,8,0:0:0:0:
304,240,20515,1,8,0:0:0:0:
304,240,20665,1,0,0:0:0:0:
304,240,20815,1,8,0:0:0:0:
304,240,21115,1,8,0:0:0:0:
233,292,21415,1,0,0:0:0:0:
304,272,21565,1,8,0:0:0:0:
304,272,21640,1,8,0:0:0:0:
304,272,21715,1,0,0:0:0:0:
304,272,21790,1,0,0:0:0:0:
304,272,21865,1,8,0:0:0:0:
304,256,22015,1,0,0:0:0:0:
272,256,22165,1,12,0:0:0:0:
272,256,22315,1,8,0:0:0:0:
272,256,22465,1,0,0:0:0:0:
280,271,22615,1,8,0:0:0:0:
280,271,22690,1,0,0:0:0:0:
280,271,22765,1,8,0:0:0:0:
286,275,22840,1,8,0:0:0:0:
279,272,22915,1,0,0:0:0:0:
279,272,23065,1,8,0:0:0:0:
279,298,23215,1,0,0:0:0:0:
271,287,23365,1,12,0:0:0:0:
270,287,23515,1,8,0:0:0:0:
270,287,23665,1,0,0:0:0:0:
270,282,23815,1,8,0:0:0:0:
270,282,23890,1,8,0:0:0:0:
270,282,23965,1,0,0:0:0:0:
270,282,24115,1,0,0:0:0:0:
271,287,24265,1,8,0:0:0:0:
262,294,24415,1,0,0:0:0:0:
250,290,24565,1,12,0:0:0:0:
250,290,24715,1,8,0:0:0:0:
252,288,24865,1,4,0:0:0:0:
253,283,25015,1,8,0:0:0:0:
253,283,25090,1,0,0:0:0:0:
253,283,25165,1,8,0:0:0:0:
247,283,25240,1,8,0:0:0:0:
247,282,25315,1,0,0:0:0:0:
244,276,25390,1,0,0:0:0:0:
244,276,25465,1,8,0:0:0:0:
244,276,25615,1,0,0:0:0:0:
203,242,25765,1,12,0:0:0:0:
203,242,25915,1,8,0:0:0:0:
238,238,26065,1,4,0:0:0:0:
203,242,26215,1,8,0:0:0:0:
236,244,26365,1,4,0:0:0:0:
203,242,26515,1,0,0:0:0:0:
271,266,26665,1,12,0:0:0:0:
224,256,26965,1,4,0:0:0:0:
224,256,27115,1,8,0:0:0:0:
224,256,27265,1,8,0:0:0:0:
224,256,27415,1,0,0:0:0:0:
224,224,27490,1,0,0:0:0:0:
224,224,27565,1,8,0:0:0:0:
224,224,27715,1,8,0:0:0:0:
224,224,27865,1,0,0:0:0:0:
224,224,28015,1,8,0:0:0:0:
224,224,28090,1,8,0:0:0:0:
256,224,28165,1,0,0:0:0:0:
224,224,28315,1,0,0:0:0:0:
192,224,28390,1,8,0:0:0:0:
192,224,28465,1,0,0:0:0:0:
192,224,28615,1,8,0:0:0:0:
192,192,28765,1,0,0:0:0:0:
292,286,28915,1,8,0:0:0:0:
292,286,28990,1,0,0:0:0:0:
292,286,29065,1,8,0:0:0:0:
298,294,29140,1,8,0:0:0:0:
298,294,29215,1,0,0:0:0:0:
298,294,29290,1,0,0:0:0:0:
298,294,29365,1,8,0:0:0:0:
309,302,29515,1,8,0:0:0:0:
295,326,29665,1,0,0:0:0:0:
293,326,29815,1,8,0:0:0:0:
293,326,29890,1,0,0:0:0:0:
291,327,29965,1,8,0:0:0:0:
291,326,30115,1,8,0:0:0:0:
224,224,30265,1,0,0:0:0:0:
224,224,30415,1,8,0:0:0:0:
224,224,30490,1,8,0:0:0:0:
224,224,30565,1,0,0:0:0:0:
224,256,30715,1,0,0:0:0:0:
224,256,30790,1,8,0:0:0:0:
224,256,30865,1,0,0:0:0:0:
224,256,31015,1,8,0:0:0:0:
224,224,31165,1,0,0:0:0:0:
256,256,31240,1,0,0:0:0:0:
256,256,31315,1,8,0:0:0:0:
256,256,31390,1,8,0:0:0:0:
256,256,31465,1,0,0:0:0:0:
288,288,31615,1,0,0:0:0:0:
256,256,31765,1,8,0:0:0:0:
256,256,31915,1,8,0:0:0:0:
256,288,32065,1,0,0:0:0:0:
285,296,32215,1,8,0:0:0:0:
285,296,32290,1,8,0:0:0:0:
268,303,32365,1,0,0:0:0:0:
261,317,32515,1,8,0:0:0:0:
259,304,32665,1,8,0:0:0:0:
259,304,32740,1,0,0:0:0:0:
259,304,32815,1,8,0:0:0:0:
259,304,32890,1,8,0:0:0:0:
259,304,32965,1,0,0:0:0:0:
261,305,33115,1,8,0:0:0:0:
258,302,33190,1,8,0:0:0:0:
258,301,33265,1,0,0:0:0:0:
261,308,33415,1,8,0:0:0:0:
282,294,33490,1,8,0:0:0:0:
282,294,33565,1,0,0:0:0:0:
281,293,33715,1,0,0:0:0:0:
259,304,33865,1,8,0:0:0:0:
253,306,34015,1,0,0:0:0:0:
248,291,34090,1,8,0:0:0:0:
253,306,34165,1,0,0:0:0:0:
248,291,34240,1,0,0:0:0:0:
248,293,34315,1,8,0:0:0:0:
239,271,34465,1,8,0:0:0:0:
294,323,34615,1,0,0:0:0:0:
294,323,34765,1,8,0:0:0:0:
294,323,34840,1,8,0:0:0:0:
294,323,34915,1,0,0:0:0:0:
431,276,34990,1,0,0:0:0:0:
266,313,35065,1,8,0:0:0:0:
349,308,35215,1,0,0:0:0:0:
345,293,35290,1,8,0:0:0:0:
345,293,35365,1,8,0:0:0:0:
337,296,35515,1,0,0:0:0:0:
337,296,35590,1,0,0:0:0:0:
336,296,35665,1,8,0:0:0:0:
326,309,35815,1,0,0:0:0:0:
326,310,35965,1,8,0:0:0:0:
315,283,36115,1,8,0:0:0:0:
315,284,36265,1,0,0:0:0:0:
256,192,36565,5,4,0:0:0:0:
256,256,36715,1,4,0:0:0:0:
256,256,36865,1,8,0:0:0:0:
256,256,37015,1,0,0:0:0:0:
256,256,37090,1,8,0:0:0:0:
256,256,37165,1,0,0:0:0:0:
256,256,37315,1,0,0:0:0:0:
256,256,37465,1,8,0:0:0:0:
256,288,37615,1,4,0:0:0:0:
256,288,37765,1,8,0:0:0:0:
256,288,37915,1,4,0:0:0:0:
256,288,38065,1,0,0:0:0:0:
256,192,38215,1,8,0:0:0:0:
256,192,38290,1,0,0:0:0:0:
256,192,38365,1,8,0:0:0:0:
288,256,38440,1,8,0:0:0:0:
256,192,38515,1,0,0:0:0:0:
256,192,38665,1,0,0:0:0:0:
256,256,38815,1,8,0:0:0:0:
256,256,38965,1,4,0:0:0:0:
256,256,39115,1,4,0:0:0:0:
256,256,39265,1,8,0:0:0:0:
256,224,39415,1,0,0:0:0:0:
256,224,39490,1,8,0:0:0:0:
256,224,39565,1,0,0:0:0:0:
256,224,39715,1,0,0:0:0:0:
256,224,39865,1,8,0:0:0:0:
288,256,40015,1,4,0:0:0:0:
288,256,40165,1,8,0:0:0:0:
288,256,40315,1,4,0:0:0:0:
256,224,40465,1,0,0:0:0:0:
256,224,40615,1,8,0:0:0:0:
256,224,40690,1,0,0:0:0:0:
256,224,40765,1,8,0:0:0:0:
256,224,40840,1,8,0:0:0:0:
256,224,40915,1,0,0:0:0:0:
256,256,41065,1,8,0:0:0:0:
288,256,41215,1,0,0:0:0:0:
288,256,41290,1,0,0:0:0:0:
288,256,41365,1,8,0:0:0:0:
288,256,41440,1,0,0:0:0:0:
288,256,41515,1,8,0:0:0:0:
288,256,41590,1,8,0:0:0:0:
288,256,41665,1,0,0:0:0:0:
288,224,41740,1,0,0:0:0:0:
288,224,41815,1,8,0:0:0:0:
288,224,41890,1,8,0:0:0:0:
288,224,41965,1,0,0:0:0:0:
288,256,42040,1,0,0:0:0:0:
288,256,42115,1,8,0:0:0:0:
288,256,42190,1,8,0:0:0:0:
288,256,42265,1,0,0:0:0:0:
288,256,42340,1,0,0:0:0:0:
320,320,42415,1,8,0:0:0:0:
320,320,42490,1,0,0:0:0:0:
320,320,42565,1,8,0:0:0:0:
320,320,42640,1,0,0:0:0:0:
320,320,42715,1,8,0:0:0:0:
320,320,42790,1,8,0:0:0:0:
320,320,42865,1,0,0:0:0:0:
320,320,42940,1,8,0:0:0:0:
320,320,43015,1,0,0:0:0:0:
288,320,43090,1,0,0:0:0:0:
288,320,43165,1,8,0:0:0:0:
288,320,43240,1,0,0:0:0:0:
288,320,43315,1,8,0:0:0:0:
288,320,43390,1,8,0:0:0:0:
288,320,43465,1,0,0:0:0:0:
288,288,43540,1,0,0:0:0:0:
288,320,43615,1,8,0:0:0:0:
288,288,43690,1,8,0:0:0:0:
256,192,43765,5,4,0:0:0:0:
256,192,43915,1,4,0:0:0:0:
256,192,44065,1,8,0:0:0:0:
256,192,44215,1,4,0:0:0:0:
256,192,44365,1,4,0:0:0:0:
256,192,44515,1,8,0:0:0:0:
256,192,44665,1,4,0:0:0:0:
272,176,44815,1,4,0:0:0:0:
256,192,45565,5,0,0:0:0:0:
256,192,45640,1,8,0:0:0:0:
256,192,45715,1,8,0:0:0:0:
256,192,45790,1,0,0:0:0:0:
240,192,45865,1,8,0:0:0:0:
240,192,45940,1,0,0:0:0:0:
240,192,46015,1,8,0:0:0:0:
240,192,46090,1,8,0:0:0:0:
256,176,46165,1,4,0:0:0:0:
384,256,46315,1,8,0:0:0:0:
384,256,46390,1,0,0:0:0:0:
384,256,46465,1,8,0:0:0:0:
384,256,46615,1,0,0:0:0:0:
384,256,46765,1,8,0:0:0:0:
384,256,46915,1,0,0:0:0:0:
384,256,46990,1,8,0:0:0:0:
384,256,47065,1,0,0:0:0:0:
384,256,47215,1,8,0:0:0:0:
384,256,47290,1,8,0:0:0:0:
384,256,47365,1,0,0:0:0:0:
384,256,47515,1,8,0:0:0:0:
384,256,47590,1,0,0:0:0:0:
384,256,47665,1,8,0:0:0:0:
384,256,47740,1,8,0:0:0:0:
352,256,47815,1,0,0:0:0:0:
352,256,47965,1,8,0:0:0:0:
352,256,48115,1,0,0:0:0:0:
352,256,48190,1,0,0:0:0:0:
352,256,48265,1,8,0:0:0:0:
352,256,48415,1,8,0:0:0:0:
352,256,48565,1,4,0:0:0:0:
352,256,48715,1,8,0:0:0:0:
352,256,48790,1,8,0:0:0:0:
352,256,48865,1,0,0:0:0:0:
352,256,49015,1,8,0:0:0:0:
352,256,49165,1,8,0:0:0:0:
352,256,49240,1,8,0:0:0:0:
352,288,49315,1,0,0:0:0:0:
320,256,49390,1,0,0:0:0:0:
352,288,49465,1,8,0:0:0:0:
352,256,49615,1,4,0:0:0:0:
320,256,49765,1,8,0:0:0:0:
320,256,49915,1,4,0:0:0:0:
320,256,50065,1,8,0:0:0:0:
320,256,50140,1,0,0:0:0:0:
320,256,50215,1,8,0:0:0:0:
288,224,50290,1,8,0:0:0:0:
320,256,50365,1,0,0:0:0:0:
320,256,50515,1,8,0:0:0:0:
320,224,50665,1,0,0:0:0:0:
320,224,50740,1,8,0:0:0:0:
320,224,50815,1,8,0:0:0:0:
320,224,50890,1,8,0:0:0:0:
256,192,50965,1,4,0:0:0:0:
288,224,51115,1,8,0:0:0:0:
288,224,51265,1,8,0:0:0:0:
288,224,51340,1,8,0:0:0:0:
288,224,51415,1,0,0:0:0:0:
288,224,51565,1,8,0:0:0:0:
288,224,51715,1,0,0:0:0:0:
288,224,51865,1,8,0:0:0:0:
288,224,51940,1,0,0:0:0:0:
320,224,52015,1,8,0:0:0:0:
320,224,52090,1,8,0:0:0:0:
288,224,52165,1,0,0:0:0:0:
320,256,52315,1,8,0:0:0:0:
288,224,52390,1,0,0:0:0:0:
288,224,52465,1,8,0:0:0:0:
288,224,52615,1,0,0:0:0:0:
288,224,52690,1,0,0:0:0:0:
320,224,52765,1,8,0:0:0:0:
320,224,52915,1,8,0:0:0:0:
320,224,53065,1,4,0:0:0:0:
288,224,53215,1,8,0:0:0:0:
288,224,53365,1,4,0:0:0:0:
288,224,53515,1,8,0:0:0:0:
288,224,53590,1,0,0:0:0:0:
288,224,53665,1,8,0:0:0:0:
288,224,53740,1,8,0:0:0:0:
288,224,53815,1,0,0:0:0:0:
256,224,53965,1,12,0:0:0:0:
256,224,54115,1,12,0:0:0:0:
256,224,54265,1,0,0:0:0:0:
256,224,54415,1,12,0:0:0:0:
288,224,54565,1,0,0:0:0:0:
288,224,54715,1,8,0:0:0:0:
288,224,54790,1,0,0:0:0:0:
288,224,54865,1,8,0:0:0:0:
288,224,54940,1,8,0:0:0:0:
288,224,55015,1,0,0:0:0:0:
288,224,55090,1,0,0:0:0:0:
288,224,55165,1,12,0:0:0:0:
224,192,55315,1,0,0:0:0:0:
224,192,55465,1,12,0:0:0:0:
224,192,55615,1,8,0:0:0:0:
272,224,55765,1,4,0:0:0:0:
272,224,55915,1,4,0:0:0:0:
272,224,56065,1,12,0:0:0:0:
272,224,56215,1,4,0:0:0:0:
272,224,56365,1,12,0:0:0:0:
272,224,56515,1,12,0:0:0:0:
272,224,56665,1,4,0:0:0:0:
272,224,56815,1,12,0:0:0:0:
256,224,56965,1,4,0:0:0:0:
256,224,57115,1,4,0:0:0:0:
256,224,57265,1,12,0:0:0:0:
256,224,57415,1,4,0:0:0:0:
256,224,57565,1,12,0:0:0:0:
256,224,57715,1,12,0:0:0:0:
256,224,57865,1,4,0:0:0:0:
288,256,58015,1,8,0:0:0:0:
288,256,58090,1,0,0:0:0:0:
288,256,58165,1,8,0:0:0:0:
288,256,58240,1,8,0:0:0:0:
288,256,58315,1,0,0:0:0:0:
288,256,58465,1,8,0:0:0:0:
288,256,58615,1,0,0:0:0:0:
256,224,58765,1,12,0:0:0:0:
256,224,58915,1,8,0:0:0:0:
256,224,58990,1,8,0:0:0:0:
256,224,59065,1,0,0:0:0:0:
256,192,59215,1,12,0:0:0:0:
256,192,59365,1,0,0:0:0:0:
256,192,59515,1,8,0:0:0:0:
256,192,59590,1,0,0:0:0:0:
256,192,59665,1,8,0:0:0:0:
256,192,59815,1,0,0:0:0:0:
288,256,59965,1,12,0:0:0:0:
288,224,60115,1,8,0:0:0:0:
288,224,60265,1,4,0:0:0:0:
288,256,60415,1,8,0:0:0:0:
288,256,60565,1,4,0:0:0:0:
288,256,60715,1,12,0:0:0:0:
288,256,60865,1,12,0:0:0:0:
288,256,61015,1,4,0:0:0:0:
288,256,61165,1,12,0:0:0:0:
288,256,61315,1,4,0:0:0:0:
288,256,61465,1,4,0:0:0:0:
288,256,61615,1,12,0:0:0:0:
320,288,61765,1,4,0:0:0:0:
320,288,61915,1,12,0:0:0:0:
320,288,62065,1,12,0:0:0:0:
320,288,62215,1,4,0:0:0:0:
320,288,62365,1,12,0:0:0:0:
320,256,62515,1,12,0:0:0:0:
320,256,62665,1,4,0:0:0:0:
261,280,62815,1,12,0:0:0:0:
261,280,62965,1,0,0:0:0:0:
261,273,63115,1,8,0:0:0:0:
261,273,63190,1,0,0:0:0:0:
230,279,63265,1,8,0:0:0:0:
249,288,63340,1,8,0:0:0:0:
228,281,63415,1,0,0:0:0:0:
224,286,63565,1,8,0:0:0:0:
261,295,63715,1,0,0:0:0:0:
261,295,63790,1,8,0:0:0:0:
261,295,63865,1,8,0:0:0:0:
268,261,63940,1,0,0:0:0:0:
256,297,64015,1,8,0:0:0:0:
245,282,64090,1,8,0:0:0:0:
244,283,64165,1,0,0:0:0:0:
288,208,65065,5,0,0:0:0:0:
292,256,65365,1,12,0:0:0:0:
351,252,65515,1,8,0:0:0:0:
351,252,65665,1,0,0:0:0:0:
368,256,65815,1,8,0:0:0:0:
368,256,65890,1,8,0:0:0:0:
368,256,65965,1,0,0:0:0:0:
368,256,66040,1,0,0:0:0:0:
294,227,66115,1,8,0:0:0:0:
294,227,66265,1,8,0:0:0:0:
308,237,66415,1,0,0:0:0:0:
308,237,66490,1,0,0:0:0:0:
308,237,66565,1,8,0:0:0:0:
308,237,66640,1,0,0:0:0:0:
308,237,66715,1,8,0:0:0:0:
308,237,66790,1,8,0:0:0:0:
308,237,66865,1,0,0:0:0:0:
306,245,67015,1,8,0:0:0:0:
327,229,67165,1,8,0:0:0:0:
327,227,67240,1,0,0:0:0:0:
321,220,67315,1,8,0:0:0:0:
321,220,67390,1,8,0:0:0:0:
322,222,67465,1,0,0:0:0:0:
333,226,67615,1,0,0:0:0:0:
304,224,67690,1,0,0:0:0:0:
384,256,67765,1,8,0:0:0:0:
368,240,67915,1,8,0:0:0:0:
384,240,68065,1,0,0:0:0:0:
384,240,68215,1,8,0:0:0:0:
384,240,68290,1,8,0:0:0:0:
384,240,68365,1,0,0:0:0:0:
368,240,68440,1,0,0:0:0:0:
325,244,68515,1,8,0:0:0:0:
311,216,68665,1,8,0:0:0:0:
263,188,68815,1,0,0:0:0:0:
263,188,68890,1,8,0:0:0:0:
263,188,68965,1,0,0:0:0:0:
263,188,69040,1,0,0:0:0:0:
326,229,69115,1,8,0:0:0:0:
347,250,69190,1,0,0:0:0:0:
348,249,69265,1,8,0:0:0:0:
346,248,69340,1,8,0:0:0:0:
346,248,69415,1,0,0:0:0:0:
346,254,69565,1,8,0:0:0:0:
336,242,69715,1,0,0:0:0:0:
336,242,69790,1,0,0:0:0:0:
336,242,69865,1,8,0:0:0:0:
336,242,69940,1,8,0:0:0:0:
336,242,70015,1,8,0:0:0:0:
336,242,70090,1,8,0:0:0:0:
337,242,70165,1,0,0:0:0:0:
352,224,70315,1,8,0:0:0:0:
352,224,70465,1,0,0:0:0:0:
336,208,70615,1,8,0:0:0:0:
336,208,70690,1,8,0:0:0:0:
336,208,70765,1,0,0:0:0:0:
320,208,70840,1,0,0:0:0:0:
320,208,70915,1,8,0:0:0:0:
320,224,71065,1,8,0:0:0:0:
320,224,71215,1,0,0:0:0:0:
320,224,71290,1,0,0:0:0:0:
320,224,71365,1,8,0:0:0:0:
320,224,71440,1,0,0:0:0:0:
320,224,71515,1,8,0:0:0:0:
320,224,71590,1,8,0:0:0:0:
320,224,71665,1,0,0:0:0:0:
320,224,71815,1,8,0:0:0:0:
304,224,71965,1,0,0:0:0:0:
304,224,72040,1,0,0:0:0:0:
304,224,72115,1,8,0:0:0:0:
320,224,72190,5,8,0:0:0:0:
320,224,72265,1,0,0:0:0:0:
336,240,72415,1,0,0:0:0:0:
256,224,72565,5,8,0:0:0:0:
272,192,73015,5,0,0:0:0:0:
272,192,73065,1,8,0:0:0:0:
272,192,73115,1,8,0:0:0:0:
272,192,73165,1,0,0:0:0:0:
272,224,73615,1,8,0:0:0:0:
272,224,73690,1,8,0:0:0:0:
384,256,73765,1,0,0:0:0:0:
384,256,73865,1,0,0:0:0:0:
368,240,73965,1,8,0:0:0:0:
368,272,74065,1,0,0:0:0:0:
368,272,74165,1,0,0:0:0:0:
368,272,74265,1,8,0:0:0:0:
368,272,74365,1,8,0:0:0:0:
352,256,74665,1,0,0:0:0:0:
384,272,74965,1,12,0:0:0:0:
366,251,75265,1,0,0:0:0:0:
366,251,75415,1,8,0:0:0:0:
366,251,75565,1,8,0:0:0:0:
370,232,75715,1,0,0:0:0:0:
370,233,75865,1,0,0:0:0:0:
399,245,76015,1,8,0:0:0:0:
352,242,76315,1,0,0:0:0:0:
361,242,76465,1,8,0:0:0:0:
368,238,76615,1,8,0:0:0:0:
347,226,76915,1,8,0:0:0:0:
368,237,77065,1,8,0:0:0:0:
353,231,77215,1,0,0:0:0:0:
353,232,77365,1,8,0:0:0:0:
348,233,77665,1,0,0:0:0:0:
347,249,77815,1,8,0:0:0:0:
347,249,77965,1,8,0:0:0:0:
350,246,78115,1,0,0:0:0:0:
348,268,78265,1,0,0:0:0:0:
375,258,78415,1,8,0:0:0:0:
376,237,78715,1,8,0:0:0:0:
379,246,78865,1,0,0:0:0:0:
379,247,79015,1,8,0:0:0:0:
379,247,79165,1,8,0:0:0:0:
376,239,79315,1,0,0:0:0:0:
376,237,79465,1,8,0:0:0:0:
346,233,79765,1,0,0:0:0:0:
365,274,80065,1,8,0:0:0:0:
364,273,80215,1,8,0:0:0:0:
365,274,80365,1,0,0:0:0:0:
365,274,80515,1,0,0:0:0:0:
365,274,80665,1,8,0:0:0:0:
376,283,80815,1,0,0:0:0:0:
364,273,81115,1,0,0:0:0:0:
320,295,81415,1,8,0:0:0:0:
320,295,81565,1,0,0:0:0:0:
320,295,81865,1,8,0:0:0:0:
331,297,82015,1,0,0:0:0:0:
320,295,82165,1,8,0:0:0:0:
312,304,82315,1,8,0:0:0:0:
331,320,82465,1,0,0:0:0:0:
324,318,82615,1,8,0:0:0:0:
323,318,82765,1,8,0:0:0:0:
324,318,82915,1,0,0:0:0:0:
327,328,83065,1,0,0:0:0:0:
277,278,83215,1,12,0:0:0:0:
275,263,83365,1,0,0:0:0:0:
286,282,83515,1,8,0:0:0:0:
286,282,83590,1,8,0:0:0:0:
286,282,83665,1,4,0:0:0:0:
283,283,83815,1,0,0:0:0:0:
284,284,83965,1,12,0:0:0:0:
283,281,84115,1,0,0:0:0:0:
282,281,84190,1,8,0:0:0:0:
281,281,84265,1,0,0:0:0:0:
282,270,84415,1,0,0:0:0:0:
233,272,84490,1,0,0:0:0:0:
224,256,84565,1,12,0:0:0:0:
224,256,84715,1,8,0:0:0:0:
224,256,84865,1,0,0:0:0:0:
246,238,84940,1,0,0:0:0:0:
246,238,85015,1,8,0:0:0:0:
247,236,85090,1,8,0:0:0:0:
247,236,85165,1,0,0:0:0:0:
224,224,85315,1,8,0:0:0:0:
224,224,85465,1,0,0:0:0:0:
224,224,85615,1,8,0:0:0:0:
224,224,85690,1,8,0:0:0:0:
256,224,85765,1,0,0:0:0:0:
224,224,85915,1,0,0:0:0:0:
192,224,85990,1,8,0:0:0:0:
192,224,86065,1,0,0:0:0:0:
192,224,86215,1,8,0:0:0:0:
192,192,86365,1,0,0:0:0:0:
292,286,86515,1,8,0:0:0:0:
292,286,86590,1,0,0:0:0:0:
292,286,86665,1,8,0:0:0:0:
298,294,86740,1,8,0:0:0:0:
298,294,86815,1,0,0:0:0:0:
298,294,86890,1,0,0:0:0:0:
298,294,86965,1,8,0:0:0:0:
309,302,87115,1,8,0:0:0:0:
295,326,87265,1,0,0:0:0:0:
293,326,87415,1,8,0:0:0:0:
293,326,87490,1,0,0:0:0:0:
291,327,87565,1,8,0:0:0:0:
291,326,87715,1,8,0:0:0:0:
224,224,87865,1,0,0:0:0:0:
224,224,88015,1,8,0:0:0:0:
224,224,88090,1,8,0:0:0:0:
224,224,88165,1,0,0:0:0:0:
224,256,88315,1,0,0:0:0:0:
224,256,88390,1,8,0:0:0:0:
224,256,88465,1,0,0:0:0:0:
224,256,88615,1,8,0:0:0:0:
224,224,88765,1,0,0:0:0:0:
256,256,88840,1,0,0:0:0:0:
256,256,88915,1,8,0:0:0:0:
256,256,88990,1,8,0:0:0:0:
256,256,89065,1,0,0:0:0:0:
288,288,89215,1,0,0:0:0:0:
256,256,89365,1,12,0:0:0:0:
256,256,89515,1,8,0:0:0:0:
256,288,89665,1,0,0:0:0:0:
285,296,89815,1,8,0:0:0:0:
285,296,89890,1,8,0:0:0:0:
268,303,89965,1,0,0:0:0:0:
261,317,90115,1,8,0:0:0:0:
259,304,90265,1,0,0:0:0:0:
259,304,90340,1,0,0:0:0:0:
259,304,90415,1,8,0:0:0:0:
259,304,90490,1,8,0:0:0:0:
259,304,90565,1,0,0:0:0:0:
261,305,90715,1,8,0:0:0:0:
258,302,90790,1,8,0:0:0:0:
258,301,90865,1,0,0:0:0:0:
261,308,91015,1,0,0:0:0:0:
282,294,91090,1,0,0:0:0:0:
282,294,91165,1,8,0:0:0:0:
281,293,91315,1,8,0:0:0:0:
259,304,91465,1,0,0:0:0:0:
253,306,91615,1,8,0:0:0:0:
248,291,91690,1,8,0:0:0:0:
253,306,91765,1,0,0:0:0:0:
248,291,91840,1,0,0:0:0:0:
248,293,91915,1,8,0:0:0:0:
239,271,92065,1,8,0:0:0:0:
312,201,92140,1,0,0:0:0:0:
312,201,92215,1,8,0:0:0:0:
312,201,92290,1,8,0:0:0:0:
294,323,92365,1,0,0:0:0:0:
294,323,92515,1,8,0:0:0:0:
266,313,92665,1,0,0:0:0:0:
349,308,92815,1,8,0:0:0:0:
345,293,92890,1,8,0:0:0:0:
345,293,92965,1,0,0:0:0:0:
337,296,93115,1,0,0:0:0:0:
337,296,93190,1,8,0:0:0:0:
336,296,93265,1,0,0:0:0:0:
346,295,93415,1,0,0:0:0:0:
346,295,93565,1,8,0:0:0:0:
276,235,93715,1,8,0:0:0:0:
276,235,93865,1,0,0:0:0:0:
256,192,94165,5,4,0:0:0:0:
256,256,94315,1,4,0:0:0:0:
256,256,94465,1,8,0:0:0:0:
256,256,94615,1,0,0:0:0:0:
256,256,94690,1,8,0:0:0:0:
256,256,94765,1,0,0:0:0:0:
256,256,94915,1,0,0:0:0:0:
256,256,95065,1,8,0:0:0:0:
256,288,95215,1,4,0:0:0:0:
256,288,95365,1,8,0:0:0:0:
256,288,95515,1,4,0:0:0:0:
256,288,95665,1,0,0:0:0:0:
256,192,95815,1,8,0:0:0:0:
256,192,95890,1,0,0:0:0:0:
256,192,95965,1,8,0:0:0:0:
288,256,96040,1,8,0:0:0:0:
256,192,96115,1,0,0:0:0:0:
256,192,96265,1,0,0:0:0:0:
256,256,96415,1,8,0:0:0:0:
256,256,96565,1,4,0:0:0:0:
256,256,96715,1,4,0:0:0:0:
256,256,96865,1,8,0:0:0:0:
256,224,97015,1,0,0:0:0:0:
256,224,97090,1,8,0:0:0:0:
256,224,97165,1,0,0:0:0:0:
256,224,97315,1,0,0:0:0:0:
256,224,97465,1,8,0:0:0:0:
288,256,97615,1,4,0:0:0:0:
288,256,97765,1,8,0:0:0:0:
288,256,97915,1,4,0:0:0:0:
256,224,98065,1,0,0:0:0:0:
256,224,98215,1,8,0:0:0:0:
256,224,98290,5,0,0:0:0:0:
256,224,98365,1,8,0:0:0:0:
256,224,98440,1,8,0:0:0:0:
256,224,98515,1,0,0:0:0:0:
256,256,98665,1,8,0:0:0:0:
288,256,98815,1,0,0:0:0:0:
288,256,98890,1,0,0:0:0:0:
288,256,98965,1,8,0:0:0:0:
288,256,99040,1,0,0:0:0:0:
288,256,99115,1,8,0:0:0:0:
288,256,99190,1,8,0:0:0:0:
288,256,99265,1,0,0:0:0:0:
288,224,99340,1,0,0:0:0:0:
288,224,99415,1,8,0:0:0:0:
288,224,99490,1,8,0:0:0:0:
288,224,99565,1,0,0:0:0:0:
288,256,99640,1,0,0:0:0:0:
288,256,99715,1,8,0:0:0:0:
288,256,99790,1,8,0:0:0:0:
288,256,99865,1,0,0:0:0:0:
288,256,99940,1,0,0:0:0:0:
320,320,100015,1,8,0:0:0:0:
320,320,100090,1,0,0:0:0:0:
320,320,100165,1,8,0:0:0:0:
320,320,100240,1,0,0:0:0:0:
320,320,100315,1,8,0:0:0:0:
320,320,100390,1,8,0:0:0:0:
320,320,100465,1,0,0:0:0:0:
320,320,100540,1,8,0:0:0:0:
320,320,100615,1,0,0:0:0:0:
288,320,100690,1,0,0:0:0:0:
288,320,100765,1,8,0:0:0:0:
288,320,100840,1,0,0:0:0:0:
288,320,100915,1,8,0:0:0:0:
288,320,100990,1,8,0:0:0:0:
288,320,101065,1,0,0:0:0:0:
288,176,101215,1,0,0:0:0:0:
256,256,101365,1,12,0:0:0:0:
288,176,101515,1,12,0:0:0:0:
288,176,101665,1,0,0:0:0:0:
288,176,101815,1,12,0:0:0:0:
288,176,101965,1,12,0:0:0:0:
288,160,102115,1,0,0:0:0:0:
352,208,102265,1,12,0:0:0:0:
352,208,102415,1,12,0:0:0:0:
304,176,102565,1,0,0:0:0:0:
304,176,102640,1,8,0:0:0:0:
304,176,102715,1,8,0:0:0:0:
352,224,102790,1,0,0:0:0:0:
352,224,102865,1,8,0:0:0:0:
352,224,102940,1,0,0:0:0:0:
352,224,103015,1,8,0:0:0:0:
352,224,103090,1,8,0:0:0:0:
352,224,103165,1,0,0:0:0:0:
368,224,103202,1,0,0:0:0:0:
352,224,103315,1,8,0:0:0:0:
352,224,103352,1,8,0:0:0:0:
352,224,103465,1,0,0:0:0:0:
416,256,103502,1,0,0:0:0:0:
416,256,103615,1,8,0:0:0:0:
416,256,103652,1,8,0:0:0:0:
256,176,103765,1,4,0:0:0:0:
384,256,103915,1,8,0:0:0:0:
384,256,103990,1,0,0:0:0:0:
384,256,104065,1,8,0:0:0:0:
384,256,104140,1,8,0:0:0:0:
384,256,104215,1,0,0:0:0:0:
384,256,104365,1,8,0:0:0:0:
384,256,104515,1,0,0:0:0:0:
384,256,104590,1,8,0:0:0:0:
384,256,104665,1,0,0:0:0:0:
384,256,104815,1,8,0:0:0:0:
384,256,104890,1,8,0:0:0:0:
384,256,104965,1,0,0:0:0:0:
384,256,105115,1,8,0:0:0:0:
384,256,105190,1,0,0:0:0:0:
384,256,105265,1,8,0:0:0:0:
384,256,105340,1,8,0:0:0:0:
352,256,105415,1,0,0:0:0:0:
352,256,105565,1,8,0:0:0:0:
352,256,105715,1,0,0:0:0:0:
352,256,105790,1,0,0:0:0:0:
352,256,105865,1,8,0:0:0:0:
352,256,106015,1,8,0:0:0:0:
352,256,106165,1,4,0:0:0:0:
352,256,106315,1,8,0:0:0:0:
352,256,106390,1,8,0:0:0:0:
352,256,106465,1,0,0:0:0:0:
352,256,106615,1,8,0:0:0:0:
352,256,106690,1,0,0:0:0:0:
352,256,106765,1,8,0:0:0:0:
352,256,106840,1,8,0:0:0:0:
352,288,106915,1,0,0:0:0:0:
320,256,106990,1,0,0:0:0:0:
352,288,107065,1,8,0:0:0:0:
352,256,107215,1,4,0:0:0:0:
320,256,107365,1,8,0:0:0:0:
320,256,107515,1,4,0:0:0:0:
320,256,107665,1,8,0:0:0:0:
320,256,107740,1,0,0:0:0:0:
320,256,107815,1,8,0:0:0:0:
288,224,107890,1,8,0:0:0:0:
320,256,107965,1,0,0:0:0:0:
320,256,108115,1,8,0:0:0:0:
320,224,108265,1,0,0:0:0:0:
320,224,108340,1,8,0:0:0:0:
320,224,108415,1,8,0:0:0:0:
320,224,108490,1,8,0:0:0:0:
256,192,108565,1,4,0:0:0:0:
288,224,108715,1,8,0:0:0:0:
288,224,108790,1,0,0:0:0:0:
288,224,108865,1,8,0:0:0:0:
288,224,108940,1,8,0:0:0:0:
288,224,109015,1,0,0:0:0:0:
288,224,109165,1,8,0:0:0:0:
288,224,109315,1,0,0:0:0:0:
288,224,109390,1,8,0:0:0:0:
288,224,109465,1,8,0:0:0:0:
288,224,109540,1,0,0:0:0:0:
320,224,109615,1,8,0:0:0:0:
320,224,109690,1,8,0:0:0:0:
288,224,109765,1,0,0:0:0:0:
320,256,109915,1,8,0:0:0:0:
288,224,109990,1,0,0:0:0:0:
288,224,110065,1,8,0:0:0:0:
288,224,110215,1,0,0:0:0:0:
288,224,110290,1,0,0:0:0:0:
320,224,110365,1,8,0:0:0:0:
320,224,110515,1,8,0:0:0:0:
320,224,110665,1,4,0:0:0:0:
288,224,110815,1,8,0:0:0:0:
288,224,110965,1,4,0:0:0:0:
288,224,111115,1,8,0:0:0:0:
288,224,111190,1,0,0:0:0:0:
288,224,111265,1,8,0:0:0:0:
288,224,111340,1,8,0:0:0:0:
288,224,111415,1,0,0:0:0:0:
256,224,111565,1,12,0:0:0:0:
256,224,111715,1,12,0:0:0:0:
256,224,111865,1,0,0:0:0:0:
256,224,112015,1,12,0:0:0:0:
288,224,112165,1,0,0:0:0:0:
288,224,112315,1,8,0:0:0:0:
288,224,112390,1,0,0:0:0:0:
288,224,112465,1,8,0:0:0:0:
288,224,112540,1,8,0:0:0:0:
288,224,112615,1,0,0:0:0:0:
288,224,112690,1,0,0:0:0:0:
288,224,112765,1,12,0:0:0:0:
224,192,112915,1,0,0:0:0:0:
224,192,113065,1,12,0:0:0:0:
224,192,113215,1,8,0:0:0:0:
272,224,113365,1,4,0:0:0:0:
272,224,113515,1,4,0:0:0:0:
272,224,113665,1,12,0:0:0:0:
272,224,113815,1,4,0:0:0:0:
272,224,113965,1,12,0:0:0:0:
272,224,114115,1,12,0:0:0:0:
272,224,114265,1,4,0:0:0:0:
272,224,114415,1,12,0:0:0:0:
256,224,114565,1,4,0:0:0:0:
256,224,114715,1,4,0:0:0:0:
256,224,114865,1,12,0:0:0:0:
256,224,115015,1,4,0:0:0:0:
256,224,115165,1,12,0:0:0:0:
256,224,115315,1,12,0:0:0:0:
256,224,115465,1,4,0:0:0:0:
288,256,115615,1,8,0:0:0:0:
288,256,115690,1,0,0:0:0:0:
288,256,115765,1,8,0:0:0:0:
288,256,115840,1,8,0:0:0:0:
288,256,115915,1,0,0:0:0:0:
288,256,116065,1,8,0:0:0:0:
288,256,116215,1,0,0:0:0:0:
256,224,116365,1,12,0:0:0:0:
256,224,116515,1,8,0:0:0:0:
256,224,116590,1,8,0:0:0:0:
256,224,116665,1,0,0:0:0:0:
256,192,116815,1,12,0:0:0:0:
256,192,116965,1,0,0:0:0:0:
256,192,117115,1,8,0:0:0:0:
256,192,117190,1,0,0:0:0:0:
256,192,117265,1,8,0:0:0:0:
256,192,117340,1,8,0:0:0:0:
256,192,117415,1,0,0:0:0:0:
256,192,117490,1,0,0:0:0:0:
288,256,117565,1,12,0:0:0:0:
288,224,117715,1,8,0:0:0:0:
288,224,117865,1,4,0:0:0:0:
288,256,118015,1,8,0:0:0:0:
288,256,118165,1,4,0:0:0:0:
288,256,118315,1,12,0:0:0:0:
288,256,118465,1,12,0:0:0:0:
288,256,118615,1,4,0:0:0:0:
288,256,118765,1,12,0:0:0:0:
288,256,118915,1,4,0:0:0:0:
288,256,119065,1,12,0:0:0:0:
288,256,119215,1,12,0:0:0:0:
320,288,119365,1,4,0:0:0:0:
320,288,119515,1,4,0:0:0:0:
320,288,119665,1,12,0:0:0:0:
320,288,119815,1,4,0:0:0:0:
320,288,119965,1,12,0:0:0:0:
320,256,120115,1,12,0:0:0:0:
320,256,120265,1,4,0:0:0:0:
261,280,120415,1,12,0:0:0:0:
261,280,120565,1,0,0:0:0:0:
261,273,120715,1,8,0:0:0:0:
261,273,120790,1,0,0:0:0:0:
230,279,120865,1,8,0:0:0:0:
230,279,120940,1,8,0:0:0:0:
228,281,121015,1,0,0:0:0:0:
224,286,121165,1,8,0:0:0:0:
261,295,121315,1,0,0:0:0:0:
261,295,121390,1,8,0:0:0:0:
261,295,121465,1,8,0:0:0:0:
256,297,121540,1,0,0:0:0:0:
256,296,121615,1,8,0:0:0:0:
245,282,121690,1,8,0:0:0:0:
244,283,121765,1,0,0:0:0:0:
233,275,121915,1,0,0:0:0:0:
235,277,122065,1,8,0:0:0:0:
236,277,122215,1,8,0:0:0:0:
239,282,122365,1,0,0:0:0:0:
256,192,122665,5,0,0:0:0:0:
256,208,122965,5,12,0:0:0:0:
267,198,127765,5,0,0:0:0:0:
267,198,127915,1,0,0:0:0:0:
272,214,128065,1,8,0:0:0:0:
258,198,128215,1,8,0:0:0:0:
267,198,128365,1,0,0:0:0:0:
270,216,128515,1,0,0:0:0:0:
270,216,128665,1,8,0:0:0:0:
272,214,128815,1,8,0:0:0:0:
391,236,128965,1,0,0:0:0:0:
401,246,129115,1,8,0:0:0:0:
405,256,129265,1,0,0:0:0:0:
403,249,129415,1,8,0:0:0:0:
403,248,129565,1,0,0:0:0:0:
403,248,129715,1,0,0:0:0:0:
403,248,129865,1,8,0:0:0:0:
337,231,130015,1,8,0:0:0:0:
374,248,130165,1,0,0:0:0:0:
367,246,130240,1,0,0:0:0:0:
367,246,130315,1,8,0:0:0:0:
361,242,130390,1,8,0:0:0:0:
361,242,130465,1,0,0:0:0:0:
361,242,130540,1,0,0:0:0:0:
361,242,130615,1,8,0:0:0:0:
365,242,130690,1,0,0:0:0:0:
356,247,130765,1,8,0:0:0:0:
365,252,130840,1,8,0:0:0:0:
361,251,130915,1,0,0:0:0:0:
361,251,130990,1,0,0:0:0:0:
361,251,131065,1,8,0:0:0:0:
361,251,131140,1,8,0:0:0:0:
361,251,131215,1,8,0:0:0:0:
361,260,131290,1,8,0:0:0:0:
256,192,131365,5,0,0:0:0:0:
256,192,131965,1,0,0:0:0:0:
256,192,132002,1,0,0:0:0:0:
256,192,132115,1,8,0:0:0:0:
256,192,132153,1,8,0:0:0:0:
256,192,132265,1,0,0:0:0:0:
256,192,132302,1,0,0:0:0:0:
256,192,132415,1,8,0:0:0:0:
400,288,132453,1,8,0:0:0:0:
256,192,132565,5,4,0:0:0:0:
316,235,132715,1,8,0:0:0:0:
365,248,132865,1,8,0:0:0:0:
365,248,133015,1,0,0:0:0:0:
365,248,133315,1,8,0:0:0:0:
311,210,133465,1,0,0:0:0:0:
311,212,133615,1,8,0:0:0:0:
311,210,133690,1,8,0:0:0:0:
311,210,133765,1,0,0:0:0:0:
305,213,133915,1,0,0:0:0:0:
311,210,133990,1,0,0:0:0:0:
311,210,134065,1,8,0:0:0:0:
311,210,134140,1,8,0:0:0:0:
311,210,134215,1,0,0:0:0:0:
311,210,134365,1,8,0:0:0:0:
299,209,134515,1,8,0:0:0:0:
311,210,134665,1,0,0:0:0:0:
315,230,134815,1,8,0:0:0:0:
306,202,134965,1,8,0:0:0:0:
301,223,135115,1,0,0:0:0:0:
311,210,135265,1,0,0:0:0:0:
302,223,135415,1,8,0:0:0:0:
276,226,135715,1,8,0:0:0:0:
276,226,135865,1,0,0:0:0:0:
256,208,136015,1,8,0:0:0:0:
256,208,136065,1,0,0:0:0:0:
256,208,136115,1,0,0:0:0:0:
288,208,136165,1,8,0:0:0:0:
277,226,136315,1,8,0:0:0:0:
266,234,136465,1,0,0:0:0:0:
155,164,136615,1,8,0:0:0:0:
155,164,136690,1,8,0:0:0:0:
146,200,136765,2,8,L|304:62,1,210
176,208,137365,1,4,0:0:0:0:
266,223,137515,1,8,0:0:0:0:
296,245,137590,1,8,0:0:0:0:
266,223,137665,1,0,0:0:0:0:
266,223,137815,1,8,0:0:0:0:
286,236,138115,1,8,0:0:0:0:
329,270,138265,1,0,0:0:0:0:
301,278,138415,1,8,0:0:0:0:
301,278,138490,1,8,0:0:0:0:
289,283,138565,1,0,0:0:0:0:
288,283,138715,1,0,0:0:0:0:
288,283,138790,1,8,0:0:0:0:
287,283,138865,1,0,0:0:0:0:
258,314,138940,1,0,0:0:0:0:
286,289,139015,1,8,0:0:0:0:
217,282,139165,1,8,0:0:0:0:
217,282,139315,5,0,0:0:0:0:
217,282,139465,5,8,0:0:0:0:
217,282,139615,5,8,0:0:0:0:
251,309,139765,5,0,0:0:0:0:
205,284,139915,1,8,0:0:0:0:
211,294,140065,1,8,0:0:0:0:
212,295,140215,1,0,0:0:0:0:
291,294,140515,1,8,0:0:0:0:
291,294,140665,1,0,0:0:0:0:
326,262,140815,1,8,0:0:0:0:
316,225,140890,1,0,0:0:0:0:
316,225,140965,1,8,0:0:0:0:
316,225,141040,1,8,0:0:0:0:
319,228,141115,1,0,0:0:0:0:
322,228,141265,1,8,0:0:0:0:
256,308,141415,5,0,0:0:0:0:
320,224,141565,5,8,0:0:0:0:
320,224,141615,1,8,0:0:0:0:
320,224,141665,1,8,0:0:0:0:
320,224,141715,1,0,0:0:0:0:
320,224,141765,1,0,0:0:0:0:
320,224,141815,1,0,0:0:0:0:
320,224,141865,1,8,0:0:0:0:
320,256,142015,1,8,0:0:0:0:
256,192,142840,12,0,143215,0:0:0:0:
256,192,143365,5,4,0:0:0:0:
256,256,143515,1,4,0:0:0:0:
256,256,143665,1,8,0:0:0:0:
256,256,143815,1,0,0:0:0:0:
256,256,143890,1,8,0:0:0:0:
256,256,143965,1,0,0:0:0:0:
256,256,144115,1,0,0:0:0:0:
256,256,144265,1,8,0:0:0:0:
256,288,144415,1,4,0:0:0:0:
256,288,144565,1,8,0:0:0:0:
256,288,144715,1,4,0:0:0:0:
256,288,144865,1,0,0:0:0:0:
256,192,145015,1,8,0:0:0:0:
256,192,145090,1,0,0:0:0:0:
256,192,145165,1,8,0:0:0:0:
288,256,145240,1,8,0:0:0:0:
256,192,145315,1,0,0:0:0:0:
256,192,145465,1,0,0:0:0:0:
256,256,145615,1,8,0:0:0:0:
256,256,145765,1,4,0:0:0:0:
256,256,145915,1,4,0:0:0:0:
256,256,146065,1,8,0:0:0:0:
256,224,146215,1,0,0:0:0:0:
256,224,146290,1,8,0:0:0:0:
256,224,146365,1,0,0:0:0:0:
256,224,146515,1,0,0:0:0:0:
256,224,146665,1,8,0:0:0:0:
288,256,146815,1,0,0:0:0:0:
288,256,146890,1,8,0:0:0:0:
256,224,146965,1,0,0:0:0:0:
288,256,147115,1,8,0:0:0:0:
256,256,147190,1,8,0:0:0:0:
256,224,147265,1,0,0:0:0:0:
256,224,147415,1,8,0:0:0:0:
256,224,147490,1,0,0:0:0:0:
256,224,147565,1,8,0:0:0:0:
256,224,147640,1,8,0:0:0:0:
256,224,147715,1,0,0:0:0:0:
256,256,147865,1,8,0:0:0:0:
288,256,148015,1,0,0:0:0:0:
288,256,148090,1,0,0:0:0:0:
288,256,148165,1,8,0:0:0:0:
288,256,148240,1,0,0:0:0:0:
288,256,148315,1,8,0:0:0:0:
288,256,148390,1,8,0:0:0:0:
288,256,148465,1,0,0:0:0:0:
288,224,148540,1,0,0:0:0:0:
288,224,148615,1,8,0:0:0:0:
288,224,148690,1,8,0:0:0:0:
288,224,148765,1,0,0:0:0:0:
288,256,148840,1,0,0:0:0:0:
288,256,148915,1,8,0:0:0:0:
288,256,148990,1,8,0:0:0:0:
288,256,149065,1,0,0:0:0:0:
288,256,149140,1,0,0:0:0:0:
320,320,149215,1,8,0:0:0:0:
320,320,149290,1,0,0:0:0:0:
320,320,149365,1,8,0:0:0:0:
320,320,149440,1,0,0:0:0:0:
320,320,149515,1,8,0:0:0:0:
320,320,149590,1,8,0:0:0:0:
320,320,149665,1,0,0:0:0:0:
320,320,149740,1,8,0:0:0:0:
320,320,149815,1,0,0:0:0:0:
288,320,149890,1,0,0:0:0:0:
288,320,149965,1,8,0:0:0:0:
288,320,150040,1,0,0:0:0:0:
288,320,150115,1,8,0:0:0:0:
288,320,150190,1,8,0:0:0:0:
288,320,150265,1,0,0:0:0:0:
288,288,150340,1,0,0:0:0:0:
288,320,150415,1,8,0:0:0:0:
288,288,150490,1,8,0:0:0:0:
256,192,150565,5,4,0:0:0:0:
256,256,150865,1,0,0:0:0:0:
256,256,151015,1,8,0:0:0:0:
256,256,151165,1,0,0:0:0:0:
224,256,151465,1,8,0:0:0:0:
224,256,151765,1,8,0:0:0:0:
224,256,152065,1,0,0:0:0:0:
224,256,152365,1,0,0:0:0:0:
224,256,152665,1,8,0:0:0:0:
224,256,152815,1,8,0:0:0:0:
224,256,152965,1,0,0:0:0:0:
256,288,153265,1,0,0:0:0:0:
256,256,153415,1,8,0:0:0:0:
256,256,153565,1,0,0:0:0:0:
224,224,153865,1,8,0:0:0:0:
256,192,155215,5,0,0:0:0:0:
256,192,155365,1,12,0:0:0:0:
401,276,155515,1,0,0:0:0:0:
256,192,155665,1,12,0:0:0:0:
392,298,155815,1,0,0:0:0:0:
256,192,155965,1,12,0:0:0:0:
335,263,156115,1,8,0:0:0:0:
256,192,156265,1,0,0:0:0:0:
256,192,156415,1,8,0:0:0:0:
244,226,156565,1,0,0:0:0:0:
256,192,156715,1,8,0:0:0:0:
256,192,156865,1,8,0:0:0:0:
256,192,157015,1,0,0:0:0:0:
256,192,157165,1,8,0:0:0:0:
251,221,157315,1,0,0:0:0:0:
256,192,157465,1,8,0:0:0:0:
262,252,157615,1,0,0:0:0:0:
256,192,157765,1,0,0:0:0:0:
256,192,157915,1,8,0:0:0:0:
256,224,158065,1,0,0:0:0:0:
256,192,158215,1,8,0:0:0:0:
256,192,158365,1,8,0:0:0:0:
295,270,158515,1,0,0:0:0:0:
256,192,158665,1,8,0:0:0:0:
256,192,158815,1,8,0:0:0:0:
295,270,158965,1,0,0:0:0:0:
256,192,159115,1,8,0:0:0:0:
256,192,159265,1,0,0:0:0:0:
256,192,159415,1,8,0:0:0:0:
256,192,159565,1,0,0:0:0:0:
265,237,159715,1,0,0:0:0:0:
255,235,159790,1,8,0:0:0:0:
255,237,159865,1,0,0:0:0:0:
256,192,160015,1,0,0:0:0:0:
256,192,160165,1,12,0:0:0:0:
290,252,160315,1,0,0:0:0:0:
290,252,160465,1,12,0:0:0:0:
290,252,160615,1,0,0:0:0:0:
290,252,160765,1,12,0:0:0:0:
286,246,160915,1,8,0:0:0:0:
286,246,161065,1,0,0:0:0:0:
345,279,161215,1,8,0:0:0:0:
273,263,161365,1,0,0:0:0:0:
273,263,161515,1,8,0:0:0:0:
301,312,161665,1,8,0:0:0:0:
301,312,161815,1,0,0:0:0:0:
301,312,161965,1,8,0:0:0:0:
301,312,162115,1,0,0:0:0:0:
301,312,162265,1,8,0:0:0:0:
294,318,162415,1,0,0:0:0:0:
306,263,162565,1,0,0:0:0:0:
266,301,162715,1,8,0:0:0:0:
266,301,162865,1,0,0:0:0:0:
311,280,163015,1,8,0:0:0:0:
311,281,163165,1,8,0:0:0:0:
311,283,163315,1,0,0:0:0:0:
311,283,163465,1,8,0:0:0:0:
311,280,163615,1,8,0:0:0:0:
311,280,163765,1,0,0:0:0:0:
311,280,163915,1,8,0:0:0:0:
311,281,164065,1,0,0:0:0:0:
311,283,164215,1,8,0:0:0:0:
296,283,164365,1,0,0:0:0:0:
301,283,164515,1,8,0:0:0:0:
259,238,164590,1,0,0:0:0:0:
259,238,164665,1,8,0:0:0:0:
259,238,164815,1,8,0:0:0:0:
256,192,164965,1,4,0:0:0:0:
256,224,165265,1,4,0:0:0:0:
279,269,165565,1,4,0:0:0:0:
279,269,165715,1,8,0:0:0:0:
321,298,165865,1,4,0:0:0:0:
321,298,166015,1,8,0:0:0:0:
321,298,166165,1,4,0:0:0:0:
321,298,166465,1,4,0:0:0:0:
317,288,166765,1,4,0:0:0:0:
315,292,166915,1,8,0:0:0:0:
315,292,167065,1,4,0:0:0:0:
315,292,167215,1,8,0:0:0:0:
315,285,167365,1,4,0:0:0:0:
306,263,167665,1,8,0:0:0:0:
277,298,167815,1,0,0:0:0:0:
305,256,167965,1,8,0:0:0:0:
292,318,168115,1,8,0:0:0:0:
291,253,168265,1,0,0:0:0:0:
290,253,168415,1,8,0:0:0:0:
291,252,168715,1,0,0:0:0:0:
291,253,168865,1,8,0:0:0:0:
291,253,169015,1,8,0:0:0:0:
285,258,169165,1,0,0:0:0:0:
298,251,169315,1,0,0:0:0:0:
306,242,169465,1,8,0:0:0:0:
306,229,169615,1,8,0:0:0:0:
307,233,169765,1,4,0:0:0:0:
307,233,169915,1,8,0:0:0:0:
307,233,170065,1,4,0:0:0:0:
307,233,170215,1,8,0:0:0:0:
307,233,170365,1,4,0:0:0:0:
314,261,170515,1,0,0:0:0:0:
307,233,170665,1,8,0:0:0:0:
339,242,170815,1,8,0:0:0:0:
309,242,170965,1,4,0:0:0:0:
307,233,171115,1,8,0:0:0:0:
307,233,171265,1,4,0:0:0:0:
271,257,171415,1,8,0:0:0:0:
271,257,171565,1,4,0:0:0:0:
268,250,171715,1,0,0:0:0:0:
276,263,171865,1,8,0:0:0:0:
277,250,172015,1,8,0:0:0:0:
286,266,172165,1,0,0:0:0:0:
286,266,172240,1,0,0:0:0:0:
286,266,172315,1,8,0:0:0:0:
286,266,172390,1,0,0:0:0:0:
286,266,172465,1,8,0:0:0:0:
214,294,172540,1,8,0:0:0:0:
214,294,172615,1,0,0:0:0:0:
196,293,172690,1,8,0:0:0:0:
193,293,172765,1,0,0:0:0:0:
192,293,172840,1,0,0:0:0:0:
191,293,172915,1,8,0:0:0:0:
191,293,172990,1,8,0:0:0:0:
191,293,173065,1,0,0:0:0:0:
191,293,173140,1,0,0:0:0:0:
219,248,173215,1,8,0:0:0:0:
219,248,173290,1,8,0:0:0:0:
219,248,173365,1,0,0:0:0:0:
324,232,173415,1,0,0:0:0:0:
324,232,173465,1,0,0:0:0:0:
324,232,173515,1,8,0:0:0:0:
334,247,173590,1,8,0:0:0:0:
310,266,173665,1,0,0:0:0:0:
310,266,173715,1,0,0:0:0:0:
310,263,173765,1,0,0:0:0:0:
308,268,173815,1,8,0:0:0:0:
358,285,173890,1,8,0:0:0:0:
358,285,173965,1,0,0:0:0:0:
256,176,174265,5,8,0:0:0:0:
256,176,174565,1,4,0:0:0:0:
384,256,174715,1,8,0:0:0:0:
384,256,174790,1,0,0:0:0:0:
384,256,174865,1,8,0:0:0:0:
384,256,174940,1,8,0:0:0:0:
384,256,175015,1,0,0:0:0:0:
384,256,175165,1,8,0:0:0:0:
384,256,175315,1,0,0:0:0:0:
384,256,175390,1,8,0:0:0:0:
384,256,175465,1,8,0:0:0:0:
384,256,175540,1,0,0:0:0:0:
384,256,175615,1,8,0:0:0:0:
384,256,175690,1,8,0:0:0:0:
384,256,175765,1,0,0:0:0:0:
384,256,175915,1,8,0:0:0:0:
384,256,175990,1,0,0:0:0:0:
384,256,176065,1,8,0:0:0:0:
384,256,176140,1,8,0:0:0:0:
352,256,176215,1,0,0:0:0:0:
352,256,176290,1,0,0:0:0:0:
352,256,176365,1,8,0:0:0:0:
352,256,176440,1,8,0:0:0:0:
352,256,176515,1,0,0:0:0:0:
352,256,176590,1,0,0:0:0:0:
352,256,176665,1,8,0:0:0:0:
352,256,176815,1,8,0:0:0:0:
352,256,176965,1,4,0:0:0:0:
352,256,177115,1,8,0:0:0:0:
352,256,177190,1,8,0:0:0:0:
352,256,177265,1,0,0:0:0:0:
352,256,177415,1,8,0:0:0:0:
352,256,177490,1,0,0:0:0:0:
352,256,177565,1,8,0:0:0:0:
352,256,177640,1,8,0:0:0:0:
352,288,177715,1,0,0:0:0:0:
320,256,177790,1,0,0:0:0:0:
352,288,177865,1,8,0:0:0:0:
352,256,178015,1,4,0:0:0:0:
320,256,178165,1,8,0:0:0:0:
320,256,178315,1,4,0:0:0:0:
320,256,178465,1,8,0:0:0:0:
320,256,178540,1,0,0:0:0:0:
320,256,178615,1,8,0:0:0:0:
288,224,178690,1,8,0:0:0:0:
320,256,178765,1,0,0:0:0:0:
320,256,178915,1,8,0:0:0:0:
320,224,179065,1,0,0:0:0:0:
320,224,179140,1,8,0:0:0:0:
320,224,179215,1,8,0:0:0:0:
320,224,179290,1,8,0:0:0:0:
256,192,179365,1,4,0:0:0:0:
288,224,179515,1,8,0:0:0:0:
288,224,179590,1,0,0:0:0:0:
288,224,179665,1,8,0:0:0:0:
288,224,179740,1,8,0:0:0:0:
288,224,179815,1,0,0:0:0:0:
288,224,179965,1,8,0:0:0:0:
288,224,180115,1,0,0:0:0:0:
288,224,180190,1,8,0:0:0:0:
288,224,180265,1,8,0:0:0:0:
288,224,180340,1,0,0:0:0:0:
320,224,180415,1,8,0:0:0:0:
320,224,180490,1,8,0:0:0:0:
288,224,180565,1,0,0:0:0:0:
320,256,180715,1,8,0:0:0:0:
288,224,180790,1,0,0:0:0:0:
288,224,180865,1,8,0:0:0:0:
288,224,180940,1,8,0:0:0:0:
288,224,181015,1,0,0:0:0:0:
288,224,181090,1,0,0:0:0:0:
320,224,181165,1,8,0:0:0:0:
320,224,181240,1,0,0:0:0:0:
320,224,181315,1,8,0:0:0:0:
320,224,181465,1,4,0:0:0:0:
288,224,181615,1,8,0:0:0:0:
288,224,181765,1,4,0:0:0:0:
288,224,181915,1,8,0:0:0:0:
288,224,181990,1,0,0:0:0:0:
288,224,182065,1,8,0:0:0:0:
288,224,182140,1,8,0:0:0:0:
288,224,182215,1,0,0:0:0:0:
288,224,182290,1,0,0:0:0:0:
256,224,182365,1,12,0:0:0:0:
256,224,182515,1,12,0:0:0:0:
256,224,182665,1,0,0:0:0:0:
256,224,182815,1,12,0:0:0:0:
288,224,182965,1,0,0:0:0:0:
288,224,183115,1,8,0:0:0:0:
288,224,183190,1,0,0:0:0:0:
288,224,183265,1,8,0:0:0:0:
288,224,183340,1,8,0:0:0:0:
288,224,183415,1,0,0:0:0:0:
288,224,183490,1,0,0:0:0:0:
288,224,183565,1,12,0:0:0:0:
224,192,183715,1,0,0:0:0:0:
224,192,183865,1,12,0:0:0:0:
224,192,184015,1,8,0:0:0:0:
272,224,184165,1,4,0:0:0:0:
272,224,184315,1,12,0:0:0:0:
272,224,184465,1,4,0:0:0:0:
272,224,184615,1,4,0:0:0:0:
272,224,184765,1,12,0:0:0:0:
272,224,184915,1,12,0:0:0:0:
272,224,185065,1,4,0:0:0:0:
272,224,185215,1,12,0:0:0:0:
256,224,185365,1,4,0:0:0:0:
256,224,185515,1,4,0:0:0:0:
256,224,185665,1,12,0:0:0:0:
256,224,185815,1,4,0:0:0:0:
256,224,185965,1,12,0:0:0:0:
256,224,186115,1,12,0:0:0:0:
256,224,186265,1,4,0:0:0:0:
288,256,186415,1,8,0:0:0:0:
288,256,186490,1,0,0:0:0:0:
288,256,186565,1,8,0:0:0:0:
288,256,186640,1,8,0:0:0:0:
288,256,186715,1,0,0:0:0:0:
288,256,186790,1,0,0:0:0:0:
288,256,186865,1,8,0:0:0:0:
288,256,187015,1,0,0:0:0:0:
256,224,187165,1,8,0:0:0:0:
256,224,187240,1,0,0:0:0:0:
256,224,187315,1,8,0:0:0:0:
256,224,187390,1,8,0:0:0:0:
256,224,187465,1,0,0:0:0:0:
256,192,187615,1,12,0:0:0:0:
256,192,187765,1,0,0:0:0:0:
256,192,187915,1,8,0:0:0:0:
256,192,187990,1,0,0:0:0:0:
256,192,188065,1,8,0:0:0:0:
256,192,188140,1,8,0:0:0:0:
256,192,188215,1,0,0:0:0:0:
256,192,188290,1,0,0:0:0:0:
288,256,188365,1,12,0:0:0:0:
288,224,188515,1,8,0:0:0:0:
288,224,188665,1,4,0:0:0:0:
288,256,188815,1,8,0:0:0:0:
288,256,188965,1,4,0:0:0:0:
288,256,189115,1,12,0:0:0:0:
288,256,189265,1,12,0:0:0:0:
288,256,189415,1,4,0:0:0:0:
288,256,189565,1,12,0:0:0:0:
288,256,189715,1,4,0:0:0:0:
288,256,189865,1,12,0:0:0:0:
288,256,190015,1,12,0:0:0:0:
320,288,190165,1,4,0:0:0:0:
320,288,190315,1,4,0:0:0:0:
320,288,190465,1,12,0:0:0:0:
320,288,190615,1,4,0:0:0:0:
320,288,190765,1,12,0:0:0:0:
320,256,190915,1,12,0:0:0:0:
320,256,191065,1,4,0:0:0:0:
288,256,191215,1,12,0:0:0:0:
288,224,191365,1,0,0:0:0:0:
286,247,191440,1,0,0:0:0:0:
288,224,191515,1,8,0:0:0:0:
288,224,191590,1,0,0:0:0:0:
288,224,191665,1,8,0:0:0:0:
288,224,191740,1,8,0:0:0:0:
288,224,191815,1,0,0:0:0:0:
288,224,191965,1,12,0:0:0:0:
288,224,192115,1,0,0:0:0:0:
288,224,192190,1,0,0:0:0:0:
288,224,192265,1,8,0:0:0:0:
288,224,192415,1,12,0:0:0:0:
320,256,192565,1,0,0:0:0:0:
320,256,192715,1,8,0:0:0:0:
256,224,192790,1,0,0:0:0:0:
255,224,192865,1,8,0:0:0:0:
288,256,192940,1,8,0:0:0:0:
251,216,193015,1,0,0:0:0:0:
251,216,193090,1,0,0:0:0:0:
251,216,193165,1,12,0:0:0:0:
288,256,193315,1,8,0:0:0:0:
288,256,193465,1,4,0:0:0:0:
288,256,193615,1,8,0:0:0:0:
288,256,193765,1,4,0:0:0:0:
288,256,193915,1,12,0:0:0:0:
288,256,194065,1,12,0:0:0:0:
288,256,194215,1,4,0:0:0:0:
288,256,194365,1,12,0:0:0:0:
288,256,194515,1,4,0:0:0:0:
288,256,194665,1,12,0:0:0:0:
288,256,194815,1,12,0:0:0:0:
288,256,194965,1,4,0:0:0:0:
256,256,195115,1,4,0:0:0:0:
288,256,195265,1,12,0:0:0:0:
288,256,195415,1,4,0:0:0:0:
288,256,195565,1,12,0:0:0:0:
288,256,195715,1,12,0:0:0:0:
288,256,195865,1,4,0:0:0:0:
256,256,196015,1,8,0:0:0:0:
288,256,196165,1,4,0:0:0:0:
256,224,196315,1,8,0:0:0:0:
256,224,196390,1,0,0:0:0:0:
256,224,196465,1,8,0:0:0:0:
256,224,196540,1,8,0:0:0:0:
256,224,196615,1,0,0:0:0:0:
256,192,196765,1,12,0:0:0:0:
256,192,196915,1,0,0:0:0:0:
256,256,196990,1,0,0:0:0:0:
288,256,197065,1,8,0:0:0:0:
256,224,197215,1,12,0:0:0:0:
320,256,197365,1,0,0:0:0:0:
320,256,197515,1,8,0:0:0:0:
320,256,197590,1,0,0:0:0:0:
320,256,197665,1,8,0:0:0:0:
320,256,197740,1,8,0:0:0:0:
320,224,197815,1,0,0:0:0:0:
320,224,197890,1,0,0:0:0:0:
320,256,197965,1,12,0:0:0:0:
320,224,198115,1,0,0:0:0:0:
320,224,198265,1,12,0:0:0:0:
320,256,198415,1,8,0:0:0:0:
320,256,198565,1,4,0:0:0:0:
321,259,198715,1,4,0:0:0:0:
320,256,198865,1,12,0:0:0:0:
321,258,199015,1,12,0:0:0:0:
436,291,199165,1,4,0:0:0:0:
421,290,199315,1,4,0:0:0:0:
421,290,199465,1,12,0:0:0:0:
421,289,199615,1,12,0:0:0:0:
421,288,199765,1,4,0:0:0:0:
411,293,199915,1,12,0:0:0:0:
411,290,200065,1,12,0:0:0:0:
401,278,200215,1,4,0:0:0:0:
401,278,200365,1,4,0:0:0:0:
396,278,200515,1,12,0:0:0:0:
396,278,200665,1,12,0:0:0:0:
396,278,200815,1,4,0:0:0:0:
