osu file format v14

[General]
AudioFilename: audio.mp3
AudioLeadIn: 0
PreviewTime: 64996
Countdown: 1
SampleSet: None
StackLeniency: 0.7
Mode: 0
LetterboxInBreaks: 0
WidescreenStoryboard: 0

[Editor]
Bookmarks: 2671,21271,65071
DistanceSpacing: 0.4
BeatDivisor: 4
GridSize: 4
TimelineZoom: 1.3

[Metadata]
Title:HIBANA (feat. Hatsune Miku)
TitleUnicode:ヒバナ feat. 初音ミク
Artist:Deco*27
ArtistUnicode:Deco*27
Creator:Zebro
Version:1
Source:
Tags:
BeatmapID:1388689
BeatmapSetID:655293

[Difficulty]
HPDrainRate:5
CircleSize:4
OverallDifficulty:8
ApproachRate:9.8
SliderMultiplier:1.7
SliderTickRate:1

[Events]
//Background and Video events
//Break Periods
2,17271,20746
//Storyboard Layer 0 (Background)
//Storyboard Layer 1 (Fail)
//Storyboard Layer 2 (Pass)
//Storyboard Layer 3 (Foreground)
//Storyboard Sound Samples

[TimingPoints]
271,300,4,3,0,30,1,0
271,-66.6666666666667,4,3,0,30,0,0
2371,-153.846153846153,4,3,0,30,0,0
2521,-153.846153846153,4,3,0,5,0,0
2671,-100,4,3,0,30,0,0
17071,-133.333333333333,4,3,0,30,0,0
39721,-117.647058823529,4,3,0,30,0,0
45871,-66.6666666666667,4,3,0,30,0,0

[HitObjects]
131,169,271,5,0,0:0:0:0:
131,169,471,1,0,0:0:0:0:
236,83,671,1,0,0:0:0:0:
236,83,871,1,0,0:0:0:0:
363,289,1071,5,0,0:0:0:0:
363,289,1271,1,0,0:0:0:0:
305,33,1471,1,0,0:0:0:0:
305,33,1671,1,0,0:0:0:0:
76,220,1871,5,0,0:0:0:0:
120,160,2071,2,0,L|295:145,1,127.500004863739
391,310,2371,6,0,P|315:326|288:322,1,82.8749962062838
134,160,2671,6,0,L|206:153,5,42.5
236,255,3121,2,0,L|312:255,5,42.5
330,152,3571,1,0,0:0:0:0:
340,179,3646,1,0,0:0:0:0:
349,207,3721,1,0,0:0:0:0:
355,235,3796,1,0,0:0:0:0:
357,264,3871,6,0,P|354:304|350:322,5,42.5
226,242,4321,2,0,P|229:192|231:184,5,42.5
297,293,4771,1,0,0:0:0:0:
316,300,4846,1,0,0:0:0:0:
336,305,4921,1,0,0:0:0:0:
357,306,4996,1,0,0:0:0:0:
379,303,5071,5,0,0:0:0:0:
308,124,5221,1,0,0:0:0:0:
309,238,5371,1,0,0:0:0:0:
375,53,5521,1,0,0:0:0:0:
211,185,5671,5,0,0:0:0:0:
241,31,5821,1,0,0:0:0:0:
379,255,5971,1,0,0:0:0:0:
101,76,6121,1,0,0:0:0:0:
81,150,6271,5,0,0:0:0:0:
156,160,6421,1,0,0:0:0:0:
129,37,6571,1,0,0:0:0:0:
60,218,6721,1,0,0:0:0:0:
246,160,6871,6,0,P|245:106|232:66,1,85
148,252,7171,1,0,0:0:0:0:
183,266,7246,1,0,0:0:0:0:
220,273,7321,1,0,0:0:0:0:
257,279,7396,1,0,0:0:0:0:
299,274,7471,6,0,P|347:301|373:333,1,85
312,136,7771,2,0,P|270:145|234:167,1,85
381,41,8071,6,0,P|431:63|459:99,1,85
327,242,8371,2,0,P|275:203|256:176,1,85
194,50,8671,5,0,0:0:0:0:
132,143,8821,1,0,0:0:0:0:
327,130,8971,1,0,0:0:0:0:
291,29,9121,1,0,0:0:0:0:
252,222,9271,5,0,0:0:0:0:
341,145,9421,1,0,0:0:0:0:
148,135,9571,1,0,0:0:0:0:
291,29,9721,1,0,0:0:0:0:
363,250,9871,6,0,P|391:290|409:338,1,85
316,119,10171,2,0,P|286:54|284:27,1,85
486,188,10471,1,0,0:0:0:0:
365,32,10621,1,0,0:0:0:0:
306,259,10771,1,0,0:0:0:0:
306,259,10921,1,0,0:0:0:0:
211,56,11071,5,0,0:0:0:0:
356,162,11221,1,0,0:0:0:0:
229,142,11371,1,0,0:0:0:0:
392,80,11521,1,0,0:0:0:0:
172,249,11671,6,0,P|157:186|161:134,1,85
408,108,11971,1,0,0:0:0:0:
416,140,12046,1,0,0:0:0:0:
417,173,12121,1,0,0:0:0:0:
412,206,12196,1,0,0:0:0:0:
398,238,12271,6,0,P|339:250|311:245,1,85
311,78,12571,2,0,P|326:129|321:175,1,85
140,237,12871,2,0,P|143:181|167:127,1,85
173,309,13171,1,0,0:0:0:0:
248,198,13321,1,0,0:0:0:0:
423,324,13471,5,0,0:0:0:0:
265,304,13621,1,0,0:0:0:0:
360,145,13771,1,0,0:0:0:0:
344,317,13921,1,0,0:0:0:0:
184,186,14071,5,0,0:0:0:0:
343,225,14221,1,0,0:0:0:0:
240,108,14371,1,0,0:0:0:0:
178,323,14521,1,0,0:0:0:0:
244,56,14671,6,0,P|279:130|285:159,1,85
359,317,14971,1,0,0:0:0:0:
177,26,15121,6,0,P|187:67|205:105,1,85
359,317,15421,1,0,0:0:0:0:
102,160,15571,1,0,0:0:0:0:
102,160,15721,1,0,0:0:0:0:
403,162,15871,5,0,0:0:0:0:
114,318,16021,1,0,0:0:0:0:
114,318,16096,1,0,0:0:0:0:
114,318,16171,1,0,0:0:0:0:
286,122,16321,1,0,0:0:0:0:
337,292,16471,5,0,0:0:0:0:
83,157,16621,1,0,0:0:0:0:
366,141,16771,1,0,0:0:0:0:
69,80,16921,1,0,0:0:0:0:
413,245,17071,1,0,0:0:0:0:
164,275,21271,5,0,0:0:0:0:
304,186,21421,1,0,0:0:0:0:
336,182,21496,1,0,0:0:0:0:
361,184,21571,2,0,P|396:191|464:190,1,95.6250036478044
502,134,21871,1,0,0:0:0:0:
280,294,22021,1,0,0:0:0:0:
280,294,22321,5,0,0:0:0:0:
227,220,22471,2,0,P|191:232|158:262,1,63.7500024318696
154,267,22771,1,0,0:0:0:0:
138,287,22921,1,0,0:0:0:0:
43,145,23071,5,0,0:0:0:0:
293,262,23221,2,0,P|321:307|335:340,1,63.7500024318696
271,231,23521,1,0,0:0:0:0:
246,196,23671,1,0,0:0:0:0:
222,170,23821,1,0,0:0:0:0:
111,141,23971,1,0,0:0:0:0:
143,286,24121,1,0,0:0:0:0:
209,33,24271,5,0,0:0:0:0:
416,192,24421,1,0,0:0:0:0:
330,278,24571,1,0,0:0:0:0:
348,74,24721,1,0,0:0:0:0:
436,336,24871,5,0,0:0:0:0:
426,126,25021,1,0,0:0:0:0:
497,284,25171,1,0,0:0:0:0:
297,122,25321,1,0,0:0:0:0:
164,329,25471,5,0,0:0:0:0:
378,126,25621,2,0,L|399:247,1,95.6250036478044
211,44,25921,2,0,L|201:162,1,95.6250036478044
254,197,26221,1,0,0:0:0:0:
254,197,26371,2,0,P|290:214|320:271,1,95.6250036478044
232,280,26671,6,0,L|96:300,1,127.500004863739
105,298,27121,1,0,0:0:0:0:
180,124,27271,2,0,L|164:208,1,63.7500024318696
280,40,27571,1,0,0:0:0:0:
300,192,27721,1,0,0:0:0:0:
160,56,27871,6,0,P|100:80|82:90,1,63.7500024318696
160,56,28171,1,0,0:0:0:0:
141,230,28321,1,0,0:0:0:0:
231,119,28471,6,0,L|299:122,1,63.7500024318696
148,99,28771,1,0,0:0:0:0:
279,19,28921,1,0,0:0:0:0:
339,143,29071,6,0,P|324:242|308:268,1,127.500004863739
310,264,29521,1,0,0:0:0:0:
231,118,29671,1,0,0:0:0:0:
183,310,29821,1,0,0:0:0:0:
343,130,29971,1,0,0:0:0:0:
168,74,30121,6,0,P|131:88|107:115,1,63.7500024318696
191,165,30421,2,0,P|199:220|196:229,1,63.7500024318696
91,63,30721,1,0,0:0:0:0:
234,55,30871,2,0,L|272:122,1,63.7500024318696
221,282,31171,2,0,L|198:203,1,63.7500024318696
83,111,31471,6,0,P|132:77|211:82,1,127.500004863739
197,76,31921,1,0,0:0:0:0:
161,236,32071,1,0,0:0:0:0:
116,56,32221,1,0,0:0:0:0:
70,133,32371,1,0,0:0:0:0:
245,100,32521,6,0,P|301:105|318:115,1,63.7500024318696
277,183,32821,2,0,P|282:233|271:254,1,63.7500024318696
122,342,33121,1,0,0:0:0:0:
122,342,33271,1,0,0:0:0:0:
160,240,33421,1,0,0:0:0:0:
264,326,33571,6,0,P|324:335|341:342,1,63.7500024318696
337,188,33871,1,0,0:0:0:0:
428,326,34021,1,0,0:0:0:0:
220,288,34171,1,0,0:0:0:0:
341,283,34321,1,0,0:0:0:0:
218,128,34471,5,0,0:0:0:0:
130,292,34621,1,0,0:0:0:0:
321,81,34771,1,0,0:0:0:0:
269,323,34921,1,0,0:0:0:0:
298,170,35071,6,0,L|384:195,1,63.7500024318696
194,247,35371,1,0,0:0:0:0:
260,39,35521,1,0,0:0:0:0:
376,249,35671,1,0,0:0:0:0:
146,203,35821,1,0,0:0:0:0:
367,69,35971,2,0,L|395:126,2,63.7500024318696
367,69,36571,5,0,0:0:0:0:
358,165,36871,1,0,0:0:0:0:
110,214,37021,1,0,0:0:0:0:
165,38,37171,1,0,0:0:0:0:
226,100,37321,6,0,P|248:172|249:189,1,63.7500024318696
228,267,37621,1,0,0:0:0:0:
270,19,37771,2,0,P|308:69|314:79,1,63.7500024318696
319,91,37996,1,0,0:0:0:0:
326,115,38071,1,0,0:0:0:0:
321,190,38221,1,0,0:0:0:0:
134,86,38371,1,0,0:0:0:0:
104,270,38521,1,0,0:0:0:0:
199,47,38671,5,0,0:0:0:0:
308,297,38821,1,0,0:0:0:0:
151,320,38971,1,0,0:0:0:0:
193,237,39271,1,0,0:0:0:0:
459,295,39421,1,0,0:0:0:0:
402,182,39571,5,0,0:0:0:0:
119,238,39721,2,0,P|154:162|182:131,1,108.375002067089
361,48,40021,2,0,P|354:111|334:166,1,108.375002067089
271,265,40321,5,0,0:0:0:0:
185,48,40471,1,0,0:0:0:0:
92,151,40621,1,0,0:0:0:0:
380,91,40771,2,0,P|402:152|398:209,1,108.375002067089
327,221,41071,2,0,P|241:241|228:247,1,72.2500013780594
121,299,41371,1,0,0:0:0:0:
151,196,41521,1,0,0:0:0:0:
339,314,41671,1,0,0:0:0:0:
265,152,41821,1,0,0:0:0:0:
206,345,41971,1,0,0:0:0:0:
376,217,42121,1,0,0:0:0:0:
164,65,42271,6,0,P|145:155|144:162,1,72.2500013780594
116,305,42571,1,0,0:0:0:0:
261,245,42721,1,0,0:0:0:0:
92,108,42871,1,0,0:0:0:0:
49,233,43021,1,0,0:0:0:0:
262,87,43171,2,0,P|344:82|362:86,1,72.2500013780594
91,289,43471,5,0,0:0:0:0:
179,39,43621,1,0,0:0:0:0:
285,329,43771,1,0,0:0:0:0:
315,31,43921,2,0,P|250:80|243:91,1,72.2500013780594
147,328,44221,1,0,0:0:0:0:
453,168,44371,1,0,0:0:0:0:
126,64,44521,1,0,0:0:0:0:
126,64,45271,5,0,0:0:0:0:
149,205,45421,1,0,0:0:0:0:
188,252,45496,1,0,0:0:0:0:
240,284,45571,1,0,0:0:0:0:
301,285,45646,1,0,0:0:0:0:
360,268,45721,1,0,0:0:0:0:
399,220,45796,1,0,0:0:0:0:
432,169,45871,6,0,L|388:32,1,127.500004863739
209,297,46171,1,0,0:0:0:0:
126,178,46321,1,0,0:0:0:0:
421,349,46471,1,0,0:0:0:0:
381,99,46621,1,0,0:0:0:0:
351,298,46771,1,0,0:0:0:0:
96,189,46921,6,0,P|172:88|308:64,1,255.000009727478
36,47,47371,1,0,0:0:0:0:
202,250,47521,1,0,0:0:0:0:
152,37,47671,2,0,P|114:114|104:166,1,127.500004863739
251,333,47971,2,0,P|275:228|257:123,1,191.250007295609
216,64,48271,1,0,0:0:0:0:
94,212,48421,6,0,P|190:240|250:233,1,127.500004863739
66,96,48721,1,0,0:0:0:0:
202,357,48871,1,0,0:0:0:0:
365,106,49021,1,0,0:0:0:0:
168,89,49171,1,0,0:0:0:0:
457,250,49321,2,0,P|383:309|226:291,1,255.000009727478
191,261,49696,1,0,0:0:0:0:
159,220,49771,1,0,0:0:0:0:
147,170,49846,1,0,0:0:0:0:
148,119,49921,1,0,0:0:0:0:
172,74,49996,1,0,0:0:0:0:
211,37,50071,5,0,0:0:0:0:
68,180,50221,1,0,0:0:0:0:
352,96,50371,1,0,0:0:0:0:
212,312,50521,1,0,0:0:0:0:
