osu file format v14

[General]
AudioFilename: audio.mp3
AudioLeadIn: 0
PreviewTime: 160148
Countdown: 0
SampleSet: Soft
StackLeniency: 0.6
Mode: 0
LetterboxInBreaks: 0
EpilepsyWarning: 1
WidescreenStoryboard: 1

[Editor]
DistanceSpacing: 1.2
BeatDivisor: 4
GridSize: 8
TimelineZoom: 1.9

[Metadata]
Title:Ghost Rule
TitleUnicode:Ghost Rule
Artist:Deco*27
ArtistUnicode:Deco*27
Creator:aonidn1
Version:Hey, Mayday!
Source:
Tags:
BeatmapID:1896437
BeatmapSetID:849791

[Difficulty]
HPDrainRate:6
CircleSize:4.5
OverallDifficulty:8.5
ApproachRate:9.5
SliderMultiplier:1.6
SliderTickRate:1

[Events]
//Background and Video events
0,0,"BG.jpg",0,0
//Break Periods
2,67005,75005
2,124719,132148
//Storyboard Layer 0 (Background)
//Storyboard Layer 1 (Fail)
//Storyboard Layer 2 (Pass)
//Storyboard Layer 3 (Foreground)
//Storyboard Sound Samples

[TimingPoints]
148,285.714285714286,4,2,2,45,1,0
148,-100,4,2,2,45,0,0
9290,-100,4,2,2,45,0,0
10362,-100,4,2,1,45,0,0
10505,-100,4,2,2,45,0,0
12648,-100,4,2,1,45,0,0
12790,-100,4,2,2,45,0,0
14933,-100,4,2,1,45,0,0
15076,-100,4,2,2,45,0,0
17219,-100,4,2,1,45,0,0
17362,-100,4,2,2,45,0,0
22933,-100,4,2,1,45,0,0
23076,-100,4,2,2,45,0,0
27219,-500,4,2,1,45,0,0
27505,-100,4,2,2,45,0,0
27648,-100,4,2,2,45,0,0
32076,-100,4,2,1,45,0,0
32219,-100,4,2,2,45,0,0
35933,-100,4,3,1,45,0,0
36719,-100,4,2,2,45,0,0
36790,-100,4,2,2,45,0,0
45862,-500,4,2,2,45,0,0
46290,-222.222222222221,4,2,2,45,0,0
46719,-153.846153846153,4,2,2,45,0,0
47148,-100,4,2,2,45,0,0
47576,-76.9230769230769,4,2,2,45,0,0
48148,-100,4,2,1,45,0,1
48219,-100,4,2,2,45,0,1
52648,-100,4,2,1,45,0,1
52790,-100,4,2,2,45,0,1
56648,-100,4,3,1,45,0,1
57219,-100,4,2,1,45,0,1
57362,-100,4,2,2,45,0,1
66148,-285.714285714284,4,2,2,45,0,1
66433,-100,4,2,2,45,0,0
75576,-133.333333333333,4,3,1,45,0,0
75648,-133.333333333333,4,2,2,45,0,0
84433,-285.714285714286,4,2,2,45,0,0
84719,-133.333333333333,4,2,2,45,0,0
93076,-133.333333333333,4,3,1,45,0,0
93790,-133.333333333333,4,2,2,45,0,0
103005,-500,4,2,2,45,0,0
103433,-222.222222222221,4,2,2,45,0,0
103862,-153.846153846153,4,2,2,45,0,0
104290,-100,4,2,2,45,0,0
104719,-76.9230769230769,4,2,2,45,0,0
104933,-76.9230769230769,4,3,1,45,0,0
105290,-100,4,2,1,45,0,1
105362,-100,4,2,2,45,0,1
109790,-100,4,2,1,45,0,1
109933,-100,4,2,2,45,0,1
113790,-100,4,3,1,45,0,1
114362,-100,4,2,1,45,0,1
114505,-100,4,2,2,45,0,1
123290,-285.714285714284,4,2,2,45,0,1
123576,-100,4,2,2,45,0,0
132719,-133.333333333333,4,2,2,45,0,0
150433,-285.714285714284,4,2,2,45,0,0
151005,-133.333333333333,4,2,2,45,0,0
159719,-133.333333333333,4,3,1,45,0,0
160148,-83.3333333333333,4,2,1,45,0,1
160219,-83.3333333333333,4,2,2,45,0,1
162362,-83.3333333333333,4,2,1,45,0,1
162505,-83.3333333333333,4,2,2,45,0,1
169255,-83.3333333333333,4,2,1,45,0,1
169326,-83.3333333333333,4,2,2,45,0,1
173790,-83.3333333333333,4,2,1,45,0,1
173933,-83.3333333333333,4,2,2,45,0,1
177933,-83.3333333333333,4,3,1,45,0,1
178362,-83.3333333333333,4,2,1,45,0,1
178505,-83.3333333333333,4,2,2,45,0,1
187255,-83.3333333333333,4,2,1,45,0,1
187326,-83.3333333333333,4,2,2,45,0,1
196148,-153.846153846153,4,2,2,45,0,0

[Colours]
Combo1 : 121,121,255
Combo2 : 255,182,108
Combo3 : 108,255,108
Combo4 : 255,113,113
Combo5 : 119,255,255

[HitObjects]
440,56,148,5,0,0:0:0:0:
376,152,290,1,0,0:0:0:0:
376,152,362,1,0,0:0:0:0:
376,152,433,2,0,P|296:168|208:152,1,160,0|8,0:0|0:0,0:0:0:0:
136,184,862,6,0,P|128:224|136:272,1,80
208,304,1148,2,0,P|288:288|376:304,1,160,0|8,0:0|0:0,0:0:0:0:
440,320,1576,1,0,0:0:0:0:
472,240,1719,1,0,0:0:0:0:
472,240,1790,1,0,0:0:0:0:
472,240,1862,2,0,P|432:232|392:200,1,80,8|0,0:0|0:0,0:0:0:0:
352,144,2148,5,0,0:0:0:0:
320,119,2219,1,0,0:0:0:0:
282,106,2290,1,0,0:0:0:0:
243,106,2362,1,0,0:0:0:0:
208,128,2433,2,0,B|208:168|208:168|200:224|200:224|208:288,1,160,4|0,0:0|0:0,0:0:0:0:
296,336,2862,5,0,0:0:0:0:
376,280,3005,2,0,P|384:240|376:200,1,80,8|0,0:0|0:0,0:0:0:0:
312,144,3290,2,0,P|264:152|224:144,1,80
160,120,3576,2,0,P|152:160|160:200,1,80,0|8,0:0|0:0,0:0:0:0:
176,224,3790,5,0,0:0:0:0:
216,248,3862,1,0,0:0:0:0:
240,288,3933,1,0,0:0:0:0:
232,336,4005,1,0,0:0:0:0:
192,360,4076,1,0,0:0:0:0:
152,360,4148,2,0,P|112:360|80:336,1,80,8|0,0:0|0:0,0:0:0:0:
48,264,4433,5,0,0:0:0:0:
72,240,4505,1,0,0:0:0:0:
96,216,4576,2,0,P|104:184|96:128,1,80,0|4,0:0|0:0,0:0:0:0:
192,72,5005,2,0,B|232:80|304:64|304:64|344:88,1,160,0|8,0:0|0:0,0:0:0:0:
424,312,5433,6,0,L|344:336,1,80
256,288,5719,2,0,B|264:240|264:240|256:168|256:168|264:112,1,160,0|8,0:0|0:0,0:0:0:0:
312,64,6148,1,0,0:0:0:0:
384,112,6290,1,0,0:0:0:0:
400,128,6362,1,0,0:0:0:0:
416,144,6433,2,0,P|424:184|416:224,1,80,8|0,0:0|0:0,0:0:0:0:
344,312,6719,5,0,0:0:0:0:
296,296,6790,1,0,0:0:0:0:
248,288,6862,1,0,0:0:0:0:
200,296,6933,1,0,0:0:0:0:
160,312,7005,2,0,B|144:272|144:272|144:208|144:208|112:152,1,160,4|0,0:0|0:0,0:0:0:0:
72,104,7433,5,0,0:0:0:0:
128,48,7576,2,0,B|176:40|176:40|248:48|248:48|320:40,1,160,8|0,0:0|0:0,0:0:0:0:
360,72,8005,2,0,L|344:152,1,80
152,312,8290,2,0,L|168:232,1,80,8|0,0:0|0:0,0:0:0:0:
184,152,8576,2,0,P|224:160|264:152,1,80,0|8,0:0|0:0,0:0:0:0:
336,96,8862,1,0,0:0:0:0:
472,344,9005,1,8,0:0:0:0:
256,192,9290,5,4,0:0:0:0:
256,192,9362,1,0,0:0:0:0:
256,192,9433,2,0,P|216:184|176:192,1,80
112,224,9719,1,0,0:0:0:0:
64,312,9862,1,12,0:0:0:0:
24,120,10005,1,0,0:0:0:0:
104,72,10148,6,0,P|144:80|200:72,1,80
256,64,10433,2,0,L|328:208,1,160,4|0,0:0|0:0,0:0:0:0:
352,288,10862,1,0,0:0:0:0:
336,312,10933,1,0,0:0:0:0:
320,336,11005,2,0,P|280:344|240:336,1,80,12|0,0:0|0:0,0:0:0:0:
48,248,11290,6,0,P|88:240|136:248,1,80
200,272,11576,1,4,0:0:0:0:
256,216,11719,1,0,0:0:0:0:
256,216,11790,1,0,0:0:0:0:
256,216,11862,2,0,P|264:176|256:120,1,80
248,56,12148,5,12,0:0:0:0:
328,24,12290,1,0,0:0:0:0:
408,56,12433,2,0,P|400:96|408:136,1,80,0|8,0:0|0:0,0:0:0:0:
448,192,12719,2,0,L|312:304,1,160,4|0,0:0|0:0,0:0:0:0:
248,328,13148,5,0,0:0:0:0:
224,328,13219,1,0,0:0:0:0:
192,328,13290,2,0,P|160:328|112:304,1,80,12|0,0:0|0:0,0:0:0:0:
56,248,13576,5,0,0:0:0:0:
120,104,13719,1,0,0:0:0:0:
192,160,13862,1,4,0:0:0:0:
192,160,13933,1,0,0:0:0:0:
192,160,14005,2,0,P|240:168|280:160,1,80
328,112,14290,5,0,0:0:0:0:
424,336,14433,1,12,0:0:0:0:
448,184,14576,1,0,0:0:0:0:
384,240,14719,2,0,P|336:248|288:240,1,80
232,232,15005,2,0,P|200:280|264:352,1,160,4|0,0:0|0:0,0:0:0:0:
384,240,15433,5,0,0:0:0:0:
368,224,15505,1,0,0:0:0:0:
352,200,15576,2,0,P|344:160|352:120,1,80,12|0,0:0|0:0,0:0:0:0:
392,40,15862,1,0,0:0:0:0:
256,104,16005,1,0,0:0:0:0:
432,184,16148,1,4,0:0:0:0:
432,184,16219,1,0,0:0:0:0:
432,184,16290,2,0,P|440:224|432:272,1,80
368,320,16576,5,0,0:0:0:0:
256,288,16719,1,12,0:0:0:0:
152,320,16862,1,0,0:0:0:0:
88,248,17005,2,0,B|80:200|80:200|88:144,1,80
440,48,17290,2,0,B|448:96|448:96|440:152,1,80,4|0,0:0|0:0,0:0:0:0:
376,176,17576,5,8,0:0:0:0:
288,136,17719,1,8,0:0:0:0:
200,176,17862,1,8,0:0:0:0:
112,144,18005,1,8,0:0:0:0:
48,224,18148,1,8,0:0:0:0:
112,296,18290,1,8,0:0:0:0:
200,264,18433,2,0,B|256:256|256:256|320:272|320:272|376:256,1,160,4|8,0:0|0:0,0:0:0:0:
424,216,18862,6,0,P|416:176|424:136,1,80
456,64,19148,1,0,0:0:0:0:
384,32,19290,2,0,B|336:40|336:40|272:32|272:32|208:48,1,160,8|0,0:0|0:0,0:0:0:0:
152,72,19719,1,0,0:0:0:0:
152,72,19862,2,0,B|144:112|144:112|160:176|160:176|152:232,1,160,8|0,0:0|0:0,0:0:0:0:
128,312,20290,5,0,0:0:0:0:
352,112,20433,1,8,0:0:0:0:
152,228,20576,1,0,0:0:0:0:
384,184,20719,2,0,P|424:104|384:40,1,160,0|8,0:0|0:0,0:0:0:0:
312,40,21148,2,0,P|272:48|232:40,1,80
160,24,21433,1,0,0:0:0:0:
104,80,21576,6,0,B|120:160|120:160|104:248,1,160,8|0,0:0|0:0,0:0:0:0:
72,312,22005,1,0,0:0:0:0:
256,192,22148,1,8,0:0:0:0:
448,312,22290,1,0,0:0:0:0:
448,72,22433,1,0,0:0:0:0:
256,192,22576,1,0,0:0:0:0:
72,72,22719,2,0,B|72:128|72:128|64:176|64:176|72:240,1,160,12|4,0:0|0:0,0:0:0:0:
384,328,23290,6,0,L|432:248,1,80,8|0,0:0|0:0,0:0:0:0:
464,184,23576,1,0,0:0:0:0:
408,128,23719,2,0,P|360:136|312:128,1,80,0|8,0:0|0:0,0:0:0:0:
256,112,24005,2,0,B|224:160|224:160|224:216|224:216|192:272,1,160
136,304,24433,2,0,P|88:312|40:304,2,80,8|0|0,0:0|0:0|0:0,0:0:0:0:
201,256,24862,1,0,0:0:0:0:
264,304,25005,1,8,0:0:0:0:
328,352,25148,1,0,0:0:0:0:
392,304,25290,2,0,L|432:136,1,160,0|8,0:0|0:0,0:0:0:0:
368,40,25719,5,0,0:0:0:0:
368,40,25862,2,0,L|344:128,1,80
280,184,26148,2,0,L|256:104,2,80,8|0|0,0:0|0:0|0:0,0:0:0:0:
304,264,26576,1,0,0:0:0:0:
224,248,26719,1,8,0:0:0:0:
152,280,26862,1,0,0:0:0:0:
80,248,27005,5,0,0:0:0:0:
88,200,27076,1,0,0:0:0:0:
96,152,27148,1,0,0:0:0:0:
152,88,27290,2,0,L|184:88,1,32,12|4,0:0|0:0,0:0:0:0:
368,88,27862,5,8,0:0:0:0:
424,144,28005,1,0,0:0:0:0:
424,224,28148,2,0,P|384:232|336:216,1,80
280,176,28433,2,0,P|240:168|200:176,1,80,8|0,0:0|0:0,0:0:0:0:
136,208,28719,1,0,0:0:0:0:
112,280,28862,1,0,0:0:0:0:
160,336,29005,2,0,P|208:344|240:336,1,80,8|0,0:0|0:0,0:0:0:0:
296,280,29290,6,0,P|288:240|296:200,1,80
312,176,29505,1,0,0:0:0:0:
328,152,29576,2,0,P|336:112|328:72,1,80,8|0,0:0|0:0,0:0:0:0:
304,48,29790,1,0,0:0:0:0:
272,56,29862,2,0,P|232:64|192:56,1,80
112,48,30148,5,8,0:0:0:0:
56,104,30290,1,0,0:0:0:0:
64,184,30433,1,0,0:0:0:0:
120,240,30576,2,0,P|160:232|200:240,1,80,0|8,0:0|0:0,0:0:0:0:
272,272,30862,5,0,0:0:0:0:
296,256,30933,1,0,0:0:0:0:
320,240,31005,2,0,P|328:200|320:152,1,80
288,88,31290,1,8,0:0:0:0:
352,40,31433,1,0,0:0:0:0:
424,64,31576,1,0,0:0:0:0:
464,136,31719,5,0,0:0:0:0:
440,152,31790,1,0,0:0:0:0:
424,168,31862,2,0,P|416:208|424:256,1,80,8|0,0:0|0:0,0:0:0:0:
432,280,32076,1,0,0:0:0:0:
408,312,32148,2,0,P|368:320|328:312,1,80,4|0,0:0|0:0,0:0:0:0:
264,272,32433,6,0,P|256:232|264:192,1,80,8|0,0:0|0:0,0:0:0:0:
288,120,32719,1,0,0:0:0:0:
224,72,32862,1,0,0:0:0:0:
152,104,33005,2,0,P|144:144|152:184,1,80,8|0,0:0|0:0,0:0:0:0:
151,182,33219,1,0,0:0:0:0:
151,182,33290,1,0,0:0:0:0:
192,248,33433,5,0,0:0:0:0:
96,304,33576,1,8,0:0:0:0:
144,112,33719,1,0,0:0:0:0:
256,192,33862,2,0,P|296:200|336:192,1,80
400,105,34148,2,0,P|360:113|312:105,1,80,8|0,0:0|0:0,0:0:0:0:
288,96,34362,5,0,0:0:0:0:
256,113,34433,2,0,P|248:153|256:193,1,80
304,248,34719,5,8,0:0:0:0:
56,344,34862,1,0,0:0:0:0:
256,112,35005,2,0,P|296:120|336:112,1,80
408,88,35290,2,0,L|464:240,1,160,8|0,0:0|0:0,0:0:0:0:
312,328,35719,1,8,0:0:0:0:
256,328,35790,1,8,0:0:0:0:
200,328,35862,1,8,0:0:0:0:
104,272,36005,5,2,0:0:0:0:
384,112,36148,1,8,0:0:0:0:
80,192,36290,1,8,0:0:0:0:
408,192,36433,1,2,0:0:0:0:
80,112,36576,1,2,0:0:0:0:
392,272,36719,2,0,B|352:264|352:264|288:272|288:272|232:264,1,160,4|0,0:0|0:0,0:0:0:0:
160,232,37148,6,0,P|152:192|160:136,1,80,0|8,0:0|0:0,0:0:0:0:
168,120,37362,1,0,0:0:0:0:
200,104,37433,2,0,P|240:112|288:104,1,80
344,64,37719,1,8,0:0:0:0:
408,120,37862,1,0,0:0:0:0:
472,168,38005,2,0,L|472:248,1,80
384,344,38290,2,0,L|384:264,1,80,0|8,0:0|0:0,0:0:0:0:
384,232,38505,5,0,0:0:0:0:
352,208,38576,2,0,P|312:208|272:192,1,80
200,168,38862,2,0,P|192:208|200:256,1,80
216,272,39076,1,0,0:0:0:0:
208,312,39148,2,0,P|168:320|128:312,1,80
56,280,39433,5,0,0:0:0:0:
80,192,39576,1,8,0:0:0:0:
104,112,39719,1,0,0:0:0:0:
104,112,39862,2,0,L|192:72,1,80,0|8,0:0|0:0,0:0:0:0:
344,96,40148,2,0,L|256:136,1,80
192,160,40433,5,0,0:0:0:0:
160,232,40576,1,0,0:0:0:0:
200,304,40719,1,8,0:0:0:0:
236,320,40790,1,0,0:0:0:0:
276,322,40861,1,0,0:0:0:0:
313,309,40933,1,0,0:0:0:0:
344,284,41005,5,0,0:0:0:0:
364,250,41076,1,0,0:0:0:0:
370,210,41147,1,0,0:0:0:0:
361,172,41219,1,0,0:0:0:0:
344,144,41290,2,0,P|304:152|264:144,1,80,4|0,0:0|0:0,0:0:0:0:
192,120,41576,5,0,0:0:0:0:
128,80,41719,1,0,0:0:0:0:
80,136,41862,2,0,P|72:176|80:232,1,80,8|0,0:0|0:0,0:0:0:0:
104,248,42076,1,0,0:0:0:0:
144,240,42148,2,0,P|192:232|232:240,1,80,0|8,0:0|0:0,0:0:0:0:
296,296,42433,6,0,P|336:304|376:296,2,80
222,236,42862,1,0,0:0:0:0:
256,152,43005,1,8,0:0:0:0:
288,136,43076,1,0,0:0:0:0:
320,128,43148,2,0,P|368:136|408:128,1,80
464,88,43433,5,0,0:0:0:0:
432,328,43576,1,0,0:0:0:0:
392,328,43648,1,0,0:0:0:0:
352,328,43719,1,0,0:0:0:0:
280,280,43862,1,0,0:0:0:0:
320,208,44005,6,0,P|328:168|320:120,1,80,0|8,0:0|0:0,0:0:0:0:
272,64,44290,1,0,0:0:0:0:
208,104,44433,2,0,P|168:112|120:104,1,80,0|8,0:0|0:0,0:0:0:0:
56,88,44719,5,8,0:0:0:0:
448,312,44862,1,8,0:0:0:0:
40,176,45005,5,8,0:0:0:0:
464,224,45148,1,8,0:0:0:0:
48,264,45290,5,8,0:0:0:0:
448,136,45433,1,8,0:0:0:0:
80,352,45576,5,8,0:0:0:0:
400,56,45719,1,8,0:0:0:0:
256,80,45862,6,0,L|280:120,1,40
276,114,46290,2,0,P|248:144|200:144,1,89.9999972534181
201,144,46719,2,0,P|176:200|200:264,1,129.999994049073
198,261,47148,2,0,P|288:224|384:264,1,200
379,259,47576,2,0,P|440:128|376:48,1,259.999988098145
128,120,48148,6,0,P|88:128|48:120,2,80,4|0|8,0:0|0:0|0:0,0:0:0:0:
192,72,48719,1,0,0:0:0:0:
248,120,48862,2,0,P|240:160|248:200,1,80,0|8,0:0|0:0,0:0:0:0:
304,248,49148,1,0,0:0:0:0:
376,216,49290,2,0,L|440:272,2,80,0|0|8,0:0|0:0|0:0,0:0:0:0:
312,168,49719,5,0,0:0:0:0:
312,72,49862,1,0,0:0:0:0:
216,72,50005,1,0,0:0:0:0:
216,168,50148,2,0,B|176:168|176:168|128:160|128:160|48:176,1,160,8|4,0:0|0:0,0:0:0:0:
56,320,50576,2,0,L|112:248,1,80,0|8,0:0|0:0,0:0:0:0:
216,168,50862,2,0,L|288:224,1,80
344,264,51148,5,0,0:0:0:0:
432,80,51290,1,8,0:0:0:0:
360,112,51433,1,0,0:0:0:0:
296,80,51576,2,0,P|256:88|216:80,1,80
152,48,51862,5,8,0:0:0:0:
96,104,52005,1,0,0:0:0:0:
40,160,52148,1,0,0:0:0:0:
48,200,52219,1,0,0:0:0:0:
56,240,52290,1,8,0:0:0:0:
128,296,52433,2,0,P|136:256|128:216,2,80,0|8|4,0:0|0:0|0:0,0:0:0:0:
192,352,52862,1,0,0:0:0:0:
192,352,53005,6,0,B|240:344|240:344|304:352|304:352|352:344,1,160,8|0,0:0|0:0,0:0:0:0:
408,296,53433,1,0,0:0:0:0:
424,216,53576,2,0,P|384:208|344:216,1,80,8|0,0:0|0:0,0:0:0:0:
280,256,53862,2,0,P|240:264|200:256,2,80,0|0|8,0:0|0:0|0:0,0:0:0:0:
345,215,54290,1,0,0:0:0:0:
320,136,54433,1,0,0:0:0:0:
296,56,54576,1,0,0:0:0:0:
296,56,54719,6,0,B|240:48|240:48|176:56|176:56|120:48,1,160,8|4,0:0|0:0,0:0:0:0:
64,40,55148,1,0,0:0:0:0:
24,112,55290,1,8,0:0:0:0:
80,168,55433,1,0,0:0:0:0:
144,112,55576,2,0,P|192:104|224:112,2,80,0|0|8,0:0|0:0|0:0,0:0:0:0:
80,168,56005,6,0,P|72:208|80:256,1,80
168,320,56290,5,8,0:0:0:0:
208,304,56362,1,8,0:0:0:0:
256,296,56433,1,8,0:0:0:0:
344,320,56576,1,8,0:0:0:0:
432,64,56719,5,2,0:0:0:0:
256,192,56862,1,8,0:0:0:0:
464,136,57005,5,8,0:0:0:0:
232,120,57148,1,2,0:0:0:0:
448,216,57290,2,0,P|440:256|448:312,1,80,4|0,0:0|0:0,0:0:0:0:
352,344,57576,2,0,P|360:304|352:248,1,80,8|0,0:0|0:0,0:0:0:0:
312,208,57862,5,0,0:0:0:0:
240,208,58005,1,0,0:0:0:0:
168,208,58148,2,0,P|136:144|176:64,1,160,8|0,0:0|0:0,0:0:0:0:
240,40,58576,1,0,0:0:0:0:
312,72,58719,1,8,0:0:0:0:
384,112,58862,1,0,0:0:0:0:
384,224,59005,5,0,0:0:0:0:
312,264,59148,1,0,0:0:0:0:
240,304,59290,2,0,P|200:240|240:160,1,160,8|4,0:0|0:0,0:0:0:0:
296,120,59719,2,0,P|336:128|376:120,2,80,0|8|0,0:0|0:0|0:0,0:0:0:0:
224,80,60148,1,0,0:0:0:0:
152,64,60290,1,0,0:0:0:0:
80,88,60433,2,0,P|72:128|80:184,1,80,8|0,0:0|0:0,0:0:0:0:
128,224,60719,6,0,P|136:264|128:312,1,80
192,352,61005,1,8,0:0:0:0:
256,288,61148,1,0,0:0:0:0:
328,352,61290,1,8,0:0:0:0:
366,340,61361,1,8,0:0:0:0:
397,316,61432,1,8,0:0:0:0:
418,283,61504,5,8,0:0:0:0:
426,243,61575,1,8,0:0:0:0:
418,204,61647,1,8,0:0:0:0:
397,171,61718,1,8,0:0:0:0:
366,146,61790,1,8,0:0:0:0:
328,136,61862,2,0,P|288:144|240:136,1,80,4|0,0:0|0:0,0:0:0:0:
176,96,62148,2,0,P|136:88|88:96,1,80,8|0,0:0|0:0,0:0:0:0:
32,136,62433,5,0,0:0:0:0:
88,192,62576,1,0,0:0:0:0:
152,240,62719,2,0,B|200:240|200:240|256:232|256:232|320:240,1,160,8|0,0:0|0:0,0:0:0:0:
384,256,63148,1,0,0:0:0:0:
448,208,63290,1,8,0:0:0:0:
464,128,63433,1,0,0:0:0:0:
416,64,63576,5,0,0:0:0:0:
336,88,63719,1,0,0:0:0:0:
256,64,63862,2,0,L|176:208,1,160,8|4,0:0|0:0,0:0:0:0:
112,272,64290,2,0,P|72:280|32:272,2,80,0|8|0,0:0|0:0|0:0,0:0:0:0:
184,288,64719,1,0,0:0:0:0:
256,320,64862,1,0,0:0:0:0:
328,352,65005,6,0,L|368:272,1,80,8|0,0:0|0:0,0:0:0:0:
416,120,65290,2,0,L|336:80,1,80,0|8,0:0|0:0,0:0:0:0:
304,72,65505,1,8,0:0:0:0:
272,96,65576,2,0,P|264:136|272:184,1,80,8|0,0:0|0:0,0:0:0:0:
363,280,65862,1,8,0:0:0:0:
168,240,66148,6,0,L|128:192,1,55.9999982910157,0|4,0:0|0:0,0:0:0:0:
256,192,75576,5,2,0:0:0:0:
392,80,75862,6,0,B|400:120|400:120|392:160|392:160|400:200,1,120.000004577637
368,336,76433,2,0,L|312:280,1,60.0000022888184
160,296,76862,2,0,L|104:344,2,60.0000022888184
256,192,77719,1,0,0:0:0:0:
256,192,77862,2,0,B|296:184|296:184|344:192|344:192|384:184,1,120.000004577637
384,88,78290,2,0,B|344:96|344:96|296:88|296:88|256:96,1,120.000004577637
192,112,78862,1,0,0:0:0:0:
120,192,79148,5,0,0:0:0:0:
120,264,79290,1,0,0:0:0:0:
120,336,79433,1,0,0:0:0:0:
232,312,79576,2,0,L|256:248,1,60.0000022888184
304,192,79862,2,0,L|336:256,1,60.0000022888184
368,312,80148,6,0,P|400:296|432:208,1,120.000004577637
416,144,80576,1,0,0:0:0:0:
344,104,80719,2,0,P|312:112|280:104,1,60.0000022888184,8|0,0:0|0:0,0:0:0:0:
216,72,81005,1,0,0:0:0:0:
144,104,81148,2,0,B|152:136|144:176|144:176|160:232,1,120.000004577637
208,280,81576,1,0,0:0:0:0:
280,248,81719,6,0,P|312:240|344:248,1,60.0000022888184,0|8,0:0|0:0,0:0:0:0:
416,264,82005,2,0,L|448:136,1,120.000004577637
464,72,82433,1,0,0:0:0:0:
384,96,82576,2,0,L|312:136,1,60.0000022888184
264,168,82862,2,0,L|304:240,1,60.0000022888184,0|8,0:0|0:0,0:0:0:0:
320,296,83148,6,0,B|280:304|280:304|232:296|232:296|200:304,1,120.000004577637
136,320,83719,1,0,0:0:0:0:
64,344,83862,1,0,0:0:0:0:
64,344,84005,1,0,0:0:0:0:
80,248,84148,2,0,P|72:216|80:168,1,60.0000022888184
80,160,84362,5,0,0:0:0:0:
104,136,84433,2,0,L|136:128,1,27.9999991455078
168,120,84648,1,0,0:0:0:0:
200,128,84719,2,0,P|208:160|200:200,1,60.0000022888184,4|0,0:0|0:0,0:0:0:0:
160,248,85005,1,8,0:0:0:0:
256,320,85148,5,0,0:0:0:0:
304,192,85290,2,0,P|296:160|304:120,1,60.0000022888184
352,72,85576,2,0,P|384:80|416:72,2,60.0000022888184,8|0|0,0:0|0:0|0:0,0:0:0:0:
280,40,86005,1,0,0:0:0:0:
216,80,86148,1,8,0:0:0:0:
152,120,86290,1,0,0:0:0:0:
152,120,86433,6,0,P|152:152|144:184,1,60.0000022888184
208,312,86719,2,0,P|208:288|216:248,1,60.0000022888184,8|0,0:0|0:0,0:0:0:0:
232,232,86934,1,0,0:0:0:0:
248,216,87005,2,0,P|256:184|256:144,1,60.0000022888184
320,56,87290,6,0,P|320:80|328:120,1,60.0000022888184,8|0,0:0|0:0,0:0:0:0:
376,168,87576,1,0,0:0:0:0:
424,232,87719,1,0,0:0:0:0:
424,304,87862,2,0,P|392:312|352:304,1,60.0000022888184,8|0,0:0|0:0,0:0:0:0:
336,296,88076,1,0,0:0:0:0:
312,280,88148,2,0,P|304:248|312:208,1,60.0000022888184
352,160,88433,6,0,P|360:128|352:96,1,60.0000022888184,8|0,0:0|0:0,0:0:0:0:
296,48,88719,1,0,0:0:0:0:
216,48,88862,1,0,0:0:0:0:
152,96,89005,2,0,P|144:128|144:168,1,60.0000022888184,8|0,0:0|0:0,0:0:0:0:
152,176,89218,1,0,0:0:0:0:
168,192,89290,2,0,P|176:224|168:264,1,60.0000022888184,4|0,0:0|0:0,0:0:0:0:
192,328,89576,6,0,P|224:320|256:328,1,60.0000022888184,8|0,0:0|0:0,0:0:0:0:
320,352,89862,1,0,0:0:0:0:
376,296,90005,1,0,0:0:0:0:
384,216,90148,2,0,P|384:192|368:144,1,60.0000022888184,8|0,0:0|0:0,0:0:0:0:
320,112,90362,1,0,0:0:0:0:
320,112,90433,2,0,P|288:120|256:112,1,60.0000022888184
56,168,90719,6,0,P|88:160|128:168,1,60.0000022888184,8|0,0:0|0:0,0:0:0:0:
192,184,91005,1,0,0:0:0:0:
304,256,91148,1,0,0:0:0:0:
192,184,91290,2,0,P|184:152|192:112,1,60.0000022888184,8|0,0:0|0:0,0:0:0:0:
216,64,91505,1,0,0:0:0:0:
216,64,91576,2,0,P|248:72|288:64,1,60.0000022888184
352,48,91862,6,0,L|384:112,1,60.0000022888184,8|0,0:0|0:0,0:0:0:0:
160,336,92148,2,0,L|128:272,1,60.0000022888184
104,208,92433,1,8,0:0:0:0:
160,144,92576,1,0,0:0:0:0:
240,160,92719,1,0,0:0:0:0:
304,112,92862,5,8,0:0:0:0:
304,112,92933,1,8,0:0:0:0:
304,112,93005,1,8,0:0:0:0:
384,128,93148,5,2,0:0:0:0:
256,352,93290,1,8,0:0:0:0:
448,184,93433,1,8,0:0:0:0:
224,280,93576,1,2,0:0:0:0:
472,264,93719,1,2,0:0:0:0:
192,208,93862,2,0,B|192:176|192:176|200:136|200:136|192:88,1,120.000004577637,4|0,0:0|0:0,0:0:0:0:
120,48,94290,5,0,0:0:0:0:
56,96,94433,2,0,P|48:128|56:168,1,60.0000022888184,8|0,0:0|0:0,0:0:0:0:
64,176,94648,1,0,0:0:0:0:
80,192,94719,2,0,P|88:224|80:272,1,60.0000022888184,0|8,0:0|0:0,0:0:0:0:
112,336,95005,6,0,P|144:328|184:336,1,60.0000022888184
248,344,95290,1,0,0:0:0:0:
296,280,95433,1,0,0:0:0:0:
296,200,95576,2,0,P|280:168|280:128,1,60.0000022888184,8|0,0:0|0:0,0:0:0:0:
280,112,95790,1,0,0:0:0:0:
304,88,95862,2,0,P|336:96|368:88,1,60.0000022888184
432,56,96148,5,0,0:0:0:0:
432,56,96219,1,0,0:0:0:0:
432,56,96290,1,0,0:0:0:0:
440,136,96433,2,0,P|408:160|392:200,1,60.0000022888184
376,264,96719,2,0,P|344:272|304:264,1,60.0000022888184,8|0,0:0|0:0,0:0:0:0:
288,256,96933,1,0,0:0:0:0:
256,256,97005,2,0,P|248:296|256:336,1,60.0000022888184,0|8,0:0|0:0,0:0:0:0:
160,248,97290,6,0,P|168:216|160:184,1,60.0000022888184
112,128,97576,1,0,0:0:0:0:
168,72,97719,1,0,0:0:0:0:
240,128,97862,1,8,0:0:0:0:
267,140,97933,1,0,0:0:0:0:
296,143,98004,1,0,0:0:0:0:
325,137,98076,5,0,0:0:0:0:
352,128,98148,1,0,0:0:0:0:
358,157,98219,1,0,0:0:0:0:
359,187,98290,1,0,0:0:0:0:
354,216,98362,1,0,0:0:0:0:
336,240,98433,2,0,P|304:232|264:240,1,60.0000022888184,4|0,0:0|0:0,0:0:0:0:
352,320,98719,6,0,P|384:328|424:320,1,60.0000022888184
464,272,99005,1,8,0:0:0:0:
440,200,99148,1,0,0:0:0:0:
440,200,99219,1,0,0:0:0:0:
440,200,99290,2,0,P|432:168|440:128,1,60.0000022888184,0|8,0:0|0:0,0:0:0:0:
408,64,99576,6,0,P|376:72|344:64,1,60.0000022888184
280,48,99862,1,0,0:0:0:0:
224,96,100005,1,0,0:0:0:0:
224,96,100148,2,0,P|232:128|224:176,1,60.0000022888184,8|0,0:0|0:0,0:0:0:0:
224,176,100362,1,0,0:0:0:0:
208,192,100433,2,0,P|200:232|208:272,1,60.0000022888184
256,312,100719,6,0,P|288:304|328:312,1,60.0000022888184
384,336,101005,1,0,0:0:0:0:
480,192,101148,1,0,0:0:0:0:
384,336,101290,2,0,P|392:296|384:272,1,60.0000022888184,8|0,0:0|0:0,0:0:0:0:
368,248,101505,1,0,0:0:0:0:
344,240,101576,2,0,P|312:248|280:240,1,60.0000022888184,0|8,0:0|0:0,0:0:0:0:
408,80,101862,5,8,0:0:0:0:
104,304,102005,1,8,0:0:0:0:
416,152,102148,5,8,0:0:0:0:
96,232,102290,1,8,0:0:0:0:
424,224,102433,5,8,0:0:0:0:
88,160,102576,1,8,0:0:0:0:
432,296,102719,5,8,0:0:0:0:
80,88,102862,1,8,0:0:0:0:
376,48,103005,6,0,L|336:56,1,40
136,336,103433,6,0,L|232:320,1,89.9999972534181
280,96,103862,6,0,L|296:232,1,129.999994049073
400,312,104290,6,0,L|376:112,1,200
112,72,104719,6,0,L|136:288,1,207.999990478516,0|8,0:0|0:0,0:0:0:0:
376,113,105290,2,0,L|424:49,2,80,4|0|8,0:0|0:0|0:0,0:0:0:0:
320,160,105862,1,0,0:0:0:0:
264,208,106005,2,0,P|256:248|264:288,1,80,0|8,0:0|0:0,0:0:0:0:
320,328,106290,1,0,0:0:0:0:
384,296,106433,2,0,P|424:288|464:296,2,80,0|0|8,0:0|0:0|0:0,0:0:0:0:
328,248,106862,5,0,0:0:0:0:
376,192,107005,1,0,0:0:0:0:
376,104,107148,1,0,0:0:0:0:
320,56,107290,2,0,B|272:64|272:64|216:56|216:56|160:64,1,160,8|4,0:0|0:0,0:0:0:0:
88,104,107719,2,0,P|96:144|88:192,1,80,0|8,0:0|0:0,0:0:0:0:
40,248,108005,6,0,P|32:288|40:328,1,80
112,352,108290,1,0,0:0:0:0:
192,320,108433,1,8,0:0:0:0:
272,352,108576,1,0,0:0:0:0:
344,312,108719,2,0,L|320:224,1,80
360,104,109005,2,0,L|384:192,1,80,8|0,0:0|0:0,0:0:0:0:
400,256,109290,5,0,0:0:0:0:
360,280,109362,1,0,0:0:0:0:
320,304,109433,1,0,0:0:0:0:
256,256,109576,2,0,L|256:168,2,80,8|0|4,0:0|0:0|0:0,0:0:0:0:
232,336,110005,1,0,0:0:0:0:
168,288,110148,6,0,B|128:264|128:264|104:216|104:216|48:184,1,160,8|0,0:0|0:0,0:0:0:0:
48,112,110576,1,0,0:0:0:0:
104,64,110719,2,0,P|144:72|184:64,1,80,8|0,0:0|0:0,0:0:0:0:
248,112,111005,2,0,P|256:152|248:200,2,80,0|0|8,0:0|0:0|0:0,0:0:0:0:
248,32,111433,1,0,0:0:0:0:
320,64,111576,1,0,0:0:0:0:
392,96,111719,1,0,0:0:0:0:
392,96,111862,6,0,L|424:256,1,160,8|4,0:0|0:0,0:0:0:0:
440,336,112290,1,0,0:0:0:0:
368,312,112433,1,8,0:0:0:0:
296,336,112576,1,0,0:0:0:0:
224,312,112719,2,0,P|184:304|136:312,2,80,0|0|8,0:0|0:0|0:0,0:0:0:0:
288,264,113148,6,0,P|296:224|288:184,1,80
232,128,113433,1,8,0:0:0:0:
194,115,113504,1,8,0:0:0:0:
156,102,113575,1,8,0:0:0:0:
72,144,113719,1,8,0:0:0:0:
120,216,113862,5,2,0:0:0:0:
120,304,114005,1,8,0:0:0:0:
208,280,114148,1,8,0:0:0:0:
304,304,114290,1,8,0:0:0:0:
304,304,114433,2,0,L|344:216,1,80,4|0,0:0|0:0,0:0:0:0:
208,80,114719,2,0,L|168:168,1,80,8|0,0:0|0:0,0:0:0:0:
136,224,115005,5,0,0:0:0:0:
160,304,115148,1,0,0:0:0:0:
232,344,115290,2,0,P|312:328|400:344,1,160,8|0,0:0|0:0,0:0:0:0:
456,360,115719,1,0,0:0:0:0:
472,280,115862,1,8,0:0:0:0:
456,200,116005,1,0,0:0:0:0:
352,56,116148,5,0,0:0:0:0:
336,136,116291,1,0,0:0:0:0:
352,216,116433,2,0,B|312:224|312:224|256:216|256:216|192:224,1,160,8|4,0:0|0:0,0:0:0:0:
120,240,116862,2,0,B|112:200|112:200|120:152,2,80,0|8|0,0:0|0:0|0:0,0:0:0:0:
168,296,117290,1,0,0:0:0:0:
240,272,117433,1,0,0:0:0:0:
312,296,117576,2,0,P|352:288|400:296,1,80,8|0,0:0|0:0,0:0:0:0:
256,192,117862,2,0,P|216:200|168:192,1,80
104,152,118148,5,8,0:0:0:0:
144,80,118290,1,0,0:0:0:0:
216,40,118433,1,8,0:0:0:0:
237,73,118504,1,8,0:0:0:0:
268,98,118575,1,8,0:0:0:0:
306,111,118647,1,8,0:0:0:0:
345,110,118718,5,8,0:0:0:0:
383,96,118790,1,8,0:0:0:0:
408,72,118862,1,8,0:0:0:0:
432,56,118933,1,8,0:0:0:0:
464,56,119005,2,0,P|472:96|464:144,1,80,4|0,0:0|0:0,0:0:0:0:
424,192,119290,5,8,0:0:0:0:
344,232,119433,1,0,0:0:0:0:
256,192,119576,1,0,0:0:0:0:
160,224,119719,1,0,0:0:0:0:
160,224,119862,2,0,P|128:144|160:72,1,160,8|0,0:0|0:0,0:0:0:0:
216,40,120290,5,0,0:0:0:0:
304,72,120433,1,8,0:0:0:0:
392,40,120576,1,0,0:0:0:0:
456,128,120719,1,0,0:0:0:0:
400,208,120862,1,0,0:0:0:0:
448,296,121005,2,0,B|400:288|400:288|344:304|344:304|288:296,1,160,8|4,0:0|0:0,0:0:0:0:
216,296,121433,6,0,L|160:352,2,80,0|8|0,0:0|0:0|0:0,0:0:0:0:
256,192,121862,1,0,0:0:0:0:
376,88,122005,1,0,0:0:0:0:
256,192,122148,2,0,P|216:200|168:192,1,80,8|0,0:0|0:0,0:0:0:0:
48,272,122433,2,0,P|88:264|136:272,1,80,0|8,0:0|0:0,0:0:0:0:
152,288,122648,1,8,0:0:0:0:
176,312,122719,2,0,P|216:320|264:312,1,80,8|0,0:0|0:0,0:0:0:0:
408,80,123005,1,8,0:0:0:0:
177,195,123290,6,0,L|152:136,1,55.9999982910157,0|4,0:0|0:0,0:0:0:0:
40,112,132719,6,0,P|72:120|112:112,1,60.0000022888184
160,80,133005,2,0,P|200:72|232:80,1,60.0000022888184
272,120,133290,2,0,P|304:128|344:120,1,60.0000022888184
392,88,133576,2,0,P|432:80|464:88,1,60.0000022888184
480,160,133862,2,0,L|400:256,1,120.000004577637
344,304,134290,1,0,0:0:0:0:
96,320,134862,6,0,L|80:240,1,60.0000022888184
416,64,135148,6,0,L|432:144,1,60.0000022888184
64,184,135433,2,0,P|96:184|128:176,1,60.0000022888184
448,200,135719,2,0,P|416:200|384:208,1,60.0000022888184
320,248,136005,1,0,0:0:0:0:
248,256,136148,2,0,B|208:264|208:264|160:256|160:256|120:264,1,120.000004577637
64,288,136576,1,0,0:0:0:0:
368,144,137290,6,0,P|360:112|368:64,1,60.0000022888184
144,240,137576,2,0,P|152:272|144:320,1,60.0000022888184
280,56,137862,2,0,P|248:64|208:56,1,60.0000022888184
232,328,138148,2,0,P|264:320|304:328,1,60.0000022888184
360,336,138433,2,0,L|416:216,1,120.000004577637
440,160,138862,1,0,0:0:0:0:
152,72,139433,5,0,0:0:0:0:
96,120,139576,2,0,P|80:192|96:256,1,120.000004577637
144,288,140005,2,0,P|208:272|272:288,1,120.000004577637
328,312,140433,1,0,0:0:0:0:
352,240,140576,1,0,0:0:0:0:
376,168,140719,2,0,B|328:176|288:160|288:160|240:176,1,120.000004577637
200,216,141148,1,0,0:0:0:0:
200,216,141290,1,0,0:0:0:0:
88,168,141862,6,0,P|80:136|88:104,1,60.0000022888184,4|0,0:0|0:0,0:0:0:0:
424,216,142148,6,0,P|432:248|424:280,1,60.0000022888184
144,64,142433,2,0,P|176:72|216:64,1,60.0000022888184,8|0,0:0|0:0,0:0:0:0:
368,320,142719,2,0,P|336:312|296:320,1,60.0000022888184
264,32,143005,1,0,0:0:0:0:
320,80,143148,1,0,0:0:0:0:
320,152,143290,5,0,0:0:0:0:
296,176,143362,1,0,0:0:0:0:
272,200,143433,1,0,0:0:0:0:
216,240,143576,2,0,L|144:136,1,120.000004577637,8|0,0:0|0:0,0:0:0:0:
104,80,144005,1,0,0:0:0:0:
104,80,144076,1,0,0:0:0:0:
104,80,144148,1,0,0:0:0:0:
176,40,144290,6,0,P|208:48|240:40,1,60.0000022888184
400,136,144576,2,0,P|368:128|336:136,1,60.0000022888184,0|8,0:0|0:0,0:0:0:0:
256,192,144862,1,0,0:0:0:0:
341,133,145005,1,0,0:0:0:0:
256,192,145148,1,0,0:0:0:0:
341,133,145290,2,0,P|349:101|341:69,1,60.0000022888184
171,251,145576,6,0,P|163:283|171:315,1,60.0000022888184
240,344,145862,2,0,B|280:336|280:336|320:344|320:344|368:336,1,120.000004577637,8|0,0:0|0:0,0:0:0:0:
424,304,146290,1,0,0:0:0:0:
392,232,146433,1,0,0:0:0:0:
376,207,146504,1,0,0:0:0:0:
360,184,146576,2,0,P|328:176|288:184,1,60.0000022888184
240,216,146862,6,0,P|232:184|240:136,2,60.0000022888184,0|8|0,0:0|0:0|0:0,0:0:0:0:
288,288,147290,1,0,0:0:0:0:
208,312,147433,1,0,0:0:0:0:
128,288,147576,1,0,0:0:0:0:
128,288,147719,2,0,P|120:248|128:208,1,60.0000022888184
144,152,148005,1,0,0:0:0:0:
144,152,148148,6,0,L|256:96,1,120.000004577637,8|0,0:0|0:0,0:0:0:0:
320,64,148576,1,0,0:0:0:0:
320,64,148648,1,0,0:0:0:0:
320,64,148719,2,0,L|368:104,1,60.0000022888184
424,144,149005,1,0,0:0:0:0:
336,304,149148,5,0,0:0:0:0:
256,264,149290,2,0,L|256:192,2,60.0000022888184,8|0|0,0:0|0:0|0:0,0:0:0:0:
176,304,149719,2,0,P|144:312|104:304,1,60.0000022888184,0|8,0:0|0:0,0:0:0:0:
56,248,150005,2,0,B|56:208|56:208|48:168|48:168|56:120,1,120.000004577637,8|0,0:0|0:0,0:0:0:0:
120,72,150433,2,0,B|152:72|168:76|168:76|184:68|184:68|200:72|232:72,1,111.999996582031,8|4,0:0|0:0,0:0:0:0:
392,72,151290,5,0,0:0:0:0:
320,152,151576,2,0,L|304:232,1,60.0000022888184
192,232,151862,2,0,L|208:152,1,60.0000022888184
224,80,152148,2,0,B|264:88|312:72|312:72|352:88,1,120.000004577637
408,128,152576,2,0,B|400:176|400:176|408:240|408:240|392:312,1,180.000006866455
296,336,153290,6,0,P|264:328|232:336,1,60.0000022888184
168,280,153576,2,0,P|176:248|168:208,1,60.0000022888184
208,136,153862,2,0,P|248:144|296:136,1,90.0000034332277
328,128,154148,2,0,B|336:160|336:160|328:200|328:200|336:248,1,120.000004577637
344,328,154719,1,0,0:0:0:0:
344,328,154862,1,0,0:0:0:0:
192,232,155290,6,0,P|152:240|96:224,1,90.0000034332277
80,216,155576,2,0,B|72:176|72:176|80:128|80:128|72:80,1,120.000004577637
136,40,156148,1,0,0:0:0:0:
208,72,156291,1,0,0:0:0:0:
280,40,156433,1,0,0:0:0:0:
352,72,156576,1,0,0:0:0:0:
280,120,156719,2,0,B|272:152|272:152|280:192|280:192|272:256,1,120.000004577637
248,312,157148,1,0,0:0:0:0:
120,264,157576,6,0,P|136:208|120:128,1,120.000004577637
80,80,158005,1,0,0:0:0:0:
160,40,158148,1,0,0:0:0:0:
240,72,158290,1,0,0:0:0:0:
320,40,158433,2,0,L|320:168,1,120.000004577637
408,328,158862,6,0,L|408:256,1,60.0000022888184
408,192,159148,1,0,0:0:0:0:
408,112,159291,1,0,0:0:0:0:
408,32,159434,1,0,0:0:0:0:
256,192,159862,5,10,0:0:0:0:
120,264,160148,6,0,P|72:272|24:264,2,95.9999970703126,4|0|8,0:0|0:0|0:0,0:0:0:0:
184,224,160719,1,0,0:0:0:0:
248,264,160862,2,0,P|296:272|344:264,1,95.9999970703126,0|8,0:0|0:0,0:0:0:0:
408,224,161148,1,0,0:0:0:0:
408,224,161290,2,0,L|392:128,2,95.9999970703126,0|0|8,0:0|0:0|0:0,0:0:0:0:
424,304,161719,1,0,0:0:0:0:
352,336,161862,6,0,P|304:344|248:336,1,95.9999970703126
192,304,162148,2,0,B|200:240|200:240|192:176|192:176|200:112,1,191.999994140625,8|4,0:0|0:0,0:0:0:0:
216,32,162576,1,0,0:0:0:0:
288,72,162719,1,8,0:0:0:0:
360,112,162862,1,0,0:0:0:0:
360,328,163005,5,0,0:0:0:0:
288,288,163148,1,0,0:0:0:0:
216,248,163290,2,0,P|200:200|216:144,1,95.9999970703126,8|0,0:0|0:0,0:0:0:0:
224,128,163505,1,0,0:0:0:0:
248,120,163576,2,0,P|296:128|344:120,1,95.9999970703126
416,80,163862,5,8,0:0:0:0:
96,304,164005,1,0,0:0:0:0:
448,144,164148,5,0,0:0:0:0:
64,240,164290,1,8,0:0:0:0:
64,240,164362,1,8,0:0:0:0:
64,240,164433,2,0,P|72:192|64:136,1,95.9999970703126,0|8,0:0|0:0,0:0:0:0:
112,80,164719,2,0,P|160:88|216:80,1,95.9999970703126,4|0,0:0|0:0,0:0:0:0:
280,64,165005,6,0,B|288:128|288:128|280:176|280:176|296:256,1,191.999994140625,8|0,0:0|0:0,0:0:0:0:
312,336,165433,1,0,0:0:0:0:
376,296,165576,1,8,0:0:0:0:
408,224,165719,1,0,0:0:0:0:
360,160,165862,2,0,P|312:168|264:160,1,95.9999970703126
200,120,166148,1,8,0:0:0:0:
200,120,166290,2,0,L|104:184,2,95.9999970703126
264,80,166719,2,0,B|312:88|312:88|384:80|384:80|456:96,1,191.999994140625,8|4,0:0|0:0,0:0:0:0:
464,168,167148,5,0,0:0:0:0:
400,224,167290,1,8,0:0:0:0:
328,272,167433,1,0,0:0:0:0:
248,312,167576,1,0,0:0:0:0:
176,280,167719,2,0,P|168:232|176:184,1,95.9999970703126,0|8,0:0|0:0,0:0:0:0:
248,160,168005,2,0,P|296:168|344:160,2,95.9999970703126,0|0|8,0:0|0:0|0:0,0:0:0:0:
248,160,168362,1,8,0:0:0:0:
248,160,168433,1,8,0:0:0:0:
184,112,168576,5,0,0:0:0:0:
104,96,168719,1,8,0:0:0:0:
66,125,168790,1,8,0:0:0:0:
44,167,168861,1,8,0:0:0:0:
41,215,168933,1,8,0:0:0:0:
57,260,169004,5,8,0:0:0:0:
89,294,169076,1,8,0:0:0:0:
133,313,169147,1,8,0:0:0:0:
181,312,169219,1,8,0:0:0:0:
224,296,169290,2,0,P|264:200|224:104,1,191.999994140625,4|12,0:0|0:0,0:0:0:0:
128,80,169862,6,0,L|32:32,1,95.9999970703126
192,128,170148,2,0,B|184:184|184:184|192:248|192:248|176:328,1,191.999994140625,12|0,0:0|0:0,0:0:0:0:
256,352,170576,1,0,0:0:0:0:
344,320,170719,1,12,0:0:0:0:
432,352,170862,1,0,0:0:0:0:
464,280,171005,1,0,0:0:0:0:
432,192,171148,1,0,0:0:0:0:
464,104,171290,2,0,B|400:96|400:96|328:112|328:112|240:96,1,191.999994140625,12|0,0:0|0:0,0:0:0:0:
88,48,171719,5,0,0:0:0:0:
424,336,171862,1,12,0:0:0:0:
72,128,172005,5,0,0:0:0:0:
440,256,172148,1,0,0:0:0:0:
56,208,172290,5,0,0:0:0:0:
456,176,172433,1,12,0:0:0:0:
40,288,172576,5,0,0:0:0:0:
472,96,172719,1,0,0:0:0:0:
256,192,172862,1,0,0:0:0:0:
304,120,173005,2,0,L|392:176,1,95.9999970703126,12|0,0:0|0:0,0:0:0:0:
392,259,173290,1,0,0:0:0:0:
312,280,173433,1,8,0:0:0:0:
312,280,173505,1,8,0:0:0:0:
312,280,173576,2,0,L|256:192,1,95.9999970703126,0|8,0:0|0:0,0:0:0:0:
256,80,173862,2,0,B|200:96|200:96|128:88|128:88|64:104,1,191.999994140625,4|12,0:0|0:0,0:0:0:0:
64,272,174433,6,0,L|144:328,1,95.9999970703126
224,328,174719,2,0,B|248:264|248:264|248:208|248:208|280:136,1,191.999994140625,12|0,0:0|0:0,0:0:0:0:
312,80,175148,1,0,0:0:0:0:
400,48,175290,1,12,0:0:0:0:
472,104,175433,1,0,0:0:0:0:
488,192,175576,1,0,0:0:0:0:
432,256,175719,1,0,0:0:0:0:
432,256,175862,6,0,B|368:264|368:264|304:256|304:256|240:272,1,191.999994140625,12|0,0:0|0:0,0:0:0:0:
48,328,176290,5,0,0:0:0:0:
464,56,176433,1,12,0:0:0:0:
64,248,176576,5,0,0:0:0:0:
448,136,176719,1,0,0:0:0:0:
72,168,176862,5,0,0:0:0:0:
440,216,177005,1,12,0:0:0:0:
72,88,177148,5,0,0:0:0:0:
440,296,177290,1,0,0:0:0:0:
336,336,177433,5,8,0:0:0:0:
358,293,177504,1,8,0:0:0:0:
357,246,177575,1,8,0:0:0:0:
334,205,177647,1,8,0:0:0:0:
304,176,177719,1,8,0:0:0:0:
289,131,177790,1,8,0:0:0:0:
295,84,177861,1,8,0:0:0:0:
216,312,178005,5,2,0:0:0:0:
416,56,178148,1,2,0:0:0:0:
256,192,178290,1,8,0:0:0:0:
416,56,178433,6,0,B|368:64|368:64|304:56|304:56|224:64,1,191.999994140625,4|8,0:0|0:0,0:0:0:0:
120,80,178862,2,0,P|112:136|120:184,1,95.9999970703126
152,240,179148,1,0,0:0:0:0:
224,224,179290,2,0,B|280:232|280:232|344:224|344:224|416:232,1,191.999994140625,8|0,0:0|0:0,0:0:0:0:
464,344,179719,1,0,0:0:0:0:
414,231,179862,5,8,0:0:0:0:
320,320,180005,1,0,0:0:0:0:
288,176,180148,1,0,0:0:0:0:
184,264,180290,1,0,0:0:0:0:
152,128,180433,2,0,B|200:96|224:64|224:64|256:96|304:128,1,191.999994140625,8|4,0:0|0:0,0:0:0:0:
368,176,180862,5,0,0:0:0:0:
256,352,181005,1,8,0:0:0:0:
152,128,181148,1,0,0:0:0:0:
376,272,181290,1,0,0:0:0:0:
256,72,181433,1,0,0:0:0:0:
180,284,181576,6,0,P|132:244|156:124,1,191.999994140625,8|0,0:0|0:0,0:0:0:0:
216,88,182005,2,0,P|264:104|320:88,1,95.9999970703126,0|8,0:0|0:0,0:0:0:0:
384,64,182290,1,0,0:0:0:0:
432,128,182433,1,0,0:0:0:0:
376,200,182576,5,8,0:0:0:0:
331,215,182647,1,8,0:0:0:0:
283,209,182718,1,8,0:0:0:0:
208,168,182862,5,8,0:0:0:0:
136,136,183005,2,0,B|128:184|128:184|136:240|136:240|120:328,1,191.999994140625,4|8,0:0|0:0,0:0:0:0:
192,344,183433,1,0,0:0:0:0:
256,192,183576,1,0,0:0:0:0:
360,272,183719,1,0,0:0:0:0:
400,120,183862,2,0,L|208:56,1,191.999994140625,8|0,0:0|0:0,0:0:0:0:
136,40,184290,5,0,0:0:0:0:
40,128,184433,1,8,0:0:0:0:
136,208,184576,1,0,0:0:0:0:
40,304,184719,1,0,0:0:0:0:
136,352,184862,1,0,0:0:0:0:
232,304,185005,2,0,B|288:304|328:336|328:336|368:304|424:304,1,191.999994140625,8|4,0:0|0:0,0:0:0:0:
448,48,185433,6,0,L|352:104,1,95.9999970703126,0|8,0:0|0:0,0:0:0:0:
288,120,185719,1,0,0:0:0:0:
208,112,185862,2,0,B|168:168|168:168|112:200|112:200|88:264,1,191.999994140625,0|8,0:0|0:0,0:0:0:0:
128,336,186290,2,0,P|176:328|224:336,2,95.9999970703126,0|0|8,0:0|0:0|0:0,0:0:0:0:
128,336,186648,1,8,0:0:0:0:
128,336,186719,1,8,0:0:0:0:
64,272,186862,5,8,0:0:0:0:
128,192,187005,2,0,L|104:136,1,47.9999985351563
216,256,187148,2,0,L|240:304,1,47.9999985351563
200,184,187290,2,0,B|256:176|256:176|320:192|320:192|392:176,1,191.999994140625,4|4,0:0|0:0,0:0:0:0:
456,72,187719,5,0,0:0:0:0:
56,312,187862,1,8,0:0:0:0:
464,152,188005,5,0,0:0:0:0:
48,232,188148,1,0,0:0:0:0:
472,232,188290,5,0,0:0:0:0:
40,152,188433,2,0,L|216:48,1,191.999994140625,8|0,0:0|0:0,0:0:0:0:
280,40,188862,5,0,0:0:0:0:
232,344,189005,1,8,0:0:0:0:
328,104,189148,5,0,0:0:0:0:
184,280,189290,1,0,0:0:0:0:
384,168,189433,5,0,0:0:0:0:
128,216,189576,2,0,B|168:192|200:152|200:152|232:192|288:224,1,191.999994140625,8|4,0:0|0:0,0:0:0:0:
328,264,190005,2,0,P|376:280|432:264,1,95.9999970703126,0|8,0:0|0:0,0:0:0:0:
472,216,190290,1,0,0:0:0:0:
432,152,190433,2,0,P|376:144|336:112,1,95.9999970703126
280,72,190719,1,8,0:0:0:0:
280,72,190862,1,0,0:0:0:0:
216,112,191005,2,0,P|184:144|136:152,1,95.9999970703126
56,152,191290,5,8,0:0:0:0:
112,336,191433,1,0,0:0:0:0:
176,256,191576,2,0,P|232:248|280:256,1,95.9999970703126,0|8,0:0|0:0,0:0:0:0:
296,264,191790,1,8,0:0:0:0:
320,280,191862,1,8,0:0:0:0:
392,328,192005,1,8,0:0:0:0:
120,56,192148,5,4,0:0:0:0:
424,248,192290,1,0,0:0:0:0:
88,136,192433,1,8,0:0:0:0:
448,160,192576,1,0,0:0:0:0:
64,224,192719,1,0,0:0:0:0:
424,88,192862,1,0,0:0:0:0:
88,296,193005,2,0,B|136:304|184:288|184:288|232:304|280:296,1,191.999994140625,8|0,0:0|0:0,0:0:0:0:
360,272,193433,5,0,0:0:0:0:
152,112,193576,1,8,0:0:0:0:
392,192,193719,1,0,0:0:0:0:
120,192,193862,1,0,0:0:0:0:
416,112,194005,1,0,0:0:0:0:
96,272,194148,2,0,L|288:320,1,191.999994140625,8|4,0:0|0:0,0:0:0:0:
368,328,194576,6,0,P|424:320|472:328,2,95.9999970703126,0|8|0,0:0|0:0|0:0,0:0:0:0:
328,256,195005,1,0,0:0:0:0:
360,184,195148,1,0,0:0:0:0:
360,104,195290,2,0,P|312:112|264:104,1,95.9999970703126,8|0,0:0|0:0,0:0:0:0:
192,72,195576,1,0,0:0:0:0:
96,152,195719,5,8,0:0:0:0:
103,199,195790,1,8,0:0:0:0:
110,246,195861,1,8,0:0:0:0:
256,344,196005,1,8,0:0:0:0:
256,192,196148,1,8,0:0:0:0:
104,272,196719,6,0,P|160:264|216:272,1,103.999995239258
288,304,197148,2,0,L|320:240,1,51.999997619629
224,144,197433,2,0,L|200:200,1,51.999997619629
168,296,197719,1,0,0:0:0:0:
80,112,198005,6,0,L|56:48,1,51.999997619629
328,72,198862,1,0,0:0:0:0:
328,72,199005,2,0,P|384:72|424:120,1,103.999995239258
360,248,199433,2,0,P|312:248|272:288,1,103.999995239258
192,192,200005,2,0,P|192:144|144:96,1,103.999995239258
80,72,200433,1,0,0:0:0:0:
80,72,200576,1,0,0:0:0:0:
416,336,201433,6,0,L|392:272,1,51.999997619629
168,56,201719,2,0,L|192:120,1,51.999997619629
216,184,202005,1,0,0:0:0:0:
216,184,202148,2,0,L|272:136,1,51.999997619629
464,192,202576,2,0,L|408:240,1,51.999997619629
368,288,202862,5,0,0:0:0:0:
288,320,203005,2,0,P|224:296|136:328,1,155.999992858887
64,288,203576,2,0,L|104:184,1,103.999995239258
152,96,204005,1,0,0:0:0:0:
256,120,204291,2,0,L|280:240,1,103.999995239258
296,328,204719,5,0,0:0:0:0:
416,72,204862,1,0,0:0:0:0:
168,192,205005,1,0,0:0:0:0:
416,248,205148,1,0,0:0:0:0:
