osu file format v14

[General]
AudioFilename: audio.mp3
AudioLeadIn: 0
PreviewTime: 56291
Countdown: 1
SampleSet: Normal
StackLeniency: 0.7
Mode: 0
LetterboxInBreaks: 0
WidescreenStoryboard: 0

[Editor]
Bookmarks: 33666,80083,135583
DistanceSpacing: 0.8
BeatDivisor: 6
GridSize: 32
TimelineZoom: 0.9000001

[Metadata]
Title:Indiana
TitleUnicode:Indiana
Artist:Declan DP
ArtistUnicode:Declan DP
Creator:Staniczek
Version:INSANE Stanika!
Source:
Tags:
BeatmapID:1997187
BeatmapSetID:956071

[Difficulty]
HPDrainRate:4
CircleSize:4.5
OverallDifficulty:5
ApproachRate:9
SliderMultiplier:1.4
SliderTickRate:1

[Events]
//Background and Video events
0,0,"1360828.jpg",0,0
//Break Periods
2,80073,95333
//Storyboard Layer 0 (Background)
//Storyboard Layer 1 (Fail)
//Storyboard Layer 2 (Pass)
//Storyboard Layer 3 (Foreground)
//Storyboard Sound Samples

[TimingPoints]
0,250,4,1,0,70,1,0
1,250,4,1,0,70,1,0
8167,750,4,1,0,70,1,0
12042,250,4,1,0,70,1,0
18125,1500,4,1,0,70,1,0
18625,250,4,1,0,70,1,0
39333,500,4,1,0,70,1,0
44333,250,4,1,0,70,1,0
76083,250,4,1,0,70,1,0
107333,1500,4,1,0,70,1,0
107833,250,4,1,0,70,1,0
112083,1500,4,1,0,70,1,0
113083,250,4,1,0,100,1,0

[HitObjects]
18,192,1,5,4,0:0:0:0:
133,138,501,2,0,L|292:85,1,163.333333333333
320,160,1042,2,0,B|320:224|320:256|224:256,1,163.333333333333
256,320,1584,2,0,B|415:311|426:316|431:320,1,163.333333333333
447,118,2126,1,4,0:0:0:0:
87,197,2584,6,0,P|197:71|197:71,1,163.333333333333
256,128,3126,2,0,B|309:134|352:160|384:192,1,140
378,193,3626,1,0,0:0:0:0:
292,235,3876,1,0,0:0:0:0:
115,122,4126,1,4,0:0:0:0:
223,171,4584,1,0,0:0:0:0:
42,331,4834,1,4,0:0:0:0:
462,320,5084,1,0,0:0:0:0:
224,96,5584,5,0,0:0:0:0:
352,192,5834,1,4,0:0:0:0:
256,288,6084,1,0,0:0:0:0:
192,160,6334,1,4,0:0:0:0:
320,224,6584,1,0,0:0:0:0:
384,96,6834,1,4,0:0:0:0:
256,64,7084,1,0,0:0:0:0:
128,64,7334,1,4,0:0:0:0:
192,192,7584,1,0,0:0:0:0:
320,256,7833,1,4,0:0:0:0:
78,232,8167,6,0,B|124:174|174:215|175:217,1,93.3333333333333
185,231,9167,2,0,B|246:261|294:227,1,93.3333333333333
306,221,10167,2,0,P|342:157|323:134,1,93.3333333333333
298,118,11167,2,0,P|244:82|214:104,1,93.3333333333333
110,149,12125,1,0,0:0:0:0:
233,145,12583,1,0,0:0:0:0:
329,101,12833,1,4,0:0:0:0:
272,232,13083,1,0,0:0:0:0:
156,138,13583,5,0,0:0:0:0:
251,170,13834,1,4,0:0:0:0:
354,129,14084,1,0,0:0:0:0:
412,244,14334,1,4,0:0:0:0:
277,268,14584,1,0,0:0:0:0:
206,149,14834,1,4,0:0:0:0:
318,116,15084,1,0,0:0:0:0:
412,244,15334,1,4,0:0:0:0:
254,277,15583,1,0,0:0:0:0:
195,134,15833,1,4,0:0:0:0:
358,123,16083,6,0,P|212:43|86:101,1,303.333333333333
139,191,16833,1,0,0:0:0:0:
312,126,17083,1,4,0:0:0:0:
395,237,17333,1,0,0:0:0:0:
222,288,17583,1,4,0:0:0:0:
128,131,17833,1,0,0:0:0:0:
359,81,18125,2,4,P|374:82|408:85,1,46.6666666666667
224,128,18875,5,0,0:0:0:0:
475,127,19125,1,4,0:0:0:0:
224,128,19375,1,0,0:0:0:0:
458,237,19625,1,4,0:0:0:0:
224,128,19875,1,0,0:0:0:0:
235,295,20125,1,4,0:0:0:0:
313,151,20583,5,0,0:0:0:0:
448,64,20833,1,4,0:0:0:0:
448,224,21083,1,0,0:0:0:0:
192,128,21583,5,4,0:0:0:0:
256,128,21833,1,0,0:0:0:0:
320,128,22083,1,4,0:0:0:0:
256,192,22333,1,0,0:0:0:0:
256,64,22583,1,4,0:0:0:0:
192,192,22833,1,0,0:0:0:0:
320,64,23083,1,4,0:0:0:0:
320,192,23333,1,0,0:0:0:0:
192,64,23583,1,4,0:0:0:0:
256,128,23833,1,0,0:0:0:0:
416,320,24083,5,0,0:0:0:0:
160,160,24333,1,4,0:0:0:0:
160,288,24583,1,0,0:0:0:0:
352,128,24833,1,4,0:0:0:0:
160,96,25083,1,0,0:0:0:0:
160,224,25333,1,4,0:0:0:0:
352,128,25583,1,0,0:0:0:0:
160,96,25833,1,4,0:0:0:0:
160,224,26083,1,0,0:0:0:0:
352,128,26333,1,4,0:0:0:0:
352,160,26458,1,4,0:0:0:0:
352,192,26583,5,4,0:0:0:0:
64,128,26833,5,0,0:0:0:0:
320,64,27083,1,0,0:0:0:0:
320,288,27333,1,4,0:0:0:0:
352,256,27458,1,4,0:0:0:0:
320,224,27583,1,4,0:0:0:0:
32,96,27833,1,0,0:0:0:0:
256,64,28083,1,0,0:0:0:0:
160,224,28333,1,4,0:0:0:0:
192,224,28458,1,4,0:0:0:0:
224,224,28583,1,4,0:0:0:0:
416,224,28833,5,4,0:0:0:0:
416,192,28958,1,4,0:0:0:0:
416,160,29083,2,4,P|416:64|224:64,1,326.666666666667
64,160,30125,1,4,0:0:0:0:
96,192,30250,1,4,0:0:0:0:
128,224,30375,1,4,0:0:0:0:
160,256,30500,1,4,0:0:0:0:
192,256,30625,1,4,0:0:0:0:
224,256,30750,1,4,0:0:0:0:
256,256,30875,1,4,0:0:0:0:
480,256,31166,6,0,L|416:128,2,140
269,152,32083,2,0,L|409:119,1,140
450,109,32583,2,0,L|451:262,1,140
450,249,33083,2,0,L|300:206,1,140
19,123,33583,2,0,L|159:90,1,140
286,67,34083,2,0,L|286:219,1,140
234,277,34583,2,0,L|135:163,1,140
344,227,35083,2,0,P|250:181|256:91,1,186.666666666667
403,114,35583,6,0,L|443:115,6,23.3333333333333
156,170,36083,1,0,0:0:0:0:
292,201,36333,1,0,0:0:0:0:
429,228,36583,1,0,0:0:0:0:
383,95,36833,1,0,0:0:0:0:
290,199,37083,1,0,0:0:0:0:
194,301,37333,1,0,0:0:0:0:
111,187,37583,1,0,0:0:0:0:
250,178,37833,1,0,0:0:0:0:
177,58,38083,1,0,0:0:0:0:
316,55,38333,1,0,0:0:0:0:
415,153,38583,1,0,0:0:0:0:
358,281,38833,1,0,0:0:0:0:
218,291,39083,2,0,L|97:216,1,140
224,64,39499,6,2,L|224:96,4,23.3333333333333
224,192,40083,5,2,0:0:0:0:
255,226,40166,1,2,0:0:0:0:
298,241,40249,1,2,0:0:0:0:
342,227,40333,1,2,0:0:0:0:
385,242,40416,1,2,0:0:0:0:
407,282,40499,1,2,0:0:0:0:
401,328,40583,1,2,0:0:0:0:
363,355,40666,1,2,0:0:0:0:
316,354,40749,1,2,0:0:0:0:
269,351,40833,5,0,0:0:0:0:
104,285,41083,1,4,0:0:0:0:
224,192,41333,1,0,0:0:0:0:
320,128,41583,1,4,0:0:0:0:
448,224,41833,1,0,0:0:0:0:
320,320,42083,1,4,0:0:0:0:
192,192,42333,1,0,0:0:0:0:
320,96,42583,1,4,0:0:0:0:
128,96,42833,1,0,0:0:0:0:
0,192,43083,1,4,0:0:0:0:
192,256,43333,1,0,0:0:0:0:
320,256,43583,2,4,L|384:256,2,46.6666666666667
64,64,44166,6,2,L|96:64,2,23.3333333333333
224,64,44583,1,0,0:0:0:0:
320,192,44833,1,4,0:0:0:0:
160,256,45083,1,0,0:0:0:0:
352,64,45333,1,4,0:0:0:0:
96,128,45583,1,0,0:0:0:0:
224,96,45833,1,4,0:0:0:0:
416,192,46083,1,0,0:0:0:0:
256,224,46333,1,4,0:0:0:0:
160,96,46583,1,0,0:0:0:0:
320,64,46833,1,4,0:0:0:0:
320,256,47083,1,0,0:0:0:0:
192,192,47333,1,4,0:0:0:0:
160,96,47583,1,0,0:0:0:0:
416,160,47833,1,4,0:0:0:0:
59,142,48166,6,0,L|256:192,1,186.666666666667
314,195,48791,2,0,L|314:35,1,140
320,256,49333,2,4,L|384:256,3,46.6666666666667
201,146,49791,1,0,0:0:0:0:
352,64,50041,2,0,L|352:224,1,140
96,160,50583,1,0,0:0:0:0:
192,64,50833,1,0,0:0:0:0:
256,192,51083,1,0,0:0:0:0:
96,160,51333,1,0,0:0:0:0:
242,76,51583,2,4,L|306:76,2,46.6666666666667
128,288,52083,2,0,P|256:256|288:192,1,210
256,192,52833,2,0,P|224:128|352:192,1,396.666666666667
96,160,54083,5,0,0:0:0:0:
135,184,54166,1,0,0:0:0:0:
179,197,54249,1,0,0:0:0:0:
225,194,54333,1,0,0:0:0:0:
268,176,54416,1,0,0:0:0:0:
298,140,54499,1,0,0:0:0:0:
299,92,54583,1,0,0:0:0:0:
277,50,54666,1,0,0:0:0:0:
416,64,54874,5,2,0:0:0:0:
374,85,54958,1,2,0:0:0:0:
348,123,55041,1,2,0:0:0:0:
323,162,55124,1,2,0:0:0:0:
96,128,55333,5,4,0:0:0:0:
127,163,55417,1,4,0:0:0:0:
129,209,55500,1,4,0:0:0:0:
132,255,55583,2,4,L|196:255,3,46.6666666666667
416,160,56124,6,0,P|320:64|192:64,1,256.666666666667
128,160,56874,1,0,0:0:0:0:
256,192,57124,1,0,0:0:0:0:
352,96,57374,1,0,0:0:0:0:
384,192,57624,1,0,0:0:0:0:
160,256,57874,2,4,L|224:192,2,70
192,64,58374,1,0,0:0:0:0:
64,64,58624,1,0,0:0:0:0:
128,192,58874,1,0,0:0:0:0:
256,256,59124,1,0,0:0:0:0:
384,192,59374,1,0,0:0:0:0:
96,128,59624,6,4,L|160:64,2,70
87,242,60124,1,0,0:0:0:0:
256,192,60374,1,0,0:0:0:0:
352,96,60624,1,0,0:0:0:0:
384,192,60874,1,0,0:0:0:0:
159,271,61124,2,4,L|223:207,2,70
293,139,61624,1,0,0:0:0:0:
169,58,61874,1,0,0:0:0:0:
67,156,62124,1,0,0:0:0:0:
189,227,62374,1,0,0:0:0:0:
351,313,62624,1,0,0:0:0:0:
238,109,62874,1,0,0:0:0:0:
361,169,63124,1,0,0:0:0:0:
96,128,63333,6,2,L|128:160,3,23.3333333333333
192,160,63499,1,0,0:0:0:0:
224,128,63583,1,0,0:0:0:0:
246,108,63708,2,4,L|314:145,1,70
386,223,64083,5,0,0:0:0:0:
440,51,64333,1,0,0:0:0:0:
367,218,64583,1,0,0:0:0:0:
273,99,64833,1,0,0:0:0:0:
440,51,65083,1,0,0:0:0:0:
272,208,65333,1,0,0:0:0:0:
504,232,65583,1,0,0:0:0:0:
272,208,65833,1,0,0:0:0:0:
504,232,66083,1,0,0:0:0:0:
272,208,66333,1,0,0:0:0:0:
150,146,66583,5,0,0:0:0:0:
214,310,66833,1,0,0:0:0:0:
39,292,67083,1,0,0:0:0:0:
305,195,67333,1,0,0:0:0:0:
160,256,67583,2,4,L|224:192,2,70
288,317,68083,1,0,0:0:0:0:
316,145,68333,5,0,0:0:0:0:
413,47,68583,1,0,0:0:0:0:
464,191,68833,1,0,0:0:0:0:
370,288,69083,1,0,0:0:0:0:
160,256,69333,2,4,L|224:192,2,70
83,84,69833,1,0,0:0:0:0:
79,218,70083,1,0,0:0:0:0:
225,83,70333,1,0,0:0:0:0:
312,225,70583,1,0,0:0:0:0:
421,105,70833,5,0,0:0:0:0:
225,83,71083,1,0,0:0:0:0:
119,225,71333,1,0,0:0:0:0:
314,247,71583,1,0,0:0:0:0:
439,122,71833,1,0,0:0:0:0:
497,255,72083,1,0,0:0:0:0:
314,247,72333,1,0,0:0:0:0:
126,128,72583,1,0,0:0:0:0:
314,247,72833,1,0,0:0:0:0:
117,253,73083,5,0,0:0:0:0:
314,247,73333,1,0,0:0:0:0:
321,73,73583,1,0,0:0:0:0:
314,247,73833,1,0,0:0:0:0:
505,248,74083,1,0,0:0:0:0:
170,246,74333,2,0,L|60:138,1,140
131,70,74833,2,0,L|237:163,1,140
259,192,75333,2,0,L|334:311,1,140
438,151,75833,1,0,0:0:0:0:
226,223,76124,5,0,0:0:0:0:
128,128,76374,5,0,0:0:0:0:
224,96,76624,1,0,0:0:0:0:
352,96,76874,1,0,0:0:0:0:
256,192,77124,1,0,0:0:0:0:
416,192,77374,1,0,0:0:0:0:
320,288,77624,1,0,0:0:0:0:
160,128,77874,1,0,0:0:0:0:
32,222,78124,5,0,0:0:0:0:
64,254,78207,1,0,0:0:0:0:
96,222,78290,1,0,0:0:0:0:
128,254,78374,1,0,0:0:0:0:
160,222,78457,1,0,0:0:0:0:
192,254,78540,1,0,0:0:0:0:
224,222,78624,1,0,0:0:0:0:
256,254,78707,1,0,0:0:0:0:
416,64,78915,5,2,0:0:0:0:
372,81,78999,1,2,0:0:0:0:
341,115,79082,1,2,0:0:0:0:
304,143,79165,1,2,0:0:0:0:
128,175,79374,5,4,0:0:0:0:
168,151,79458,1,4,0:0:0:0:
185,107,79541,1,4,0:0:0:0:
196,61,79624,2,4,L|260:61,3,46.6666666666667
256,128,96083,5,4,0:0:0:0:
321,180,96333,1,0,0:0:0:0:
261,239,96583,1,4,0:0:0:0:
323,295,96833,1,0,0:0:0:0:
160,256,97083,2,4,L|224:192,2,70
364,114,97583,1,4,0:0:0:0:
256,96,97833,5,0,0:0:0:0:
32,96,98083,1,4,0:0:0:0:
256,96,98333,1,0,0:0:0:0:
32,224,98583,1,4,0:0:0:0:
160,256,98833,2,4,L|224:192,2,70
256,96,99333,1,0,0:0:0:0:
348,293,99583,1,4,0:0:0:0:
256,96,99833,1,0,0:0:0:0:
481,191,100083,1,4,0:0:0:0:
256,96,100333,5,0,0:0:0:0:
469,38,100583,1,4,0:0:0:0:
256,96,100833,1,0,0:0:0:0:
42,37,101083,1,4,0:0:0:0:
256,96,101333,1,0,0:0:0:0:
41,158,101583,1,4,0:0:0:0:
256,96,101833,1,0,0:0:0:0:
122,275,102083,1,4,0:0:0:0:
256,96,102333,1,0,0:0:0:0:
307,284,102583,1,4,0:0:0:0:
417,100,102833,6,0,L|380:237,1,140
256,268,103333,2,0,L|96:269,1,140
61,159,103833,1,0,0:0:0:0:
49,94,104083,2,0,P|86:38|132:91,1,140
162,170,104583,1,0,0:0:0:0:
69,185,104833,2,0,P|8:218|40:269,1,140
127,267,105333,1,0,0:0:0:0:
224,274,105583,2,0,P|297:230|279:197,1,140
123,133,106083,2,0,P|68:86|106:49,1,140
382,69,106583,5,0,0:0:0:0:
389,152,106833,2,0,L|389:301,1,140
299,268,107333,2,0,L|272:260,2,23.3333333333333
189,208,108083,1,0,0:0:0:0:
89,130,108333,2,0,L|209:48,1,140
310,126,108833,1,0,0:0:0:0:
254,207,109083,2,0,L|125:297,1,140
303,306,109583,1,0,0:0:0:0:
419,238,109833,1,0,0:0:0:0:
318,154,110083,5,0,0:0:0:0:
167,145,110333,1,0,0:0:0:0:
45,74,110583,1,0,0:0:0:0:
220,57,110833,1,0,0:0:0:0:
212,173,111083,1,0,0:0:0:0:
445,66,111333,1,0,0:0:0:0:
270,216,111583,1,0,0:0:0:0:
452,212,111833,1,0,0:0:0:0:
38,89,112083,6,0,L|123:150,1,93.3333333333333
77,153,113333,5,0,0:0:0:0:
107,150,113583,1,0,0:0:0:0:
96,186,113833,1,0,0:0:0:0:
67,144,114083,1,0,0:0:0:0:
73,146,114333,1,0,0:0:0:0:
128,140,114583,1,0,0:0:0:0:
66,140,114833,1,0,0:0:0:0:
85,171,114916,1,0,0:0:0:0:
119,185,114999,1,0,0:0:0:0:
195,152,115333,5,0,0:0:0:0:
268,112,115583,1,0,0:0:0:0:
354,201,115833,1,0,0:0:0:0:
38,158,116083,6,0,L|151:232,1,116.666666666667
120,209,116583,2,0,L|209:96,1,140
206,99,117083,2,0,L|345:163,1,140
333,166,117583,2,0,L|215:248,1,140
236,255,118083,2,0,L|383:304,1,140
369,296,118583,2,0,L|430:170,1,140
431,167,119083,2,0,L|277:133,1,140
256,129,119583,2,0,L|172:247,1,140
40,51,120083,6,0,L|180:55,1,140
171,63,120583,2,0,L|49:157,1,140
55,156,121083,2,0,L|195:160,1,140
187,161,121583,2,0,L|63:253,1,140
59,264,122083,2,0,L|198:273,1,140
171,272,122583,2,0,L|282:164,1,140
281,172,123083,2,0,L|400:279,1,140
394,270,123583,2,0,L|484:153,1,140
117,56,124083,6,0,L|112:205,1,140
167,206,124583,2,0,L|292:113,1,140
319,172,125083,1,0,0:0:0:0:
474,171,125333,1,0,0:0:0:0:
421,270,125583,1,0,0:0:0:0:
419,85,125833,2,4,L|419:171,2,70
245,79,126333,1,0,0:0:0:0:
419,258,126583,1,0,0:0:0:0:
187,194,126833,1,0,0:0:0:0:
95,56,127083,6,0,L|314:238,1,280
256,192,128083,5,0,0:0:0:0:
448,192,128333,1,0,0:0:0:0:
384,64,128583,1,0,0:0:0:0:
384,320,128833,1,0,0:0:0:0:
288,192,129083,1,0,0:0:0:0:
160,192,129333,2,4,L|91:192,2,70
386,194,129833,1,0,0:0:0:0:
256,56,130083,1,0,0:0:0:0:
255,191,130333,5,0,0:0:0:0:
256,242,130458,1,0,0:0:0:0:
255,291,130583,1,0,0:0:0:0:
95,191,130833,5,0,0:0:0:0:
255,193,131083,1,0,0:0:0:0:
428,191,131333,2,4,L|359:191,2,70
256,57,131833,1,0,0:0:0:0:
256,192,132083,1,0,0:0:0:0:
160,224,132333,1,4,0:0:0:0:
205,256,132458,1,4,0:0:0:0:
253,284,132583,1,4,0:0:0:0:
358,246,132833,5,4,0:0:0:0:
413,246,132958,1,4,0:0:0:0:
469,246,133083,2,4,P|390:152|194:96,1,326.666666666667
15,187,134125,1,4,0:0:0:0:
63,214,134250,1,4,0:0:0:0:
118,218,134375,1,4,0:0:0:0:
172,204,134500,1,4,0:0:0:0:
228,204,134625,1,4,0:0:0:0:
280,223,134750,1,4,0:0:0:0:
281,278,134875,1,4,0:0:0:0:
85,278,135583,6,0,L|340:124,1,280
