osu file format v14

[General]
AudioFilename: audio.mp3
AudioLeadIn: 0
PreviewTime: 80122
Countdown: 1
SampleSet: Normal
StackLeniency: 0.3
Mode: 0
LetterboxInBreaks: 0
WidescreenStoryboard: 0

[Editor]
DistanceSpacing: 3.4
BeatDivisor: 3
GridSize: 4
TimelineZoom: 1

[Metadata]
Title:Kinda Miss You (Niko The Kid Remix)
TitleUnicode:Kinda Miss You (Niko The Kid Remix)
Artist:Deborah Cox
ArtistUnicode:Deborah Cox
Creator:Big Doc Bazuso
Version:kiinda
Source:
Tags:
BeatmapID:1819364
BeatmapSetID:870658

[Difficulty]
HPDrainRate:6
CircleSize:3.3
OverallDifficulty:8
ApproachRate:9.8
SliderMultiplier:2
SliderTickRate:1

[Events]
//Background and Video events
//Break Periods
//Storyboard Layer 0 (Background)
//Storyboard Layer 1 (Fail)
//Storyboard Layer 2 (Pass)
//Storyboard Layer 3 (Foreground)
//Storyboard Sound Samples

[TimingPoints]
768,483.870967741935,4,1,0,100,1,0
2542,-100,4,1,0,5,0,0
2703,-142.857142857143,4,1,0,100,0,0
33671,-100,4,1,0,100,0,0
48993,-100,4,1,0,5,0,0
49155,-83.3333333333333,4,1,0,100,0,0
81897,-83.3333333333333,4,1,0,100,0,1
83993,-500,4,1,0,100,0,1
84477,-666.666666666667,4,1,0,100,0,1
84961,-1000,4,1,0,100,0,1
87864,-40,4,1,0,100,0,1
88340,-30.7692307692308,4,1,0,100,0,1
88832,-25,4,1,0,100,0,1
91735,-40,4,1,0,100,0,1
92219,-33.3333333333333,4,1,0,100,0,1
92703,-50,4,1,0,100,0,1
95606,-33.3333333333333,4,1,0,100,0,1
96090,-28.5714285714286,4,1,0,100,0,1
96574,-25,4,1,0,100,0,1
99477,-500,4,1,0,100,0,1
109155,-250,4,1,0,100,0,0
113026,-100,4,1,0,100,0,0
159316,-83.3333333333333,4,1,0,100,0,1
186574,-83.3333333333333,4,1,0,100,0,0

[HitObjects]
256,192,767,12,0,2542,0:0:0:0:
366,99,2703,6,0,L|357:153,2,46.6666652425131
156,183,3187,2,0,L|198:217,2,46.6666652425131
250,113,3671,1,0,0:0:0:0:
357,295,3993,5,0,0:0:0:0:
331,309,4155,2,0,L|322:363,2,46.6666652425131
234,264,4638,1,0,0:0:0:0:
56,111,5122,6,0,L|71:171,2,46.6666652425131
158,44,5606,1,0,0:0:0:0:
407,95,5929,5,0,0:0:0:0:
381,109,6090,1,0,0:0:0:0:
360,192,6251,1,0,0:0:0:0:
339,275,6413,1,0,0:0:0:0:
318,358,6574,1,0,0:0:0:0:
198,112,7058,6,0,L|210:180,2,46.6666652425131
95,91,7542,1,0,0:0:0:0:
191,284,7864,5,0,0:0:0:0:
165,305,8026,2,0,L|176:366,2,46.6666652425131
76,267,8509,1,0,0:0:0:0:
312,126,8993,6,0,L|296:194,2,46.6666652425131
416,120,9477,1,0,0:0:0:0:
108,152,9800,5,0,0:0:0:0:
145,162,9961,1,0,0:0:0:0:
165,245,10122,2,0,L|187:269,3,23.3333326212565
128,235,10445,1,0,0:0:0:0:
360,150,10929,6,0,L|347:203,2,46.6666652425131
456,129,11413,1,0,0:0:0:0:
222,42,11897,6,0,L|236:99,2,46.6666652425131
125,16,12380,1,0,0:0:0:0:
342,254,12864,6,0,L|331:318,2,46.6666652425131
439,228,13348,1,0,0:0:0:0:
127,31,13671,5,0,0:0:0:0:
151,47,13832,1,0,0:0:0:0:
163,132,13993,1,0,0:0:0:0:
175,217,14155,1,0,0:0:0:0:
188,301,14316,1,0,0:0:0:0:
403,117,14800,6,0,L|397:170,2,46.6666652425131
323,55,15284,1,0,0:0:0:0:
361,262,15767,6,0,L|329:304,2,46.6666652425131
322,168,16251,1,0,0:0:0:0:
252,366,16735,6,0,L|203:387,2,46.6666652425131
265,265,17219,1,0,0:0:0:0:
34,259,17703,5,0,0:0:0:0:
113,278,17864,2,0,L|141:301,3,23.3333326212565
157,293,18187,6,0,B|360:316|360:316|271:134|271:134|194:244,1,513.333317667644
183,127,20122,2,0,B|283:-14|283:-14|439:309|439:309,1,513.333317667644
342,384,22058,2,0,B|28:348|28:348|144:183,1,513.333317667644
342,384,24356,5,0,0:0:0:0:
183,127,24719,1,0,0:0:0:0:
393,156,25284,5,0,0:0:0:0:
376,232,25445,1,0,0:0:0:0:
359,308,25606,1,0,0:0:0:0:
85,214,25929,6,0,P|173:104|105:254,1,513.333317667644
9,181,27864,2,0,P|117:39|337:216,1,513.333317667644
291,318,29800,2,0,B|213:388|115:377|45:323|24:263|24:263|86:224|86:224|71:156|113:116|158:103,1,513.333317667644
218,118,31735,2,0,P|259:223|91:232,1,326.666656697591
147,87,33026,5,0,0:0:0:0:
173,196,33187,1,0,0:0:0:0:
65,169,33348,1,0,0:0:0:0:
440,80,33671,5,0,0:0:0:0:
436,105,34155,1,0,0:0:0:0:
423,127,34638,1,0,0:0:0:0:
403,143,35123,1,0,0:0:0:0:
379,152,35606,1,0,0:0:0:0:
174,175,36090,6,0,P|144:98|164:40,1,133.333333333333
266,194,36574,2,0,P|214:258|154:270,1,133.333333333333
237,105,37058,2,8,P|318:117|358:163,1,133.333333333333
353,152,37542,5,0,0:0:0:0:
329,161,38025,1,0,0:0:0:0:
309,177,38510,1,0,0:0:0:0:
296,199,38993,1,0,0:0:0:0:
292,224,39477,1,0,0:0:0:0:
96,195,39961,6,0,L|188:99,1,133.333333333333
318,104,40445,2,0,L|225:199,1,133.333333333333
203,343,40929,2,0,L|295:247,1,133.333333333333
295,247,41413,5,0,0:0:0:0:
242,242,41897,1,0,0:0:0:0:
269,245,42380,1,0,0:0:0:0:
215,239,42865,1,0,0:0:0:0:
242,242,43348,1,0,0:0:0:0:
188,236,43831,1,0,0:0:0:0:
215,239,44316,1,0,0:0:0:0:
161,233,44800,1,0,0:0:0:0:
188,236,45284,1,0,0:0:0:0:
134,230,45767,1,0,0:0:0:0:
161,233,46251,1,0,0:0:0:0:
107,227,46735,1,0,0:0:0:0:
134,230,47219,1,0,0:0:0:0:
256,192,47380,12,0,48993,0:0:0:0:
176,32,49155,5,0,0:0:0:0:
185,62,49316,1,0,0:0:0:0:
194,92,49477,1,0,0:0:0:0:
314,49,49638,5,0,0:0:0:0:
310,88,49800,1,0,0:0:0:0:
306,127,49961,1,0,0:0:0:0:
341,170,50122,5,0,0:0:0:0:
298,205,50284,1,0,0:0:0:0:
294,244,50445,1,0,0:0:0:0:
154,312,50606,5,0,0:0:0:0:
127,281,50767,1,0,0:0:0:0:
119,240,50929,1,0,0:0:0:0:
174,228,51090,5,0,0:0:0:0:
163,173,51252,1,0,0:0:0:0:
203,164,51413,1,0,0:0:0:0:
338,28,51574,5,0,0:0:0:0:
325,65,51735,1,0,0:0:0:0:
338,28,51897,1,0,0:0:0:0:
312,102,52058,5,0,0:0:0:0:
338,28,52219,1,0,0:0:0:0:
325,65,52380,1,0,0:0:0:0:
470,132,52542,5,0,0:0:0:0:
476,171,52703,1,0,0:0:0:0:
468,209,52864,1,0,0:0:0:0:
468,209,53026,5,0,0:0:0:0:
447,242,53187,1,0,0:0:0:0:
416,266,53348,1,0,0:0:0:0:
254,205,53509,5,0,0:0:0:0:
267,167,53671,1,0,0:0:0:0:
293,197,53832,1,0,0:0:0:0:
293,197,53993,5,0,0:0:0:0:
267,167,54154,1,0,0:0:0:0:
254,205,54316,1,0,0:0:0:0:
100,206,54477,5,0,0:0:0:0:
122,173,54638,1,0,0:0:0:0:
117,133,54800,1,0,0:0:0:0:
164,110,54961,5,0,0:0:0:0:
131,88,55122,1,0,0:0:0:0:
91,93,55284,1,0,0:0:0:0:
216,11,55445,5,0,0:0:0:0:
250,31,55606,1,0,0:0:0:0:
284,51,55767,1,0,0:0:0:0:
318,71,55929,5,0,0:0:0:0:
284,51,56090,1,0,0:0:0:0:
250,31,56251,1,0,0:0:0:0:
264,198,56413,5,0,0:0:0:0:
294,172,56574,1,0,0:0:0:0:
333,163,56735,1,0,0:0:0:0:
264,198,56897,5,0,0:0:0:0:
234,224,57058,1,0,0:0:0:0:
195,233,57219,1,0,0:0:0:0:
338,268,57380,5,0,0:0:0:0:
338,268,57542,1,0,0:0:0:0:
338,268,57703,1,0,0:0:0:0:
375,253,57864,5,0,0:0:0:0:
375,253,58026,1,0,0:0:0:0:
375,253,58187,1,0,0:0:0:0:
447,138,58348,5,0,0:0:0:0:
406,132,58509,1,0,0:0:0:0:
403,91,58671,1,0,0:0:0:0:
403,91,58832,5,0,0:0:0:0:
362,85,58993,1,0,0:0:0:0:
359,44,59155,1,0,0:0:0:0:
236,54,59316,5,0,0:0:0:0:
227,92,59477,1,0,0:0:0:0:
218,130,59638,1,0,0:0:0:0:
155,86,59800,5,0,0:0:0:0:
186,108,59961,1,0,0:0:0:0:
218,130,60122,1,0,0:0:0:0:
281,257,60284,5,0,0:0:0:0:
286,296,60445,1,0,0:0:0:0:
318,273,60606,1,0,0:0:0:0:
244,241,60767,5,0,0:0:0:0:
249,280,60928,1,0,0:0:0:0:
281,257,61089,1,0,0:0:0:0:
187,135,61251,5,0,0:0:0:0:
187,135,61413,1,0,0:0:0:0:
187,135,61574,1,0,0:0:0:0:
163,167,61735,5,0,0:0:0:0:
187,135,61897,1,0,0:0:0:0:
187,135,62058,1,0,0:0:0:0:
51,191,62219,5,0,0:0:0:0:
79,219,62380,1,0,0:0:0:0:
107,247,62542,1,0,0:0:0:0:
69,250,62703,5,0,0:0:0:0:
97,278,62864,1,0,0:0:0:0:
125,306,63026,1,0,0:0:0:0:
249,266,63187,5,0,0:0:0:0:
236,228,63348,1,0,0:0:0:0:
207,200,63509,1,0,0:0:0:0:
249,134,63671,5,0,0:0:0:0:
236,172,63832,1,0,0:0:0:0:
207,200,63993,1,0,0:0:0:0:
166,198,64155,1,0,0:0:0:0:
166,198,64316,1,0,0:0:0:0:
166,198,64477,1,0,0:0:0:0:
436,189,64638,5,0,0:0:0:0:
393,120,64800,1,0,0:0:0:0:
312,123,64961,1,0,0:0:0:0:
393,120,65122,5,0,0:0:0:0:
431,49,65284,1,0,0:0:0:0:
393,120,65445,1,0,0:0:0:0:
312,123,65606,5,0,0:0:0:0:
269,54,65767,1,0,0:0:0:0:
231,125,65929,1,0,0:0:0:0:
274,194,66090,5,0,0:0:0:0:
193,196,66251,1,0,0:0:0:0:
112,198,66413,1,0,0:0:0:0:
150,127,66574,5,0,0:0:0:0:
193,196,66735,1,0,0:0:0:0:
274,194,66897,1,0,0:0:0:0:
274,194,67058,5,0,0:0:0:0:
355,192,67220,1,0,0:0:0:0:
398,261,67381,1,0,0:0:0:0:
398,261,67542,5,0,0:0:0:0:
359,332,67704,1,0,0:0:0:0:
277,334,67865,1,0,0:0:0:0:
277,334,68026,5,0,0:0:0:0:
235,264,68188,1,0,0:0:0:0:
274,192,68349,1,0,0:0:0:0:
232,122,68509,5,0,0:0:0:0:
313,120,68671,1,0,0:0:0:0:
232,122,68832,1,0,0:0:0:0:
313,120,68994,5,0,0:0:0:0:
232,122,69155,1,0,0:0:0:0:
313,120,69316,1,0,0:0:0:0:
232,122,69477,5,0,0:0:0:0:
151,124,69638,1,0,0:0:0:0:
149,43,69800,1,0,0:0:0:0:
230,41,69961,5,0,0:0:0:0:
232,122,70122,1,0,0:0:0:0:
234,203,70284,1,0,0:0:0:0:
153,205,70445,5,0,0:0:0:0:
72,207,70606,1,0,0:0:0:0:
70,126,70767,1,0,0:0:0:0:
68,45,70929,5,0,0:0:0:0:
149,43,71090,1,0,0:0:0:0:
230,41,71251,1,0,0:0:0:0:
311,39,71413,5,0,0:0:0:0:
313,120,71574,1,0,0:0:0:0:
394,118,71735,1,0,0:0:0:0:
392,37,71897,5,0,0:0:0:0:
473,35,72058,1,0,0:0:0:0:
475,116,72219,1,0,0:0:0:0:
473,185,72380,5,0,0:0:0:0:
440,186,72542,1,0,0:0:0:0:
407,187,72703,1,0,0:0:0:0:
374,188,72864,1,0,0:0:0:0:
341,189,73026,1,0,0:0:0:0:
308,190,73187,1,0,0:0:0:0:
473,185,73348,5,0,0:0:0:0:
423,186,73510,1,0,0:0:0:0:
374,187,73671,1,0,0:0:0:0:
325,189,73832,1,0,0:0:0:0:
275,190,73994,1,0,0:0:0:0:
226,192,74155,1,0,0:0:0:0:
473,185,74316,5,0,0:0:0:0:
392,186,74478,1,0,0:0:0:0:
314,188,74639,1,0,0:0:0:0:
235,191,74800,1,0,0:0:0:0:
155,193,74962,1,0,0:0:0:0:
76,196,75123,1,0,0:0:0:0:
473,185,75284,5,0,0:0:0:0:
391,153,75445,1,0,0:0:0:0:
315,221,75606,1,0,0:0:0:0:
234,158,75768,1,0,0:0:0:0:
156,226,75929,1,0,0:0:0:0:
75,163,76090,1,0,0:0:0:0:
473,185,76251,5,0,0:0:0:0:
390,104,76413,1,0,0:0:0:0:
316,270,76574,1,0,0:0:0:0:
233,109,76735,1,0,0:0:0:0:
157,275,76897,1,0,0:0:0:0:
74,114,77058,1,0,0:0:0:0:
473,185,77219,5,0,0:0:0:0:
388,24,77380,1,0,0:0:0:0:
318,350,77542,1,0,0:0:0:0:
231,29,77703,1,0,0:0:0:0:
159,355,77864,1,0,0:0:0:0:
72,34,78026,1,0,0:0:0:0:
0,360,78187,5,0,0:0:0:0:
150,2,78348,1,0,0:0:0:0:
436,122,78509,1,0,0:0:0:0:
340,350,78671,1,0,0:0:0:0:
157,273,78832,1,0,0:0:0:0:
218,126,78993,1,0,0:0:0:0:
273,234,79155,5,0,0:0:0:0:
334,87,79316,1,0,0:0:0:0:
151,10,79477,1,0,0:0:0:0:
55,238,79639,1,0,0:0:0:0:
341,358,79800,1,0,0:0:0:0:
491,0,79961,1,0,0:0:0:0:
132,353,80122,5,0,0:0:0:0:
45,85,80606,1,0,0:0:0:0:
310,0,81090,1,0,0:0:0:0:
397,266,81574,1,0,0:0:0:0:
221,176,81897,5,0,0:0:0:0:
353,134,82058,1,0,0:0:0:0:
118,82,82219,1,0,0:0:0:0:
66,319,82380,1,0,0:0:0:0:
221,176,82542,1,0,0:0:0:0:
268,381,82703,1,0,0:0:0:0:
250,40,82864,1,0,0:0:0:0:
423,238,83026,1,0,0:0:0:0:
88,218,83187,1,0,0:0:0:0:
435,52,83348,1,0,0:0:0:0:
417,387,83509,1,0,0:0:0:0:
80,48,83671,1,0,0:0:0:0:
258,210,83832,1,0,0:0:0:0:
479,126,83993,6,0,L|474:152,1,26.6666666666667
336,84,84477,2,0,L|338:109,1,19.9999993896485
192,120,84961,2,0,L|201:134,1,13.3333333333333
84,222,85445,1,0,0:0:0:0:
90,224,85606,1,0,0:0:0:0:
279,279,85767,5,0,0:0:0:0:
336,84,85929,1,0,0:0:0:0:
406,364,86090,1,0,0:0:0:0:
129,285,86251,1,0,0:0:0:0:
417,212,86413,1,0,0:0:0:0:
336,84,86574,1,0,0:0:0:0:
48,157,86735,1,0,0:0:0:0:
279,279,86897,1,0,0:0:0:0:
88,14,87058,1,0,0:0:0:0:
232,0,87219,1,0,0:0:0:0:
487,77,87380,1,0,0:0:0:0:
135,293,87542,1,0,0:0:0:0:
390,370,87703,1,0,0:0:0:0:
192,143,87864,6,0,P|351:121|452:245,1,333.333333333333
471,367,88348,2,0,P|457:170|236:89,1,433.3333457311
79,120,88832,2,0,P|253:46|527:236,1,533.333333333333
512,384,89316,1,0,0:0:0:0:
0,252,89477,1,0,0:0:0:0:
256,319,89638,5,0,0:0:0:0:
302,145,89800,1,0,0:0:0:0:
98,144,89961,5,0,0:0:0:0:
364,214,90123,1,0,0:0:0:0:
512,120,90284,5,0,0:0:0:0:
211,40,90446,1,0,0:0:0:0:
303,32,90606,5,0,0:0:0:0:
209,384,90768,1,0,0:0:0:0:
128,15,90929,5,0,0:0:0:0:
72,225,91091,1,0,0:0:0:0:
422,165,91251,5,0,0:0:0:0:
50,66,91413,1,0,0:0:0:0:
422,165,91574,1,0,0:0:0:0:
431,0,91735,6,0,L|345:322,1,333.333333333333
407,269,92219,2,0,L|5:162,1,400.00001525879
77,345,92703,2,0,L|146:83,1,266.666666666667
0,0,93187,1,0,0:0:0:0:
353,92,93349,1,0,0:0:0:0:
118,192,93509,5,0,0:0:0:0:
316,345,93671,1,0,0:0:0:0:
353,92,93832,1,0,0:0:0:0:
88,218,93993,5,0,0:0:0:0:
353,358,94155,1,0,0:0:0:0:
344,51,94316,1,0,0:0:0:0:
59,260,94477,5,0,0:0:0:0:
402,369,94639,1,0,0:0:0:0:
328,9,94800,1,0,0:0:0:0:
52,314,94961,5,0,0:0:0:0:
0,0,95122,5,0,0:0:0:0:
256,384,95284,1,0,0:0:0:0:
512,0,95445,1,0,0:0:0:0:
81,201,95606,6,0,B|215:169|215:169|310:246|310:246|486:203,1,400.00001525879
458,97,96090,2,0,B|294:139|294:139|239:267|239:267|86:308,1,466.666671117147
17,196,96574,2,0,B|198:153|198:153|328:257|328:257|567:199,1,533.333333333333
512,45,97058,1,0,0:0:0:0:
0,375,97219,1,0,0:0:0:0:
316,323,97380,5,0,0:0:0:0:
132,191,97542,1,0,0:0:0:0:
247,31,97702,1,0,0:0:0:0:
225,257,97864,1,0,0:0:0:0:
502,155,98026,1,0,0:0:0:0:
109,53,98187,1,0,0:0:0:0:
1,141,98348,1,0,0:0:0:0:
340,97,98509,1,0,0:0:0:0:
247,31,98671,1,0,0:0:0:0:
202,377,98832,1,0,0:0:0:0:
237,145,98993,1,0,0:0:0:0:
340,97,99155,1,0,0:0:0:0:
467,384,99316,1,0,0:0:0:0:
134,193,99477,6,0,L|147:218,1,26.6666666666667
146,216,99961,2,0,L|134:193,1,26.6666666666667
134,193,100445,2,0,L|147:218,1,26.6666666666667
146,216,100929,1,0,0:0:0:0:
134,193,101090,1,0,0:0:0:0:
197,42,101251,5,0,0:0:0:0:
233,323,101413,1,0,0:0:0:0:
186,77,101574,1,0,0:0:0:0:
32,240,101735,1,0,0:0:0:0:
205,107,101897,1,0,0:0:0:0:
449,295,102058,1,0,0:0:0:0:
241,110,102219,1,0,0:0:0:0:
52,87,102380,1,0,0:0:0:0:
266,84,102542,1,0,0:0:0:0:
505,22,102703,1,0,0:0:0:0:
261,48,102864,1,0,0:0:0:0:
91,382,103026,1,0,0:0:0:0:
230,30,103187,1,0,0:0:0:0:
437,98,103348,5,0,0:0:0:0:
437,98,103832,1,0,0:0:0:0:
437,98,104316,1,0,0:0:0:0:
437,98,104800,1,0,0:0:0:0:
437,98,104961,1,0,0:0:0:0:
240,252,105122,5,0,0:0:0:0:
240,252,105284,1,0,0:0:0:0:
240,252,105445,1,0,0:0:0:0:
262,76,105606,1,0,0:0:0:0:
240,252,105767,1,0,0:0:0:0:
262,76,105929,1,0,0:0:0:0:
262,76,106090,1,0,0:0:0:0:
240,252,106251,1,0,0:0:0:0:
77,320,106413,1,0,0:0:0:0:
240,252,106574,1,0,0:0:0:0:
77,320,106735,1,0,0:0:0:0:
77,320,106897,1,0,0:0:0:0:
262,76,107058,1,0,0:0:0:0:
99,144,107219,5,0,0:0:0:0:
262,76,107703,1,0,0:0:0:0:
402,183,108187,1,0,0:0:0:0:
379,357,108671,1,0,0:0:0:0:
478,186,108832,1,0,0:0:0:0:
455,360,108993,5,0,0:0:0:0:
433,79,109155,1,0,0:0:0:0:
184,19,109316,1,0,0:0:0:0:
63,215,109477,1,0,0:0:0:0:
196,372,109638,1,0,0:0:0:0:
366,302,109800,1,0,0:0:0:0:
353,137,109961,1,0,0:0:0:0:
207,102,110122,1,0,0:0:0:0:
136,217,110284,1,0,0:0:0:0:
214,309,110445,1,0,0:0:0:0:
314,267,110606,1,0,0:0:0:0:
305,169,110767,2,0,L|288:166,1,13.3333333333333
218,149,110929,2,0,L|206:166,1,13.3333333333333
