osu file format v14

[General]
AudioFilename: Coffee House Debashis Sengupta.mp3
AudioLeadIn: 0
PreviewTime: 39591
Countdown: 0
SampleSet: Soft
StackLeniency: 0.7
Mode: 0
LetterboxInBreaks: 0
WidescreenStoryboard: 0

[Editor]
Bookmarks: 20959
DistanceSpacing: 1.3
BeatDivisor: 4
GridSize: 4
TimelineZoom: 1

[Metadata]
Title:Coffee House
TitleUnicode:Coffee House
Artist:Debashis Sengupta
ArtistUnicode:Debashis Sengupta
Creator:Arf
Version:Normal
Source:
Tags:bengali bangla houser shei adda manna dey cover jani nah old folk reminiscence ki emon katha rfandomization
BeatmapID:822449
BeatmapSetID:375479

[Difficulty]
HPDrainRate:3
CircleSize:3
OverallDifficulty:4
ApproachRate:5
SliderMultiplier:1.3
SliderTickRate:1

[Events]
//Background and Video events
0,0,"those were the days.jpg",0,0
//Break Periods
2,62409,68509
2,114909,128509
//Storyboard Layer 0 (Background)
//Storyboard Layer 1 (Fail)
//Storyboard Layer 2 (Pass)
//Storyboard Layer 3 (Foreground)
//Storyboard Sound Samples

[TimingPoints]
334,468.75,4,2,0,50,1,0
39240,-100,4,3,0,50,0,0
39591,-100,4,2,0,50,0,0
39709,-100,4,2,0,50,0,1
54709,-100,4,2,0,50,0,0
84709,-100,4,2,0,40,0,0
99709,-100,4,2,0,50,0,1
114240,-100,4,3,0,50,0,1
114709,-100,4,2,0,50,0,0
160646,-100,4,2,0,50,0,1
167209,-100,4,2,0,50,0,0

[Colours]
Combo1 : 251,188,0
Combo2 : 166,83,0
Combo3 : 252,232,114
Combo4 : 255,143,32

[HitObjects]
100,96,20959,6,0,P|152:136|168:196,1,130,8|0,0:0|0:0,0:0:0:0:
168,364,21896,2,0,B|208:320|287:317,1,130,8|0,0:0|0:0,0:0:0:0:
370,315,22599,1,0,0:0:0:0:
448,283,22834,2,0,P|414:223|427:161,1,130,8|0,0:0|0:0,0:0:0:0:
413,81,23537,1,0,0:0:0:0:
360,12,23771,2,0,P|327:55|254:77,1,130,8|0,0:0|0:0,0:0:0:0:
152,212,24709,6,0,B|105:169|105:169|84:103,2,130,8|0|8,0:0|0:0|0:0,0:0:0:0:
312,260,26115,2,0,P|320:288|314:329,1,65
236,296,26584,2,0,P|169:297|110:329,1,130,8|0,0:0|0:0,0:0:0:0:
4,200,27521,2,0,P|0:128|28:80,1,130,8|0,0:0|0:0,0:0:0:0:
112,84,28224,1,0,0:0:0:0:
192,120,28459,6,0,P|254:110|323:123,1,130,8|0,0:0|0:0,0:0:0:0:
384,280,29396,2,0,P|319:288|255:278,1,130,8|0,0:0|0:0,0:0:0:0:
108,196,30334,2,0,P|224:48|392:120,1,390,8|4,0:0|0:0,0:0:0:0:
502,236,32209,6,0,B|523:173|523:173|500:104,1,130,10|2,0:0|0:0,0:0:0:0:
426,148,32912,1,0,0:0:0:0:
353,191,33146,2,0,B|374:254|374:254|353:314,1,130,10|2,0:0|0:0,0:0:0:0:
272,341,33849,1,0,0:0:0:0:
190,322,34084,2,0,L|138:363,2,65,10|2|0,0:0|0:0|0:0,0:0:0:0:
250,263,34787,1,0,0:0:0:0:
334,266,35021,2,0,B|400:266|400:266|454:233,1,130,10|2,0:0|0:0,0:0:0:0:
504,164,35724,1,0,0:0:0:0:
452,104,35959,6,0,P|383:92|335:47,1,130,10|2,0:0|0:0,0:0:0:0:
256,48,36662,1,0,0:0:0:0:
172,56,36896,2,0,P|128:88|50:99,2,130,8|0|10,0:0|0:0|0:0,0:0:0:0:
256,204,38302,2,0,B|231:254|292:278|250:337,1,130,2|10,0:0|0:0,0:0:0:0:
92,288,39240,1,4,0:0:0:0:
120,140,39709,6,0,P|141:69|201:35,2,130,12|0|8,0:0|0:0|0:0,0:0:0:0:
196,292,41115,2,0,B|256:276|256:276|325:294,1,130,0|8,0:0|0:0,0:0:0:0:
436,168,42052,2,0,P|443:125|434:97,1,65
388,36,42521,2,0,P|316:36|252:8,1,130,8|0,0:0|0:0,0:0:0:0:
120,104,43459,6,0,B|184:124|184:124|240:176,1,130,8|0,0:0|0:0,0:0:0:0:
212,336,44396,2,0,B|148:316|148:316|92:264,1,130,8|0,0:0|0:0,0:0:0:0:
270,235,45334,2,0,P|343:213|385:173,1,130,8|0,0:0|0:0,0:0:0:0:
256,72,46271,1,8,0:0:0:0:
188,228,46740,1,0,0:0:0:0:
356,228,47209,6,0,P|376:288|355:349,1,130,8|0,0:0|0:0,0:0:0:0:
276,200,48146,2,0,P|325:150|386:149,1,130,8|0,0:0|0:0,0:0:0:0:
356,228,48849,1,0,0:0:0:0:
293,285,49084,2,0,P|228:272|191:217,2,130,8|0|8,0:0|0:0|0:0,0:0:0:0:
408,172,50490,2,0,P|390:142|360:122,1,65
292,84,50959,6,0,P|240:113|161:111,1,130,8|2,0:0|0:0,0:0:0:0:
16,184,51896,2,0,P|54:238|51:299,1,130,8|0,0:0|0:0,0:0:0:0:
216,340,52834,2,0,B|262:297|262:297|330:273,1,130,8|0,0:0|0:0,0:0:0:0:
437,152,53771,2,0,P|462:172|477:201,2,65,8|0|2,0:0|0:0|0:0,0:0:0:0:
373,96,54474,1,0,0:0:0:0:
293,62,54709,6,0,P|236:70|161:61,2,130,8|0|8,0:0|0:0|0:0,0:0:0:0:
252,228,56115,2,0,P|256:260|284:292,1,65
336,224,56584,2,0,P|328:191|305:162,1,65,8|0,0:0|0:0,0:0:0:0:
232,144,57052,2,0,P|196:160|156:160,1,65
88,156,57521,6,0,P|140:192|172:256,1,130,8|0,0:0|0:0,0:0:0:0:
252,268,58224,1,0,0:0:0:0:
332,240,58459,1,8,0:0:0:0:
244,96,58927,1,2,0:0:0:0:
170,249,59396,2,0,P|146:281|114:297,2,65,8|0|0,0:0|0:0|0:0,0:0:0:0:
168,164,60099,1,0,0:0:0:0:
140,84,60334,1,4,0:0:0:0:
256,192,60568,12,4,62209,0:0:0:0:
303,71,69709,6,0,P|315:102|335:127,1,65,8|0,0:0|0:0,0:0:0:0:
405,169,70177,2,0,P|356:208|293:198,1,130,0|8,0:0|0:0,0:0:0:0:
222,154,70880,1,0,0:0:0:0:
164,92,71115,1,0,0:0:0:0:
80,240,71584,2,0,B|124:212|172:276|224:224,1,130,8|0,0:0|0:0,0:0:0:0:
372,264,72521,2,0,P|392:296|420:316,2,65,8|0|0,0:0|0:0|0:0,0:0:0:0:
380,96,73459,6,0,B|320:124|320:124|240:124,1,130,8|0,0:0|0:0,0:0:0:0:
88,124,74396,2,0,P|144:152|180:208,1,130,8|0,0:0|0:0,0:0:0:0:
232,276,75099,1,0,0:0:0:0:
298,324,75334,2,0,P|272:348|244:356,2,65,8|0|0,0:0|0:0|0:0,0:0:0:0:
336,164,76271,2,0,P|352:204|376:224,1,65,8|0,0:0|0:0,0:0:0:0:
420,152,76740,2,0,P|404:112|380:92,1,65,2|2,0:0|0:0,0:0:0:0:
304,88,77209,6,0,P|232:84|176:48,1,130,8|0,0:0|0:0,0:0:0:0:
80,188,78146,2,0,P|87:219|88:251,1,65,8|0,0:0|0:0,0:0:0:0:
51,328,78615,2,0,P|91:340|117:334,1,65
177,279,79084,2,0,P|191:251|215:229,1,65,8|0,0:0|0:0,0:0:0:0:
296,196,79552,2,0,P|296:259|255:308,1,130,0|8,0:0|0:0,0:0:0:0:
192,360,80255,2,0,P|156:364|128:344,1,65
49,182,80959,6,0,B|96:156|124:220|172:179,1,130,8|0,0:0|0:0,0:0:0:0:
236,124,81662,2,0,P|252:148|258:185,1,65,0|8,0:0|0:0,0:0:0:0:
240,262,82130,2,0,P|245:301|272:328,1,65
417,253,82834,2,0,P|386:197|401:125,1,130,8|0,0:0|0:0,0:0:0:0:
243,60,83771,2,0,P|212:49|188:27,2,65,8|0|2,0:0|0:0|0:0,0:0:0:0:
280,225,84709,6,0,P|248:240|229:264,1,65,12|0,0:0|0:0,0:0:0:0:
183,333,85177,2,0,P|155:305|147:263,1,65,0|0,0:0|0:0,0:0:0:0:
62,275,85646,2,0,P|134:246|155:195,1,130,12|0,0:0|0:0,0:0:0:0:
223,46,86584,2,0,P|252:106|316:140,1,130,12|0,0:0|0:0,0:0:0:0:
388,160,87287,1,0,0:0:0:0:
376,243,87521,2,0,B|409:244|409:244|445:226,2,65,12|0|0,0:0|0:0|0:0,0:0:0:0:
209,272,88459,6,0,P|158:309|94:307,1,130,12|0,0:0|0:0,0:0:0:0:
52,233,89162,2,0,P|22:259|12:290,2,65,0|12|0,0:0|0:0|0:0,0:0:0:0:
134,204,89865,2,0,P|118:175|92:157,1,65
12,133,90334,2,0,P|86:118|126:63,1,130,12|0,0:0|0:0,0:0:0:0:
189,30,91037,1,0,0:0:0:0:
272,29,91271,2,0,P|279:68|271:100,1,65,10|2,0:0|0:0,0:0:0:0:
196,109,91740,2,0,P|192:149|204:181,1,65,2|2,0:0|0:0,0:0:0:0:
184,257,92209,6,0,P|228:205|292:197,1,130,12|0,0:0|0:0,0:0:0:0:
265,277,92912,1,0,0:0:0:0:
204,336,93146,2,0,P|136:324|104:248,1,130,12|0,0:0|0:0,0:0:0:0:
196,137,94084,2,0,B|245:122|245:122|276:97|276:97|333:80,1,130,12|0,0:0|0:0,0:0:0:0:
387,127,94787,1,0,0:0:0:0:
431,198,95021,2,0,B|381:212|381:212|351:238|351:238|293:254,1,130,12|0,0:0|0:0,0:0:0:0:
146,271,95959,6,0,P|206:287|254:347,1,130,12|0,0:0|0:0,0:0:0:0:
82,319,96896,2,0,P|66:259|102:203,1,130,12|0,0:0|0:0,0:0:0:0:
250,123,97834,2,0,P|250:155|234:191,1,65,12|0,0:0|0:0,0:0:0:0:
171,139,98302,2,0,P|171:107|187:71,1,65
257,36,98771,2,0,P|313:65|336:124,1,130,12|8,0:0|0:0,0:0:0:0:
286,286,99709,5,4,0:0:0:0:
44,49,100646,2,0,P|96:81|176:77,1,130,8|0,0:0|0:0,0:0:0:0:
331,103,101584,6,0,P|271:139|263:215,1,130,8|0,0:0|0:0,0:0:0:0:
288,272,102287,1,0,0:0:0:0:
368,292,102521,2,0,P|428:256|436:180,1,130,8|0,0:0|0:0,0:0:0:0:
424,32,103459,2,0,B|356:48|356:48|308:92,1,130,8|0,0:0|0:0,0:0:0:0:
244,245,104396,2,0,B|185:246|185:246|170:255|154:268|118:264,1,130,8|0,0:0|0:0,0:0:0:0:
39,111,105334,6,0,P|100:125|130:181,1,130,8|2,0:0|0:0,0:0:0:0:
292,132,106271,2,0,P|296:84|288:64,1,65,10|2,0:0|0:0,0:0:0:0:
216,105,106740,2,0,P|212:153|220:173,1,65,2|2,0:0|0:0,0:0:0:0:
251,245,107209,2,0,P|291:304|354:319,1,130,8|0,0:0|0:0,0:0:0:0:
414,270,107912,1,0,0:0:0:0:
340,228,108146,2,0,B|336:196|336:196|344:152,1,65,8|0,0:0|0:0,0:0:0:0:
418,127,108615,2,0,B|422:95|422:95|414:51,1,65
332,53,109084,6,0,P|300:69|280:97,1,65,8|0,0:0|0:0,0:0:0:0:
279,176,109552,2,0,P|287:208|284:240,1,65
230,305,110021,2,0,B|193:259|208:215|208:215|181:183,1,130,8|0,0:0|0:0,0:0:0:0:
138,120,110724,1,0,0:0:0:0:
68,71,110959,2,0,B|34:120|52:179|92:203|152:235|121:311,1,260,8|8,0:0|0:0,0:0:0:0:
255,201,112365,1,0,0:0:0:0:
392,307,112834,6,0,B|363:236|423:204|463:180|483:124|447:72,1,260,8|8,0:0|0:0,0:0:0:0:
292,143,114240,2,0,P|257:149|224:143,1,65,4|4,0:0|0:0,0:0:0:0:
258,65,114709,1,4,0:0:0:0:
112,96,129709,6,0,B|128:164|128:164|184:216,1,130,8|0,0:0|0:0,0:0:0:0:
340,204,130646,2,0,B|384:163|384:163|400:95,1,130,8|0,0:0|0:0,0:0:0:0:
256,188,131584,2,0,L|256:332,2,130,8|0|10,0:0|0:0|0:0,0:0:0:0:
256,20,132990,1,2,0:0:0:0:
159,158,133459,6,0,B|199:146|199:146|223:122,1,65,8|0,0:0|0:0,0:0:0:0:
299,130,133927,2,0,B|315:146|315:146|355:158,1,65,0|0,0:0|0:0,0:0:0:0:
409,223,134396,2,0,P|351:263|329:325,1,130,8|2,0:0|0:0,0:0:0:0:
255,275,135099,1,0,0:0:0:0:
181,317,135334,2,0,P|155:258|101:223,1,130,8|0,0:0|0:0,0:0:0:0:
190,79,136271,2,0,B|256:95|256:95|326:78,1,130,10|2,0:0|0:0,0:0:0:0:
457,173,137209,6,0,P|428:186|401:212,1,65,8|0,0:0|0:0,0:0:0:0:
371,285,137677,2,0,P|345:267|327:240,1,65
254,199,138146,2,0,P|277:170|318:159,2,65,10|0|2,0:0|0:0|0:0,0:0:0:0:
212,273,138849,1,0,0:0:0:0:
132,305,139084,2,0,L|-9:319,2,130,8|0|8,0:0|0:0|0:0,0:0:0:0:
192,144,140490,1,0,0:0:0:0:
340,63,140959,6,0,B|362:90|362:90|364:124,1,65,8|0,0:0|0:0,0:0:0:0:
331,197,141427,2,0,B|297:204|297:204|269:231,1,65,0|0,0:0|0:0,0:0:0:0:
244,303,141896,2,0,P|244:240|203:191,2,130,8|0|8,0:0|0:0|0:0,0:0:0:0:
103,205,143302,2,0,P|114:142|159:98,1,130,10|10,0:0|0:0,0:0:0:0:
217,32,144005,2,0,P|237:58|248:89,1,65,2|10,0:0|0:0,0:0:0:0:
358,206,144709,6,0,B|310:229|310:229|283:267|247:266,1,130,10|2,0:0|0:0,0:0:0:0:
161,266,145412,1,0,0:0:0:0:
92,220,145646,2,0,P|144:184|209:199,1,130,8|0,0:0|0:0,0:0:0:0:
246,265,146349,1,0,0:0:0:0:
316,312,146584,2,0,L|458:318,2,130,8|0|8,0:0|0:0|0:0,0:0:0:0:
223,169,147990,1,0,0:0:0:0:
85,70,148459,6,0,B|111:102|94:129|59:169|96:203,1,130,10|0,0:0|0:0,0:0:0:0:
144,256,149162,1,0,0:0:0:0:
222,286,149396,2,0,B|287:290|287:290|370:266,1,130,8|0,0:0|0:0,0:0:0:0:
430,248,150099,1,0,0:0:0:0:
476,177,150334,2,0,L|458:41,2,130,8|0|10,0:0|0:0|0:0,0:0:0:0:
310,142,151740,2,0,P|345:136|379:142,1,65,2|0,0:0|0:0,0:0:0:0:
344,221,152209,6,0,P|268:216|228:168,1,130,8|0,0:0|0:0,0:0:0:0:
240,96,152912,1,0,0:0:0:0:
232,16,153146,2,0,P|201:24|177:47,1,65,8|0,0:0|0:0,0:0:0:0:
156,124,153615,2,0,B|152:146|154:156|145:187,1,65
79,242,154084,2,0,B|113:281|152:275|171:268|171:268|197:280,1,130,8|0,0:0|0:0,0:0:0:0:
362,319,155021,2,0,P|365:283|359:253,1,65,10|0,0:0|0:0,0:0:0:0:
282,220,155490,2,0,P|275:171|288:144,1,65,0|0,0:0|0:0,0:0:0:0:
296,74,155959,6,0,L|429:52,2,130,8|0|8,0:0|0:0|0:0,0:0:0:0:
211,81,157130,1,0,0:0:0:0:
126,75,157365,2,0,P|88:65|57:51,1,65,0|2,0:0|0:0,0:0:0:0:
13,122,157834,2,0,P|48:179|50:249,1,130,10|0,0:0|0:0,0:0:0:0:
215,282,158771,2,0,P|243:222|317:177,1,130,10|2,0:0|0:0,0:0:0:0:
444,112,159709,1,4,0:0:0:0:
108,100,160646,6,0,L|240:76,1,130,8|2,0:0|0:0,0:0:0:0:
403,99,161584,2,0,P|385:160|328:188,1,130,8|0,0:0|0:0,0:0:0:0:
324,108,162287,1,0,0:0:0:0:
255,157,162521,2,0,P|259:229|306:265,1,130,8|0,0:0|0:0,0:0:0:0:
140,324,163459,2,0,L|-4:340,1,130,8|2,0:0|0:0,0:0:0:0:
151,243,164396,6,0,P|203:199|211:131,1,130,8|2,0:0|0:0,0:0:0:0:
345,36,165334,2,0,B|281:52|281:52|209:56,1,130,8|0,0:0|0:0,0:0:0:0:
136,82,166037,1,2,0:0:0:0:
59,118,166271,2,0,P|71:158|63:190,1,65,10|0,0:0|0:0,0:0:0:0:
32,256,166740,1,2,0:0:0:0:
116,264,166974,1,2,0:0:0:0:
200,260,167209,6,0,P|232:244|260:216,1,65,8|0,0:0|0:0,0:0:0:0:
284,144,167677,2,0,P|312:172|348:184,1,65
359,100,168146,2,0,P|310:60|246:65,1,130,8|0,0:0|0:0,0:0:0:0:
176,108,168849,1,0,0:0:0:0:
104,152,169084,2,0,B|128:176|128:176|144:216,1,65,8|0,0:0|0:0,0:0:0:0:
112,284,169552,2,0,B|144:292|144:292|184:292,1,65,0|0,0:0|0:0,0:0:0:0:
252,328,170021,6,0,L|396:316,1,130,8|0,0:0|0:0,0:0:0:0:
448,264,170724,1,0,0:0:0:0:
484,188,170959,2,0,P|424:160|384:104,1,130,8|2,0:0|0:0,0:0:0:0:
228,52,171896,2,0,P|236:88|236:120,1,65,8|0,0:0|0:0,0:0:0:0:
201,193,172365,1,0,0:0:0:0:
175,273,172599,1,0,0:0:0:0:
209,353,172834,1,8,0:0:0:0:
256,192,173068,12,4,174709,0:0:0:0:
