osu file format v14

[General]
AudioFilename: Coffee House Debashis Sengupta.mp3
AudioLeadIn: 0
PreviewTime: 39591
Countdown: 0
SampleSet: Soft
StackLeniency: 0.7
Mode: 0
LetterboxInBreaks: 0
WidescreenStoryboard: 0

[Editor]
Bookmarks: 20959
DistanceSpacing: 1.3
BeatDivisor: 4
GridSize: 4
TimelineZoom: 1

[Metadata]
Title:Coffee House
TitleUnicode:Coffee House
Artist:Debashis Sengupta
ArtistUnicode:Debashis Sengupta
Creator:Arf
Version:Memories
Source:
Tags:bengali bangla houser shei adda manna dey cover jani nah old folk reminiscence ki emon katha rfandomization
BeatmapID:822326
BeatmapSetID:375479

[Difficulty]
HPDrainRate:6.5
CircleSize:4
OverallDifficulty:8
ApproachRate:8
SliderMultiplier:1.8
SliderTickRate:1

[Events]
//Background and Video events
0,0,"those were the days.jpg",0,0
//Break Periods
2,62409,68959
2,114909,128959
//Storyboard Layer 0 (Background)
//Storyboard Layer 1 (Fail)
//Storyboard Layer 2 (Pass)
//Storyboard Layer 3 (Foreground)
//Storyboard Sound Samples

[TimingPoints]
334,468.75,4,2,0,50,1,0
24240,-100,4,3,0,50,0,0
24709,-100,4,2,0,50,0,0
39240,-100,4,3,0,50,0,0
39709,-100,4,2,0,50,0,1
54709,-100,4,2,0,50,0,0
61740,-100,4,3,0,50,0,0
62091,-100,4,2,0,50,0,0
84709,-100,4,2,0,40,0,0
99709,-100,4,2,0,50,0,1
114240,-100,4,3,0,50,0,1
114709,-100,4,2,0,50,0,0
160646,-100,4,2,0,50,0,1
167209,-100,4,2,0,50,0,0

[Colours]
Combo1 : 251,188,0
Combo2 : 166,83,0
Combo3 : 252,232,114
Combo4 : 255,143,32

[HitObjects]
144,188,20959,6,0,P|152:239|186:270,1,90,8|0,0:0|0:0,0:0:0:0:
191,116,21427,2,0,P|143:102|99:115,1,90
227,198,21896,1,8,0:0:0:0:
392,148,22130,1,0,0:0:0:0:
316,72,22365,1,0,0:0:0:0:
468,212,22599,1,0,0:0:0:0:
348,308,22834,6,0,P|316:272|312:224,1,90,8|0,0:0|0:0,0:0:0:0:
372,92,23302,1,0,0:0:0:0:
187,93,23537,1,2,0:0:0:0:
187,93,23654,1,2,0:0:0:0:
186,93,23771,2,0,P|217:125|259:138,1,90,10|0,0:0|0:0,0:0:0:0:
272,40,24240,1,4,0:0:0:0:
272,40,24357,1,4,0:0:0:0:
272,40,24474,1,4,0:0:0:0:
320,236,24709,6,0,P|368:248|400:296,1,90,8|0,0:0|0:0,0:0:0:0:
242,267,25177,2,0,P|235:223|259:178,1,90
348,60,25646,1,8,0:0:0:0:
396,204,25880,1,0,0:0:0:0:
272,96,26115,1,0,0:0:0:0:
424,28,26349,1,0,0:0:0:0:
329,150,26584,6,0,P|312:191|317:236,1,90,8|0,0:0|0:0,0:0:0:0:
452,348,27052,2,0,P|432:308|388:280,1,90
244,192,27521,1,8,0:0:0:0:
192,336,27755,1,0,0:0:0:0:
192,336,27873,1,0,0:0:0:0:
192,336,27990,1,0,0:0:0:0:
344,308,28224,1,0,0:0:0:0:
211,269,28459,6,0,P|177:237|160:198,1,90,8|0,0:0|0:0,0:0:0:0:
310,109,28927,2,0,P|291:150|256:178,1,90
84,219,29396,1,8,0:0:0:0:
135,62,29630,1,0,0:0:0:0:
256,178,29865,1,0,0:0:0:0:
154,159,30099,1,0,0:0:0:0:
360,200,30334,6,0,P|404:192|440:152,1,90,8|0,0:0|0:0,0:0:0:0:
284,168,30802,2,0,P|281:220|297:254,1,90
408,344,31271,1,8,0:0:0:0:
360,200,31505,1,0,0:0:0:0:
244,300,31740,1,0,0:0:0:0:
384,272,31974,1,0,0:0:0:0:
244,208,32209,6,0,P|204:184|180:144,1,90,10|0,0:0|0:0,0:0:0:0:
300,52,32677,1,2,0:0:0:0:
404,164,32912,1,2,0:0:0:0:
244,208,33146,2,0,P|224:156|232:116,1,90,10|0,0:0|0:0,0:0:0:0:
392,88,33615,1,2,0:0:0:0:
418,238,33849,1,2,0:0:0:0:
245,206,34084,6,0,P|261:160|295:138,2,90,10|2|2,0:0|0:0|0:0,0:0:0:0:
248,336,34787,1,0,0:0:0:0:
379,282,35021,2,0,P|362:241|328:214,1,90,10|0,0:0|0:0,0:0:0:0:
188,156,35490,1,2,0:0:0:0:
308,64,35724,1,2,0:0:0:0:
264,191,35959,6,0,P|237:226|195:241,1,90,10|0,0:0|0:0,0:0:0:0:
40,224,36427,1,2,0:0:0:0:
195,241,36662,1,2,0:0:0:0:
195,241,36896,2,0,L|132:312,2,90,8|0|0,0:0|0:0|0:0,0:0:0:0:
298,121,37599,1,0,0:0:0:0:
368,257,37834,6,0,P|336:290|285:300,1,90,10|0,0:0|0:0,0:0:0:0:
405,182,38302,2,0,P|441:214|451:255,1,90,2|0,0:0|0:0,0:0:0:0:
323,166,38771,2,0,P|342:124|381:102,1,90,10|0,0:0|0:0,0:0:0:0:
477,35,39240,1,4,0:0:0:0:
471,33,39357,1,4,0:0:0:0:
465,32,39474,1,4,0:0:0:0:
312,42,39709,5,12,0:0:0:0:
254,183,39943,1,0,0:0:0:0:
403,152,40177,1,0,0:0:0:0:
403,152,40412,1,0,0:0:0:0:
256,107,40646,1,8,0:0:0:0:
357,243,40880,1,0,0:0:0:0:
192,262,41115,2,0,P|190:212|223:163,1,90
230,338,41584,6,0,P|187:347|139:328,1,90,8|0,0:0|0:0,0:0:0:0:
43,210,42052,1,0,0:0:0:0:
166,119,42287,1,0,0:0:0:0:
252,244,42521,2,0,P|281:277|325:292,1,90,8|0,0:0|0:0,0:0:0:0:
383,149,42990,2,0,P|344:169|326:209,1,90
458,113,43459,2,0,P|430:80|387:66,1,90,8|0,0:0|0:0,0:0:0:0:
232,92,43927,1,2,0:0:0:0:
232,92,44396,6,0,P|252:142|295:160,1,90,8|0,0:0|0:0,0:0:0:0:
446,147,44865,2,0,P|392:139|355:167,1,90
288,306,45334,2,0,P|321:263|315:217,1,90,8|0,0:0|0:0,0:0:0:0:
250,102,45802,1,0,0:0:0:0:
140,209,46037,1,0,0:0:0:0:
140,209,46154,1,0,0:0:0:0:
140,209,46271,1,8,0:0:0:0:
219,343,46505,1,0,0:0:0:0:
195,153,46740,1,0,0:0:0:0:
176,278,46974,1,0,0:0:0:0:
274,160,47209,6,0,P|262:110|228:81,1,90,8|0,0:0|0:0,0:0:0:0:
105,52,47677,1,0,0:0:0:0:
134,186,47912,2,0,P|139:235|126:278,2,90,0|8|0,0:0|0:0|0:0,0:0:0:0:
105,52,48615,1,0,0:0:0:0:
248,130,48849,1,0,0:0:0:0:
170,298,49084,5,8,0:0:0:0:
322,285,49318,1,0,0:0:0:0:
204,188,49552,1,0,0:0:0:0:
322,285,49787,1,0,0:0:0:0:
296,136,50021,1,8,0:0:0:0:
322,285,50255,1,0,0:0:0:0:
404,154,50490,1,0,0:0:0:0:
322,285,50724,1,0,0:0:0:0:
450,227,50959,6,0,P|436:184|404:154,1,90,8|0,0:0|0:0,0:0:0:0:
271,231,51427,2,0,P|314:245|357:233,1,90,2|0,0:0|0:0,0:0:0:0:
356,78,51896,2,0,P|325:111|313:156,1,90,8|0,0:0|0:0,0:0:0:0:
327,319,52365,2,0,P|279:323|235:314,1,90
129,204,52834,6,0,P|123:157|92:115,1,90,8|0,0:0|0:0,0:0:0:0:
99,279,53302,2,0,P|143:283|183:264,1,90
257,121,53771,1,8,0:0:0:0:
183,264,54005,1,0,0:0:0:0:
99,122,54240,1,2,0:0:0:0:
99,122,54357,1,2,0:0:0:0:
99,122,54474,1,2,0:0:0:0:
92,288,54709,5,8,0:0:0:0:
264,296,54943,1,0,0:0:0:0:
112,196,55177,1,0,0:0:0:0:
161,258,55412,2,0,P|186:224|187:173,1,90,0|8,0:0|0:0,0:0:0:0:
185,86,55880,1,0,0:0:0:0:
274,206,56115,2,0,P|317:207|356:178,1,90
269,40,56584,6,0,P|270:85|292:124,1,90,8|0,0:0|0:0,0:0:0:0:
456,113,57052,2,0,P|414:97|370:100,1,90
300,280,57521,2,0,P|254:288|196:274,1,90,8|0,0:0|0:0,0:0:0:0:
56,113,57990,2,0,P|98:97|142:100,1,90
256,192,58459,5,8,0:0:0:0:
256,192,58927,1,2,0:0:0:0:
256,192,59396,5,8,0:0:0:0:
115,280,59630,1,0,0:0:0:0:
120,120,59865,1,0,0:0:0:0:
197,258,60099,1,0,0:0:0:0:
287,121,60334,6,0,P|325:155|339:196,1,90,8|0,0:0|0:0,0:0:0:0:
211,104,60802,2,0,P|239:59|277:43,1,90
215,189,61271,2,0,P|171:181|139:150,1,90,8|0,0:0|0:0,0:0:0:0:
36,36,61740,1,4,0:0:0:0:
37,42,61857,1,4,0:0:0:0:
38,48,61974,1,4,0:0:0:0:
60,199,62209,5,4,0:0:0:0:
306,102,69709,6,0,P|319:147|361:177,1,90,8|0,0:0|0:0,0:0:0:0:
456,210,70177,1,0,0:0:0:0:
394,68,70412,1,0,0:0:0:0:
221,129,70646,2,0,P|175:138|124:127,1,90,8|0,0:0|0:0,0:0:0:0:
279,68,71115,2,0,P|303:105|302:149,1,90
143,313,71584,6,0,B|150:317|182:339|217:319|243:297|243:297|268:303|312:289,1,180,8|0,0:0|0:0,0:0:0:0:
412,209,72287,1,0,0:0:0:0:
290,117,72521,1,8,0:0:0:0:
312,288,72755,1,0,0:0:0:0:
373,104,72990,2,0,P|356:68|315:36,1,90
218,122,73459,6,0,P|203:163|170:193,1,90,8|0,0:0|0:0,0:0:0:0:
49,97,73927,2,0,P|93:95|131:118,1,90
176,286,74396,2,0,P|94:258|73:174,1,180,8|0,0:0|0:0,0:0:0:0:
96,92,75099,1,0,0:0:0:0:
224,148,75334,5,8,0:0:0:0:
108,248,75568,1,0,0:0:0:0:
96,92,75802,1,0,0:0:0:0:
108,248,76037,1,0,0:0:0:0:
268,218,76271,1,8,0:0:0:0:
268,218,76505,1,0,0:0:0:0:
210,365,76740,1,2,0:0:0:0:
210,365,76857,1,2,0:0:0:0:
210,365,76974,1,2,0:0:0:0:
313,302,77209,6,0,P|350:277|364:224,1,90,8|0,0:0|0:0,0:0:0:0:
289,102,77677,2,0,P|252:127|238:180,1,90
226,321,78146,1,8,0:0:0:0:
238,168,78380,1,0,0:0:0:0:
95,223,78615,2,0,B|75:181|75:181|82:131,1,90
160,269,79084,6,0,P|118:301|74:300,1,90,8|0,0:0|0:0,0:0:0:0:
200,198,79552,2,0,P|234:235|239:290,1,90
224,360,80021,1,8,0:0:0:0:
365,302,80255,1,0,0:0:0:0:
281,173,80490,1,0,0:0:0:0:
281,173,80959,6,0,P|319:133|363:129,1,90,8|0,0:0|0:0,0:0:0:0:
472,184,81427,1,0,0:0:0:0:
348,259,81662,1,0,0:0:0:0:
351,127,81896,1,8,0:0:0:0:
427,268,82130,1,0,0:0:0:0:
267,247,82365,2,0,P|226:211|217:170,1,90
249,27,82834,5,8,0:0:0:0:
298,171,83068,1,0,0:0:0:0:
137,186,83302,1,0,0:0:0:0:
137,186,83771,1,8,0:0:0:0:
244,108,84005,1,0,0:0:0:0:
224,260,84240,1,2,0:0:0:0:
224,260,84357,1,2,0:0:0:0:
224,260,84474,1,2,0:0:0:0:
376,112,84709,5,12,0:0:0:0:
336,300,84943,1,0,0:0:0:0:
376,112,85177,1,0,0:0:0:0:
223,185,85412,1,0,0:0:0:0:
372,232,85646,2,0,P|404:264|412:308,1,90,12|0,0:0|0:0,0:0:0:0:
296,212,86115,2,0,P|324:168|365:153,1,90
300,296,86584,5,12,0:0:0:0:
300,296,86818,2,0,P|223:253|230:160,1,180
372,52,87521,1,12,0:0:0:0:
372,52,87755,1,0,0:0:0:0:
252,104,87990,1,0,0:0:0:0:
364,176,88224,1,0,0:0:0:0:
228,248,88459,6,0,B|248:288|248:288|288:316,2,90,12|0|0,0:0|0:0|0:0,0:0:0:0:
144,120,89162,1,0,0:0:0:0:
76,256,89396,1,12,0:0:0:0:
228,156,89630,1,0,0:0:0:0:
160,288,89865,1,0,0:0:0:0:
68,172,90099,1,0,0:0:0:0:
224,240,90334,6,0,P|268:228|303:185,1,90,12|0,0:0|0:0,0:0:0:0:
151,204,90802,2,0,P|143:248|161:289,1,90
260,332,91271,1,10,0:0:0:0:
308,180,91505,1,2,0:0:0:0:
151,204,91740,1,2,0:0:0:0:
151,204,91857,1,2,0:0:0:0:
151,204,91974,1,2,0:0:0:0:
292,264,92209,6,0,P|340:256|376:224,2,90,12|0|0,0:0|0:0|0:0,0:0:0:0:
276,112,92912,1,0,0:0:0:0:
292,264,93146,2,0,P|272:308|232:336,1,90,12|0,0:0|0:0,0:0:0:0:
283,189,93615,2,0,P|328:197|361:235,1,90
460,292,94084,6,0,P|452:345|414:375,2,90,12|0|0,0:0|0:0|0:0,0:0:0:0:
396,72,94787,1,0,0:0:0:0:
357,216,95021,2,0,P|356:261|380:299,2,90,12|0|0,0:0|0:0|0:0,0:0:0:0:
244,104,95724,1,0,0:0:0:0:
244,104,95841,1,0,0:0:0:0:
244,104,95959,6,0,P|196:104|148:60,2,90,12|0|0,0:0|0:0|0:0,0:0:0:0:
468,185,96662,1,0,0:0:0:0:
329,139,96896,1,12,0:0:0:0:
415,258,97130,1,0,0:0:0:0:
415,112,97365,1,0,0:0:0:0:
329,229,97599,1,0,0:0:0:0:
415,112,97834,6,0,P|376:68|336:64,1,90,12|0,0:0|0:0,0:0:0:0:
177,199,98302,2,0,B|197:204|239:170|239:170|257:192|279:218|329:229,1,180,0|12,0:0|0:0,0:0:0:0:
476,188,99005,1,0,0:0:0:0:
440,332,99240,1,8,0:0:0:0:
384,156,99474,1,8,0:0:0:0:
380,152,99591,1,8,0:0:0:0:
376,148,99709,5,4,0:0:0:0:
376,148,100646,6,0,P|328:164|280:156,1,90,8|0,0:0|0:0,0:0:0:0:
256,144,100998,1,0,0:0:0:0:
220,116,101115,2,0,P|168:108|120:124,1,90
112,292,101584,6,0,P|156:264|164:212,1,90,8|0,0:0|0:0,0:0:0:0:
192,80,102052,1,0,0:0:0:0:
324,156,102287,1,0,0:0:0:0:
216,312,102521,2,0,B|248:292|256:256|256:256|316:300|380:280,1,180,8|0,0:0|0:0,0:0:0:0:
452,164,103224,1,0,0:0:0:0:
320,116,103459,6,0,P|316:172|336:212,1,90,8|0,0:0|0:0,0:0:0:0:
360,45,103927,2,0,P|317:33|274:49,1,90
140,124,104396,2,0,B|141:177|141:177|188:190|216:232|213:277,1,180,8|0,0:0|0:0,0:0:0:0:
116,272,105099,1,0,0:0:0:0:
264,192,105334,6,0,P|324:192|364:204,1,90,8|0,0:0|0:0,0:0:0:0:
456,252,105802,1,2,0:0:0:0:
336,356,106037,1,2,0:0:0:0:
428,176,106271,1,10,0:0:0:0:
380,272,106505,1,2,0:0:0:0:
380,272,106623,1,2,0:0:0:0:
380,272,106740,1,2,0:0:0:0:
288,148,106974,1,2,0:0:0:0:
184,260,107209,6,0,P|144:280|96:284,2,90,8|0|0,0:0|0:0|0:0,0:0:0:0:
213,125,107912,1,0,0:0:0:0:
353,206,108146,1,8,0:0:0:0:
353,44,108380,1,0,0:0:0:0:
260,206,108615,1,0,0:0:0:0:
400,125,108849,1,0,0:0:0:0:
264,44,109084,5,8,0:0:0:0:
324,184,109318,1,0,0:0:0:0:
252,56,109552,1,0,0:0:0:0:
312,200,109787,1,0,0:0:0:0:
240,68,110021,1,8,0:0:0:0:
300,216,110255,1,0,0:0:0:0:
136,192,110490,2,0,P|132:236|168:284,1,90
296,336,110959,5,8,0:0:0:0:
492,144,111427,1,2,0:0:0:0:
492,144,111896,6,0,B|472:208|424:204|384:220|376:280,1,180,8|0,0:0|0:0,0:0:0:0:
412,124,112599,1,0,0:0:0:0:
440,316,112834,6,0,P|400:348|344:344,1,90,8|0,0:0|0:0,0:0:0:0:
224,284,113302,1,0,0:0:0:0:
344,188,113537,1,0,0:0:0:0:
362,350,113771,1,8,0:0:0:0:
284,236,114005,1,0,0:0:0:0:
404,144,114240,1,4,0:0:0:0:
404,144,114357,1,4,0:0:0:0:
404,144,114474,1,4,0:0:0:0:
264,80,114709,5,4,0:0:0:0:
128,112,129709,5,8,0:0:0:0:
188,252,129943,1,0,0:0:0:0:
276,128,130177,2,0,P|304:164|312:216,1,90
205,93,130646,2,0,P|240:56|280:48,1,90,8|0,0:0|0:0,0:0:0:0:
420,92,131115,1,0,0:0:0:0:
312,206,131349,1,0,0:0:0:0:
352,352,131584,6,0,B|382:309|377:268|377:268|416:222|395:177,1,180,8|0,0:0|0:0,0:0:0:0:
265,85,132287,1,0,0:0:0:0:
116,100,132521,2,0,P|104:148|116:192,1,90,10|0,0:0|0:0,0:0:0:0:
124,216,132873,1,2,0:0:0:0:
132,248,132990,2,0,P|144:296|132:340,1,90,2|0,0:0|0:0,0:0:0:0:
216,308,133459,6,0,P|260:304|320:312,1,90,8|0,0:0|0:0,0:0:0:0:
132,248,133927,2,0,P|88:244|28:252,1,90
148,108,134396,2,0,P|196:128|232:160,1,90,8|0,0:0|0:0,0:0:0:0:
256,164,134748,1,2,0:0:0:0:
284,152,134865,2,0,P|320:124|362:108,1,90,2|0,0:0|0:0,0:0:0:0:
428,216,135334,5,8,0:0:0:0:
336,336,135568,1,0,0:0:0:0:
280,196,135802,2,0,P|268:152|280:96,1,90
304,268,136271,2,0,P|256:268|216:236,1,90,10|0,0:0|0:0,0:0:0:0:
208,216,136623,1,2,0:0:0:0:
192,188,136740,2,0,P|154:163|108:156,1,90,2|0,0:0|0:0,0:0:0:0:
24,236,137209,5,8,0:0:0:0:
160,340,137443,1,0,0:0:0:0:
180,168,137677,2,0,B|196:124|196:124|236:100,1,90
368,32,138146,2,0,P|376:76|364:128,1,90,10|0,0:0|0:0,0:0:0:0:
360,152,138498,1,2,0:0:0:0:
356,184,138615,2,0,P|352:232|372:272,1,90,2|0,0:0|0:0,0:0:0:0:
448,312,139084,6,0,B|424:352|424:352|376:372,1,90,8|0,0:0|0:0,0:0:0:0:
164,240,139552,2,0,B|156:192|156:192|186:149,1,90
300,72,140021,1,8,0:0:0:0:
136,84,140255,1,0,0:0:0:0:
236,220,140490,2,0,P|292:212|320:188,1,90
368,60,140959,5,8,0:0:0:0:
316,191,141193,1,0,0:0:0:0:
224,84,141427,1,0,0:0:0:0:
224,84,141662,1,0,0:0:0:0:
180,232,141896,2,0,P|176:288|192:324,1,90,8|0,0:0|0:0,0:0:0:0:
320,252,142365,1,0,0:0:0:0:
195,157,142599,1,0,0:0:0:0:
328,96,142834,6,0,P|376:100|420:96,1,90,8|0,0:0|0:0,0:0:0:0:
268,164,143302,1,10,0:0:0:0:
250,164,143419,1,2,0:0:0:0:
231,163,143537,1,2,0:0:0:0:
213,160,143654,1,2,0:0:0:0:
195,157,143771,1,10,0:0:0:0:
52,142,144005,1,2,0:0:0:0:
54,159,144123,1,2,0:0:0:0:
52,176,144240,1,10,0:0:0:0:
170,249,144474,1,2,0:0:0:0:
171,265,144591,1,2,0:0:0:0:
173,282,144709,6,0,P|185:322|233:354,1,90,10|0,0:0|0:0,0:0:0:0:
256,348,145060,1,2,0:0:0:0:
288,352,145177,2,0,P|323:325|336:283,1,90,2|0,0:0|0:0,0:0:0:0:
300,160,145646,2,0,P|252:164|204:160,1,90,8|0,0:0|0:0,0:0:0:0:
352,76,146115,1,0,0:0:0:0:
284,248,146349,1,0,0:0:0:0:
273,95,146584,6,0,P|294:134|333:155,1,90,8|0,0:0|0:0,0:0:0:0:
436,204,147052,2,0,P|424:248|432:296,1,90
284,340,147521,1,8,0:0:0:0:
430,291,147755,1,0,0:0:0:0:
312,192,147990,2,0,B|268:176|268:176|216:184,1,90,0|2,0:0|0:0,0:0:0:0:
200,200,148341,1,2,0:0:0:0:
168,208,148459,6,0,B|114:201|90:140|112:99|112:99|108:76|88:66,1,180,10|0,0:0|0:0,0:0:0:0:
52,216,149162,1,0,0:0:0:0:
181,132,149396,1,8,0:0:0:0:
188,294,149630,1,0,0:0:0:0:
262,163,149865,2,0,P|224:138|181:131,1,90
268,245,150334,6,0,B|333:235|353:179|340:137|340:137|353:108,1,180,8|0,0:0|0:0,0:0:0:0:
389,15,151037,1,2,0:0:0:0:
389,15,151154,1,2,0:0:0:0:
389,15,151271,2,0,P|426:39|450:88,1,90,10|0,0:0|0:0,0:0:0:0:
449,107,151623,1,2,0:0:0:0:
445,135,151740,2,0,P|433:183|453:235,1,90,2|0,0:0|0:0,0:0:0:0:
368,336,152209,6,0,P|324:332|284:296,1,90,8|0,0:0|0:0,0:0:0:0:
196,176,152677,1,0,0:0:0:0:
303,34,152912,1,0,0:0:0:0:
303,210,153146,1,8,0:0:0:0:
200,66,153380,1,0,0:0:0:0:
366,122,153615,1,0,0:0:0:0:
196,176,153849,1,0,0:0:0:0:
404,196,154084,6,0,P|440:160|448:117,1,90,8|0,0:0|0:0,0:0:0:0:
320,200,154552,2,0,P|336:248|376:276,1,90,0|2,0:0|0:0,0:0:0:0:
348,296,154904,1,2,0:0:0:0:
328,316,155021,2,0,L|236:320,1,90,10|0,0:0|0:0,0:0:0:0:
144,192,155490,2,0,L|236:188,1,90
356,176,155959,5,8,0:0:0:0:
416,17,156193,1,0,0:0:0:0:
464,125,156427,1,0,0:0:0:0:
305,63,156662,1,0,0:0:0:0:
264,180,156896,6,0,P|272:228|312:264,1,90,8|0,0:0|0:0,0:0:0:0:
303,104,157365,2,0,P|260:95|217:109,1,90,0|2,0:0|0:0,0:0:0:0:
196,132,157716,1,2,0:0:0:0:
176,156,157834,2,0,P|128:168|88:156,1,90,10|0,0:0|0:0,0:0:0:0:
32,48,158302,1,0,0:0:0:0:
90,157,158537,1,2,0:0:0:0:
90,157,158654,1,2,0:0:0:0:
90,157,158771,6,0,P|106:205|94:265,1,90,10|0,0:0|0:0,0:0:0:0:
120,268,159123,1,2,0:0:0:0:
144,284,159240,1,2,0:0:0:0:
176,292,159357,1,2,0:0:0:0:
208,296,159474,1,2,0:0:0:0:
240,292,159591,1,2,0:0:0:0:
272,284,159709,5,4,0:0:0:0:
312,56,160646,6,0,P|320:100|308:148,1,90,8|0,0:0|0:0,0:0:0:0:
300,172,160998,1,2,0:0:0:0:
292,204,161115,2,0,P|284:248|296:296,1,90,2|0,0:0|0:0,0:0:0:0:
389,168,161584,6,0,P|344:164|300:171,1,90,8|0,0:0|0:0,0:0:0:0:
159,247,162052,1,0,0:0:0:0:
296,336,162287,1,0,0:0:0:0:
224,192,162521,2,0,P|228:136|256:104,1,90,8|0,0:0|0:0,0:0:0:0:
240,276,162990,2,0,P|195:273|158:246,1,90
132,94,163459,5,8,0:0:0:0:
132,94,163927,1,2,0:0:0:0:
416,168,164396,2,0,P|364:172|320:164,1,90,8|0,0:0|0:0,0:0:0:0:
296,160,164748,1,2,0:0:0:0:
264,152,164865,2,0,P|216:148|168:156,1,90,2|0,0:0|0:0,0:0:0:0:
44,280,165334,6,0,P|92:280|136:252,1,90,8|0,0:0|0:0,0:0:0:0:
220,88,165802,1,0,0:0:0:0:
324,188,166037,1,2,0:0:0:0:
328,200,166154,1,2,0:0:0:0:
332,212,166271,1,10,0:0:0:0:
232,328,166505,1,0,0:0:0:0:
408,344,166740,1,2,0:0:0:0:
424,340,166857,1,2,0:0:0:0:
440,336,166974,1,2,0:0:0:0:
480,172,167209,6,0,B|468:128|468:128|432:84,1,90,8|0,0:0|0:0,0:0:0:0:
300,160,167677,2,0,P|252:164|200:160,1,90
332,276,168146,2,0,P|380:272|432:276,2,90,8|0|0,0:0|0:0|0:0,0:0:0:0:
164,264,168849,2,0,P|136:224|136:176,1,90,0|8,0:0|0:0,0:0:0:0:
236,304,169318,2,0,P|204:336|155:347,1,90
8,276,169787,1,0,0:0:0:0:
133,184,170021,6,0,P|181:188|229:184,1,90,8|0,0:0|0:0,0:0:0:0:
300,32,170490,2,0,P|252:28|204:32,1,90
348,152,170959,1,8,0:0:0:0:
348,152,171427,1,2,0:0:0:0:
208,288,171896,5,8,0:0:0:0:
376,264,172130,1,0,0:0:0:0:
264,136,172365,1,0,0:0:0:0:
296,304,172599,1,0,0:0:0:0:
448,224,172834,5,8,0:0:0:0:
256,192,172951,12,4,174709,0:0:0:0:
