osu file format v14

[General]
AudioFilename: Coffee House Debashis Sengupta.mp3
AudioLeadIn: 0
PreviewTime: 39591
Countdown: 0
SampleSet: Soft
StackLeniency: 0.4
Mode: 0
LetterboxInBreaks: 0
WidescreenStoryboard: 0

[Editor]
Bookmarks: 20959
DistanceSpacing: 1.5
BeatDivisor: 4
GridSize: 4
TimelineZoom: 1

[Metadata]
Title:Coffee House
TitleUnicode:Coffee House
Artist:Debashis Sengupta
ArtistUnicode:Debashis Sengupta
Creator:Arf
Version:Hard
Source:
Tags:bengali bangla houser shei adda manna dey cover jani nah old folk reminiscence ki emon katha rfandomization
BeatmapID:822325
BeatmapSetID:375479

[Difficulty]
HPDrainRate:5
CircleSize:3.5
OverallDifficulty:6
ApproachRate:7
SliderMultiplier:1.5
SliderTickRate:1

[Events]
//Background and Video events
0,0,"those were the days.jpg",0,0
//Break Periods
2,62409,68809
2,114909,128809
//Storyboard Layer 0 (Background)
//Storyboard Layer 1 (Fail)
//Storyboard Layer 2 (Pass)
//Storyboard Layer 3 (Foreground)
//Storyboard Sound Samples

[TimingPoints]
334,468.75,4,2,0,50,1,0
24240,-100,4,3,0,50,0,0
24591,-100,4,2,0,50,0,0
39240,-100,4,3,0,50,0,0
39591,-100,4,2,0,50,0,0
39709,-100,4,2,0,50,0,1
54709,-100,4,2,0,50,0,0
84709,-100,4,2,0,40,0,0
99709,-100,4,2,0,50,0,1
114240,-100,4,3,0,50,0,1
114591,-100,4,2,0,50,0,1
114709,-100,4,2,0,50,0,0
160646,-100,4,2,0,50,0,1
167091,-100,4,2,0,50,0,0

[Colours]
Combo1 : 251,188,0
Combo2 : 166,83,0
Combo3 : 252,232,114
Combo4 : 255,143,32

[HitObjects]
192,128,20959,6,0,L|112:136,2,75,8|0|0,0:0|0:0|0:0,0:0:0:0:
288,120,21662,1,0,0:0:0:0:
348,196,21896,2,0,P|356:236|344:280,1,75,8|0,0:0|0:0,0:0:0:0:
264,307,22365,2,0,P|256:267|268:223,1,75
348,196,22834,5,8,0:0:0:0:
260,140,23068,2,0,P|220:148|172:144,1,75,0|0,0:0|0:0,0:0:0:0:
80,164,23537,1,2,0:0:0:0:
80,164,23654,1,2,0:0:0:0:
80,164,23771,2,0,P|80:208|64:248,1,75,10|0,0:0|0:0,0:0:0:0:
72,344,24240,2,4,L|28:352,2,37.5
192,320,24709,6,0,B|240:308|264:272|264:272|264:220|296:192,1,150,8|0,0:0|0:0,0:0:0:0:
356,140,25412,1,0,0:0:0:0:
292,56,25646,2,0,P|256:48|220:56,1,75,8|0,0:0|0:0,0:0:0:0:
356,140,26115,2,0,P|392:148|428:140,1,75,0|0,0:0|0:0,0:0:0:0:
408,225,26584,6,0,B|376:249|372:289|372:289|340:313|332:353,1,150,8|0,0:0|0:0,0:0:0:0:
440,375,27287,1,0,0:0:0:0:
332,350,27521,2,0,P|288:350|248:334,1,75,8|0,0:0|0:0,0:0:0:0:
228,325,27873,1,2,0:0:0:0:
200,309,27990,2,0,P|160:305|120:317,1,75,2|0,0:0|0:0,0:0:0:0:
44,354,28459,6,0,P|92:278|92:218,1,150,8|0,0:0|0:0,0:0:0:0:
61,130,29162,1,0,0:0:0:0:
156,86,29396,2,0,L|132:14,2,75,8|0|0,0:0|0:0|0:0,0:0:0:0:
186,186,30099,1,0,0:0:0:0:
186,186,30334,5,4,0:0:0:0:
256,192,30451,12,0,31740,0:0:0:0:
356,112,32209,6,0,B|324:132|324:132|312:168,1,75,10|0,0:0|0:0,0:0:0:0:
256,256,32677,1,2,0:0:0:0:
256,256,32912,1,2,0:0:0:0:
200,168,33146,2,0,B|188:132|188:132|156:112,1,75,10|0,0:0|0:0,0:0:0:0:
76,180,33615,1,2,0:0:0:0:
156,112,33849,1,2,0:0:0:0:
148,224,34084,6,0,P|144:268|156:304,2,75,10|2|0,0:0|0:0|0:0,0:0:0:0:
156,112,34787,1,0,0:0:0:0:
256,80,35021,2,0,P|296:84|336:80,1,75,10|0,0:0|0:0,0:0:0:0:
380,184,35490,2,0,P|340:180|300:184,1,75,2|2,0:0|0:0,0:0:0:0:
204,183,35959,5,10,0:0:0:0:
204,183,36427,2,0,P|208:223|200:263,1,75,2|2,0:0|0:0,0:0:0:0:
164,355,36896,2,0,P|124:355|80:359,2,75,8|0|0,0:0|0:0|0:0,0:0:0:0:
268,359,37599,1,0,0:0:0:0:
380,276,37834,6,0,P|384:232|380:200,1,75,10|0,0:0|0:0,0:0:0:0:
378,98,38302,2,0,P|334:106|309:128,1,75,2|0,0:0|0:0,0:0:0:0:
313,227,38771,2,0,P|350:223|380:201,1,75,10|0,0:0|0:0,0:0:0:0:
476,156,39240,2,0,L|500:184,2,37.5,4|4|4,0:0|0:0|0:0,0:0:0:0:
400,84,39709,6,0,P|360:64|344:36,1,75,12|0,0:0|0:0,0:0:0:0:
264,108,40177,2,0,P|242:138|208:153,1,75,0|0,0:0|0:0,0:0:0:0:
104,168,40646,1,8,0:0:0:0:
144,72,40880,1,0,0:0:0:0:
208,153,41115,2,0,P|224:193|224:229,1,75,0|0,0:0|0:0,0:0:0:0:
188,324,41584,6,0,B|236:336|272:320|272:320|308:284|356:292,1,150,8|0,0:0|0:0,0:0:0:0:
432,276,42287,1,0,0:0:0:0:
440,171,42521,2,0,B|419:152|379:156|379:156|339:144|299:124,1,150,8|0,0:0|0:0,0:0:0:0:
84,56,43459,5,8,0:0:0:0:
124,276,43927,1,2,0:0:0:0:
300,125,44396,2,0,P|324:193|384:249,1,150,8|0,0:0|0:0,0:0:0:0:
132,246,45334,6,0,P|186:194|212:125,1,150,8|0,0:0|0:0,0:0:0:0:
256,28,46037,1,0,0:0:0:0:
356,64,46271,2,0,P|388:96|424:112,1,75,8|0,0:0|0:0,0:0:0:0:
420,215,46740,2,0,P|385:230|362:259,1,75
264,276,47209,6,0,P|278:314|323:349,2,75,8|0|0,0:0|0:0|0:0,0:0:0:0:
232,176,47912,1,0,0:0:0:0:
264,76,48146,2,0,P|304:72|344:76,1,75,8|0,0:0|0:0,0:0:0:0:
232,176,48615,2,0,P|192:180|152:176,1,75
56,152,49084,5,8,0:0:0:0:
128,76,49318,1,0,0:0:0:0:
157,177,49552,1,0,0:0:0:0:
80,256,49787,1,0,0:0:0:0:
164,320,50021,2,0,P|204:296|224:264,1,75,8|0,0:0|0:0,0:0:0:0:
280,188,50490,2,0,P|292:228|324:264,1,75,0|0,0:0|0:0,0:0:0:0:
416,308,50959,5,8,0:0:0:0:
484,144,51427,1,2,0:0:0:0:
292,60,51896,2,0,B|304:104|348:116|348:116|376:148|372:200,1,150,8|0,0:0|0:0,0:0:0:0:
140,176,52834,6,0,B|136:147|164:115|164:115|208:103|220:59,1,150,8|0,0:0|0:0,0:0:0:0:
316,65,53537,2,0,P|308:105|280:133,1,75,0|8,0:0|0:0,0:0:0:0:
228,212,54005,1,0,0:0:0:0:
228,212,54240,2,0,L|176:200,2,37.5,2|2|2,0:0|0:0|0:0,0:0:0:0:
312,272,54709,6,0,P|352:276|392:272,1,75,8|0,0:0|0:0,0:0:0:0:
320,356,55177,2,0,P|280:352|240:356,1,75,0|0,0:0|0:0,0:0:0:0:
140,336,55646,1,8,0:0:0:0:
245,355,55880,1,0,0:0:0:0:
140,336,56115,2,0,P|136:280|124:248,1,75,0|0,0:0|0:0,0:0:0:0:
73,171,56584,6,0,P|76:128|90:93,2,75,8|0|0,0:0|0:0|0:0,0:0:0:0:
180,148,57287,1,0,0:0:0:0:
180,148,57521,2,0,P|224:152|258:139,1,75,8|0,0:0|0:0,0:0:0:0:
281,46,57990,2,0,P|237:42|203:55,1,75
252,142,58459,5,8,0:0:0:0:
176,336,58927,1,2,0:0:0:0:
380,292,59396,6,0,P|420:280|456:280,1,75,8|0,0:0|0:0,0:0:0:0:
380,204,59865,2,0,P|340:216|304:216,1,75,0|0,0:0|0:0,0:0:0:0:
220,156,60334,5,8,0:0:0:0:
256,192,60451,12,4,62209,0:0:0:0:
319,103,69709,6,0,P|323:140|321:178,1,75,8|0,0:0|0:0,0:0:0:0:
280,256,70177,2,0,P|276:296|280:340,1,75,0|0,0:0|0:0,0:0:0:0:
321,178,70646,2,0,P|277:174|241:178,1,75,8|0,0:0|0:0,0:0:0:0:
144,204,71115,2,0,P|160:240|191:267,1,75
246,177,71584,6,0,P|201:111|131:96,1,150,12|0,0:0|0:0,0:0:0:0:
52,144,72287,1,0,0:0:0:0:
96,240,72521,2,0,B|104:276|104:276|96:324,1,75,8|0,0:0|0:0,0:0:0:0:
200,344,72990,2,0,B|216:308|216:308|252:288,1,75,0|0,0:0|0:0,0:0:0:0:
380,260,73459,5,12,0:0:0:0:
272,80,73927,2,0,P|244:108|204:116,1,75
147,193,74396,2,0,P|215:225|247:297,1,150,8|0,0:0|0:0,0:0:0:0:
352,304,75099,1,0,0:0:0:0:
420,224,75334,6,0,P|428:176|408:128,2,75,8|0|0,0:0|0:0|0:0,0:0:0:0:
324,184,76037,1,0,0:0:0:0:
324,184,76271,2,0,P|316:136|336:88,1,75,8|0,0:0|0:0,0:0:0:0:
412,52,76740,2,0,L|452:40,2,37.5,2|2|2,0:0|0:0|0:0,0:0:0:0:
322,111,77209,6,0,P|278:111|222:103,1,75,12|0,0:0|0:0,0:0:0:0:
144,60,77677,2,0,P|148:104|144:140,1,75,0|0,0:0|0:0,0:0:0:0:
136,248,78146,1,8,0:0:0:0:
240,204,78380,1,0,0:0:0:0:
244,315,78615,2,0,P|284:306|316:286,1,75
376,196,79084,5,12,0:0:0:0:
376,196,79318,1,0,0:0:0:0:
336,92,79552,2,0,B|300:104|300:104|252:100,1,75,0|0,0:0|0:0,0:0:0:0:
216,204,80021,2,0,B|240:236|240:236|248:280,1,75,8|0,0:0|0:0,0:0:0:0:
356,296,80490,1,0,0:0:0:0:
240,56,80959,6,0,L|320:28,2,75,12|0|0,0:0|0:0|0:0,0:0:0:0:
152,112,81662,1,0,0:0:0:0:
120,220,81896,2,0,P|128:260|116:304,1,75,8|0,0:0|0:0,0:0:0:0:
220,236,82365,2,0,P|212:196|224:152,1,75,0|0,0:0|0:0,0:0:0:0:
304,148,82834,6,0,P|224:140|164:84,1,150,8|0,0:0|0:0,0:0:0:0:
394,128,83771,2,0,P|395:165|381:200,1,75,8|0,0:0|0:0,0:0:0:0:
292,272,84240,2,0,L|304:312,2,37.5,2|2|2,0:0|0:0|0:0,0:0:0:0:
256,164,84709,6,0,P|192:168|160:160,1,75,12|0,0:0|0:0,0:0:0:0:
116,256,85177,2,0,P|180:252|212:260,1,75,0|0,0:0|0:0,0:0:0:0:
292,304,85646,1,12,0:0:0:0:
376,228,85880,1,0,0:0:0:0:
292,304,86115,2,0,P|270:269|265:230,1,75
312,132,86584,6,0,P|348:128|392:132,2,75,12|0|0,0:0|0:0|0:0,0:0:0:0:
216,172,87287,1,0,0:0:0:0:
139,236,87521,2,0,P|102:236|71:218,1,75,12|0,0:0|0:0,0:0:0:0:
56,119,87990,2,0,P|93:117|126:134,1,75
140,236,88459,6,0,P|184:280|272:288,1,150,12|0,0:0|0:0,0:0:0:0:
368,236,89162,2,0,L|436:268,2,75,0|12|0,0:0|0:0|0:0,0:0:0:0:
268,184,89865,1,0,0:0:0:0:
308,80,90099,1,0,0:0:0:0:
268,184,90334,6,0,P|224:188|180:184,1,75,12|0,0:0|0:0,0:0:0:0:
308,80,90802,2,0,P|352:76|396:80,1,75,0|0,0:0|0:0,0:0:0:0:
468,152,91271,2,0,P|440:176|424:216,1,75,10|2,0:0|0:0,0:0:0:0:
340,284,91740,2,0,L|348:320,2,37.5,2|2|2,0:0|0:0|0:0,0:0:0:0:
272,192,92209,6,0,L|192:180,2,75,12|0|0,0:0|0:0|0:0,0:0:0:0:
376,204,92912,1,0,0:0:0:0:
340,284,93146,2,0,P|300:288|268:308,1,75,12|0,0:0|0:0,0:0:0:0:
172,356,93615,2,0,P|168:312|144:272,1,75,0|0,0:0|0:0,0:0:0:0:
104,184,94084,6,0,B|72:204|72:204|28:216,2,75,12|0|0,0:0|0:0|0:0,0:0:0:0:
148,80,94787,1,0,0:0:0:0:
258,87,95021,2,0,P|253:47|234:10,2,75,12|0|0,0:0|0:0|0:0,0:0:0:0:
265,192,95724,1,0,0:0:0:0:
290,317,95959,6,0,P|361:273|374:196,1,150,12|0,0:0|0:0,0:0:0:0:
265,192,96662,1,0,0:0:0:0:
180,272,96896,1,12,0:0:0:0:
112,184,97130,1,0,0:0:0:0:
180,272,97365,2,0,P|220:276|260:272,1,75
320,180,97834,6,0,P|280:176|240:180,1,75,12|0,0:0|0:0,0:0:0:0:
308,88,98302,2,0,P|384:111|412:175,1,150,0|12,0:0|0:0,0:0:0:0:
356,264,99005,1,0,0:0:0:0:
320,180,99240,1,8,0:0:0:0:
248,244,99474,1,8,0:0:0:0:
248,244,99591,1,8,0:0:0:0:
248,244,99709,5,4,0:0:0:0:
144,68,100646,6,0,P|152:116|136:188,1,112.5,8|0,0:0|0:0,0:0:0:0:
128,208,101115,2,0,P|120:248|136:300,1,75,0|0,0:0|0:0,0:0:0:0:
236,311,101584,6,0,B|288:287|288:287|312:259|312:259|368:235,1,150,8|0,0:0|0:0,0:0:0:0:
408,132,102287,1,0,0:0:0:0:
304,176,102521,2,0,B|252:200|252:200|228:228|228:228|172:252,1,150,8|0,0:0|0:0,0:0:0:0:
64,256,103224,1,0,0:0:0:0:
128,184,103459,6,0,B|180:160|180:160|204:132|204:132|260:108,1,150,8|0,0:0|0:0,0:0:0:0:
352,312,104396,2,0,P|304:256|220:240,1,150,8|0,0:0|0:0,0:0:0:0:
144,292,105099,1,0,0:0:0:0:
144,292,105334,6,0,P|200:236|208:168,1,150,8|2,0:0|0:0,0:0:0:0:
176,60,106037,2,0,P|216:56|256:60,1,75,2|10,0:0|0:0,0:0:0:0:
340,124,106505,1,2,0:0:0:0:
340,124,106740,1,2,0:0:0:0:
216,312,107209,6,0,P|256:308|296:312,2,75,8|0|0,0:0|0:0|0:0,0:0:0:0:
148,220,107912,1,0,0:0:0:0:
148,220,108146,2,0,P|185:222|222:218,1,75,8|0,0:0|0:0,0:0:0:0:
164,124,108615,2,0,P|126:121|89:125,1,75,0|0,0:0|0:0,0:0:0:0:
148,220,109084,5,8,0:0:0:0:
164,124,109318,1,0,0:0:0:0:
268,108,109552,2,0,P|280:144|316:176,1,75,0|0,0:0|0:0,0:0:0:0:
396,168,110021,2,0,B|328:200|328:200|268:284,1,150,8|0,0:0|0:0,0:0:0:0:
208,344,110724,1,0,0:0:0:0:
208,344,110959,5,8,0:0:0:0:
150,131,111427,1,2,0:0:0:0:
296,120,111896,2,0,B|256:128|234:118|234:118|179:148|145:128,1,150,8|0,0:0|0:0,0:0:0:0:
176,24,112599,1,0,0:0:0:0:
150,131,112834,6,0,P|158:179|150:207,1,75,8|0,0:0|0:0,0:0:0:0:
127,311,113302,1,0,0:0:0:0:
151,203,113537,1,0,0:0:0:0:
251,255,113771,2,0,P|291:259|331:255,1,75,8|0,0:0|0:0,0:0:0:0:
411,183,114240,2,0,L|471:207,2,37.5,4|4|4,0:0|0:0|0:0,0:0:0:0:
287,135,114709,5,4,0:0:0:0:
199,105,129709,6,0,B|164:112|164:112|128:128,2,75,8|0|0,0:0|0:0|0:0,0:0:0:0:
424,88,130646,2,0,P|428:148|380:204,1,112.5,8|0,0:0|0:0,0:0:0:0:
384,216,131115,2,0,P|368:252|380:296,1,75
260,308,131584,6,0,P|232:236|156:208,1,150,8|0,0:0|0:0,0:0:0:0:
60,236,132287,1,0,0:0:0:0:
169,207,132521,2,0,P|187:150|177:95,1,112.5,10|2,0:0|0:0,0:0:0:0:
192,72,132990,2,0,P|232:64|272:40,1,75,2|0,0:0|0:0,0:0:0:0:
376,56,133459,6,0,P|416:60|456:56,1,75,8|0,0:0|0:0,0:0:0:0:
484,164,133927,2,0,P|452:192|436:224,1,75,0|0,0:0|0:0,0:0:0:0:
360,300,134396,2,0,P|352:240|308:196,1,112.5,10|2,0:0|0:0,0:0:0:0:
292,188,134865,2,0,P|324:160|336:124,1,75,2|0,0:0|0:0,0:0:0:0:
260,36,135334,5,8,0:0:0:0:
335,130,135568,1,0,0:0:0:0:
260,36,135802,2,0,P|224:56|172:64,1,75,0|0,0:0|0:0,0:0:0:0:
80,68,136271,2,0,P|92:124|76:180,1,112.5,10|2,0:0|0:0,0:0:0:0:
68,204,136740,2,0,P|60:240|70:281,1,75,2|0,0:0|0:0,0:0:0:0:
164,240,137209,6,0,B|200:220|200:220|248:212,1,75,8|0,0:0|0:0,0:0:0:0:
344,184,137677,2,0,B|352:220|352:220|340:264,1,75
233,214,138146,2,0,B|220:160|220:160|244:96,1,112.5,10|2,0:0|0:0,0:0:0:0:
256,80,138615,2,0,P|296:76|332:80,1,75,2|0,0:0|0:0,0:0:0:0:
452,108,139084,5,8,0:0:0:0:
372,188,139318,1,0,0:0:0:0:
484,220,139552,2,0,B|476:256|476:256|444:284,1,75
328,304,140021,2,0,P|272:284|216:284,1,112.5,10|2,0:0|0:0,0:0:0:0:
192,296,140490,2,0,P|200:256|192:220,1,75
164,140,140959,5,8,0:0:0:0:
240,56,141193,1,0,0:0:0:0:
236,168,141427,1,0,0:0:0:0:
168,64,141662,1,0,0:0:0:0:
236,168,141896,2,0,P|236:212|196:268,1,112.5,10|2,0:0|0:0,0:0:0:0:
184,296,142365,2,0,P|219:307|246:332,1,75,2|0,0:0|0:0,0:0:0:0:
352,276,142834,6,0,P|344:232|352:192,1,75,8|0,0:0|0:0,0:0:0:0:
388,96,143302,2,0,L|440:76,2,37.5,10|2|2,0:0|0:0|0:0,0:0:0:0:
280,132,143771,1,10,0:0:0:0:
240,36,144005,2,0,L|218:-14,2,37.5,2|2|10,0:0|0:0|0:0,0:0:0:0:
280,132,144474,1,2,0:0:0:0:
280,132,144591,1,2,0:0:0:0:
280,132,144709,6,0,P|240:204|172:228,1,150,10|2,0:0|0:0,0:0:0:0:
172,120,145412,1,0,0:0:0:0:
172,120,145646,2,0,L|296:248,1,150,10|2,0:0|0:0,0:0:0:0:
382,298,146349,1,0,0:0:0:0:
276,227,146584,6,0,P|284:271|276:303,1,75,8|0,0:0|0:0,0:0:0:0:
183,339,147052,2,0,P|174:302|181:265,1,75
202,137,147521,2,0,P|126:145|70:201,1,150,8|0,0:0|0:0,0:0:0:0:
0,256,148224,1,2,0:0:0:0:
0,256,148341,1,2,0:0:0:0:
0,256,148459,6,0,P|61:284|102:369,1,150,10|0,0:0|0:0,0:0:0:0:
204,308,149162,1,0,0:0:0:0:
272,220,149396,2,0,P|280:172|276:136,1,75,8|0,0:0|0:0,0:0:0:0:
232,44,149865,2,0,P|272:48|324:40,1,75,0|0,0:0|0:0,0:0:0:0:
389,58,150334,6,0,P|320:85|277:145,1,150,8|0,0:0|0:0,0:0:0:0:
296,256,151037,2,0,L|340:272,2,37.5,2|2|10,0:0|0:0|0:0,0:0:0:0:
192,216,151505,1,0,0:0:0:0:
192,216,151623,1,2,0:0:0:0:
192,216,151740,2,0,P|156:184|144:148,1,75,2|0,0:0|0:0,0:0:0:0:
148,60,152209,6,0,P|116:128|36:164,1,150,8|0,0:0|0:0,0:0:0:0:
20,272,152912,1,0,0:0:0:0:
132,256,153146,2,0,P|168:260|208:256,1,75,8|0,0:0|0:0,0:0:0:0:
264,160,153615,2,0,P|228:156|188:160,1,75,0|0,0:0|0:0,0:0:0:0:
206,256,154084,6,0,B|276:248|312:264|312:264|356:228,1,150,8|0,0:0|0:0,0:0:0:0:
372,128,154787,1,2,0:0:0:0:
436,220,155021,2,0,P|480:224|516:216,1,75,10|0,0:0|0:0,0:0:0:0:
372,128,155490,2,0,P|328:124|292:132,1,75,0|0,0:0|0:0,0:0:0:0:
222,213,155959,5,8,0:0:0:0:
298,129,156193,1,0,0:0:0:0:
294,241,156427,1,0,0:0:0:0:
226,137,156662,1,0,0:0:0:0:
352,188,156896,2,0,P|376:148|376:108,1,75,8|0,0:0|0:0,0:0:0:0:
352,188,157365,2,0,P|368:224|368:272,1,75,0|2,0:0|0:0,0:0:0:0:
276,320,157834,6,0,P|220:264|136:256,1,150,10|0,0:0|0:0,0:0:0:0:
48,260,158537,2,0,L|8:268,2,37.5,2|2|10,0:0|0:0|0:0,0:0:0:0:
76,152,159005,2,0,L|36:128,2,37.5,0|2|2,0:0|0:0|0:0,0:0:0:0:
180,104,159474,2,0,L|184:60,2,37.5,2|2|4,0:0|0:0|0:0,0:0:0:0:
400,116,160646,6,0,P|348:140|316:200,1,112.5,8|2,0:0|0:0,0:0:0:0:
316,216,161115,2,0,P|296:252|256:272,1,75,2|0,0:0|0:0,0:0:0:0:
173,300,161584,2,0,P|176:227|229:177,1,150,8|0,0:0|0:0,0:0:0:0:
328,156,162287,1,0,0:0:0:0:
372,52,162521,6,0,B|332:40|304:40|284:60|256:64|220:48,1,150,8|0,0:0|0:0,0:0:0:0:
112,56,163224,1,0,0:0:0:0:
164,156,163459,1,8,0:0:0:0:
164,156,163927,1,2,0:0:0:0:
164,156,164396,6,0,P|176:216|148:304,1,150,8|2,0:0|0:0,0:0:0:0:
56,360,165099,1,0,0:0:0:0:
152,300,165334,2,0,P|188:296|232:300,1,75,8|0,0:0|0:0,0:0:0:0:
292,204,165802,2,0,P|256:200|212:204,1,75,0|2,0:0|0:0,0:0:0:0:
280,112,166271,2,0,P|316:108|360:112,2,75,10|0|2,0:0|0:0|0:0,0:0:0:0:
168,120,166974,1,2,0:0:0:0:
217,203,167209,6,0,P|257:199|297:203,1,75,8|0,0:0|0:0,0:0:0:0:
243,119,167677,2,0,P|203:123|163:119,1,75
64,140,168146,1,8,0:0:0:0:
168,120,168380,1,0,0:0:0:0:
64,140,168615,2,0,P|60:196|48:228,1,75,0|0,0:0|0:0,0:0:0:0:
168,224,169084,6,0,P|172:280|184:312,2,75,8|0|0,0:0|0:0|0:0,0:0:0:0:
272,248,169787,1,0,0:0:0:0:
272,248,170021,2,0,P|316:244|352:260,1,75,8|0,0:0|0:0,0:0:0:0:
371,353,170490,2,0,P|327:357|291:341,1,75
344,255,170959,5,8,0:0:0:0:
278,79,171427,1,2,0:0:0:0:
416,179,171896,6,0,P|456:191|492:191,1,75,8|0,0:0|0:0,0:0:0:0:
416,267,172365,2,0,P|376:255|340:255,1,75,0|0,0:0|0:0,0:0:0:0:
256,315,172834,5,8,0:0:0:0:
256,192,172951,12,4,174709,0:0:0:0:
