osu file format v14

[General]
AudioFilename: audio.mp3
AudioLeadIn: 0
PreviewTime: -1
Countdown: 1
SampleSet: Normal
StackLeniency: 0.2
Mode: 0
LetterboxInBreaks: 0
WidescreenStoryboard: 0

[Editor]
DistanceSpacing: 1
BeatDivisor: 4
GridSize: 32
TimelineZoom: 2.5

[Metadata]
Title:Get Got
TitleUnicode:Get Got
Artist:Death Grips
ArtistUnicode:Death Grips
Creator:Bergy
Version:absolutely
Source:
Tags:
BeatmapID:1585643
BeatmapSetID:753139

[Difficulty]
HPDrainRate:6
CircleSize:4.2
OverallDifficulty:8.4
ApproachRate:9.3
SliderMultiplier:2.39999994277954
SliderTickRate:1

[Events]
//Background and Video events
0,0,"IMG_340815.jpg",0,0
//Break Periods
//Storyboard Layer 0 (Background)
//Storyboard Layer 1 (Fail)
//Storyboard Layer 2 (Pass)
//Storyboard Layer 3 (Foreground)
//Storyboard Sound Samples

[TimingPoints]
276,344.827586206897,4,1,0,100,1,0
11310,-83.3333333333333,4,1,0,100,0,1
22344,-100,4,1,0,100,0,0
36138,-133.333333333333,4,1,0,100,0,0
41655,-400,4,1,0,100,0,0
42000,-66.6666666666667,4,1,0,100,0,0
43034,-400,4,1,0,100,0,0
43379,-66.6666666666667,4,1,0,100,0,0
44413,-400,4,1,0,100,0,0
44758,-66.6666666666667,4,1,0,100,0,0
45793,-400,4,1,0,100,0,0
46138,-66.6666666666667,4,1,0,100,0,0
74758,-83.3333333333333,4,1,0,100,0,1
80276,-100,4,1,0,100,0,0
107862,-83.3333333333333,4,1,0,100,0,1
113379,-100,4,1,0,100,0,0

[Colours]
Combo1 : 99,74,198
Combo2 : 225,231,165
Combo3 : 201,71,74
Combo4 : 192,192,192

[HitObjects]
277,35,276,5,0,0:0:0:0:
330,240,448,1,0,0:0:0:0:
338,217,534,1,0,0:0:0:0:
346,194,620,1,0,0:0:0:0:
179,101,793,5,0,0:0:0:0:
232,306,965,1,0,0:0:0:0:
240,283,1051,1,0,0:0:0:0:
248,260,1137,1,0,0:0:0:0:
81,167,1310,5,0,0:0:0:0:
413,213,1655,5,0,0:0:0:0:
208,266,1827,1,0,0:0:0:0:
231,274,1913,1,0,0:0:0:0:
254,282,1999,1,0,0:0:0:0:
347,115,2172,5,0,0:0:0:0:
142,168,2344,1,0,0:0:0:0:
165,176,2430,1,0,0:0:0:0:
188,184,2516,1,0,0:0:0:0:
281,17,2689,5,0,0:0:0:0:
235,349,3034,5,0,0:0:0:0:
182,144,3206,1,0,0:0:0:0:
174,167,3292,1,0,0:0:0:0:
166,190,3378,1,0,0:0:0:0:
333,283,3551,5,0,0:0:0:0:
280,78,3723,1,0,0:0:0:0:
272,101,3809,1,0,0:0:0:0:
264,124,3895,1,0,0:0:0:0:
431,217,4068,5,0,0:0:0:0:
99,171,4413,5,0,0:0:0:0:
304,118,4585,1,0,0:0:0:0:
281,110,4671,1,0,0:0:0:0:
258,102,4757,1,0,0:0:0:0:
165,269,4930,5,0,0:0:0:0:
370,216,5102,1,0,0:0:0:0:
347,208,5188,1,0,0:0:0:0:
324,200,5274,1,0,0:0:0:0:
231,367,5447,5,0,0:0:0:0:
121,46,5793,5,0,0:0:0:0:
121,46,5965,1,0,0:0:0:0:
160,269,6138,1,0,0:0:0:0:
160,269,6311,1,0,0:0:0:0:
252,137,6482,5,0,0:0:0:0:
252,137,6655,1,0,0:0:0:0:
28,177,6827,1,0,0:0:0:0:
28,177,7000,1,0,0:0:0:0:
121,46,7172,5,0,0:0:0:0:
160,269,7344,1,0,0:0:0:0:
252,137,7517,1,0,0:0:0:0:
28,177,7689,1,0,0:0:0:0:
212,56,7862,5,0,0:0:0:0:
69,260,8034,1,0,0:0:0:0:
243,228,8207,1,0,0:0:0:0:
37,85,8379,1,0,0:0:0:0:
172,278,8551,5,0,0:0:0:0:
172,278,8724,1,0,0:0:0:0:
212,56,8897,1,0,0:0:0:0:
212,56,9069,1,0,0:0:0:0:
276,296,9241,5,0,0:0:0:0:
212,56,9413,1,0,0:0:0:0:
125,208,9586,1,0,0:0:0:0:
366,143,9758,1,0,0:0:0:0:
116,119,9931,5,0,0:0:0:0:
116,119,10104,1,0,0:0:0:0:
328,42,10277,1,0,0:0:0:0:
328,42,10449,1,0,0:0:0:0:
154,23,10621,5,0,0:0:0:0:
309,218,10793,1,0,0:0:0:0:
132,195,10966,1,0,0:0:0:0:
328,42,11138,1,0,0:0:0:0:
211,272,11310,6,0,B|174:323|106:314|106:314|77:264|19:267,1,215.999988258362
27,357,11655,2,0,P|77:351|109:332,1,71.9999960861207
211,272,11827,2,0,P|246:273|279:287,1,71.9999960861207
397,364,12000,1,0,0:0:0:0:
142,224,12172,5,0,0:0:0:0:
150,189,12258,1,0,0:0:0:0:
173,162,12344,1,0,0:0:0:0:
206,147,12430,1,0,0:0:0:0:
241,149,12516,1,0,0:0:0:0:
46,285,12689,6,0,B|42:240|60:202|60:202|42:138|42:138|51:50,1,215.999988258362
189,32,13034,2,0,P|226:67|239:111,1,71.9999960861207
269,233,13207,2,0,P|257:282|225:315,1,71.9999960861207
95,329,13379,1,0,0:0:0:0:
182,168,13551,5,0,0:0:0:0:
182,168,13638,1,0,0:0:0:0:
182,168,13724,2,0,L|257:159,1,71.9999960861207
396,146,13896,1,0,0:0:0:0:
83,94,14069,6,0,B|3:126|35:209|35:209|71:229|71:229|94:278,1,215.999988258362
244,298,14413,2,0,L|171:287,1,71.9999960861207
0,369,14586,2,0,L|73:358,1,71.9999960861207
208,185,14758,1,0,0:0:0:0:
384,329,14931,1,0,3:0:0:0:
349,321,15017,1,0,3:0:0:0:
314,313,15103,1,0,3:0:0:0:
278,306,15189,1,0,3:0:0:0:
244,298,15275,1,0,3:0:0:0:
479,205,15448,6,0,B|475:166|455:129|455:129|455:95|470:62|470:62|451:31|445:-12,1,215.999988258362,0|0,3:0|0:0,0:0:0:0:
342,37,15793,2,0,P|308:53|249:48,1,71.9999960861207
164,33,15965,2,0,P|128:35|96:50,1,71.9999960861207
24,177,16138,1,0,0:0:0:0:
266,233,16310,5,0,0:0:0:0:
266,233,16396,1,0,0:0:0:0:
266,233,16482,2,0,P|271:176|268:142,1,71.9999960861207
256,15,16655,1,0,0:0:0:0:
116,238,16827,6,0,B|224:314|219:205|339:304,1,215.999988258362,0|0,0:0|0:0,3:0:0:0:
443,333,17172,2,0,P|469:283|466:242,1,71.9999960861207
376,164,17344,2,0,P|350:111|353:73,1,71.9999960861207
492,10,17517,1,0,0:0:0:0:
254,146,17689,5,0,3:0:0:0:
218,148,17775,1,0,3:0:0:0:
184,136,17861,1,0,3:0:0:0:
157,112,17947,1,0,3:0:0:0:
143,79,18033,1,0,3:0:0:0:
414,93,18207,6,0,B|429:211|429:211|427:209|427:209|423:324,1,215.999988258362
298,374,18551,2,0,P|255:384|206:364,1,71.9999960861207
153,232,18724,2,0,P|196:222|245:242,1,71.9999960861207
352,280,18896,1,0,0:0:0:0:
103,373,19069,5,0,0:0:0:0:
103,373,19155,1,0,0:0:0:0:
103,373,19241,2,0,L|97:295,1,71.9999960861207
78,158,19413,1,0,0:0:0:0:
192,343,19586,6,0,P|269:369|351:261,1,215.999988258362
247,200,19931,2,0,L|255:272,1,71.9999960861207
366,181,20103,2,0,L|373:109,1,71.9999960861207
262,15,20276,1,0,0:0:0:0:
141,130,20448,5,0,0:0:0:0:
141,130,20534,1,0,0:0:0:0:
141,130,20620,2,0,P|124:180|121:217,1,71.9999960861207
128,343,20793,1,0,0:0:0:0:
247,200,20965,6,0,B|307:169|324:229|374:200|374:200|402:183|391:145|351:149|346:175,1,215.999988258362
363,282,21310,1,0,0:0:0:0:
398,276,21396,1,0,0:0:0:0:
429,258,21482,1,0,0:0:0:0:
452,231,21569,2,0,P|465:188|463:153,1,71.9999960861207
275,107,21741,5,0,0:0:0:0:
287,133,21827,1,0,0:0:0:0:
134,55,22000,2,0,P|212:71|246:217,1,215.999988258362
149,162,22344,5,0,0:0:0:0:
297,0,22517,1,0,0:0:0:0:
142,169,22689,5,0,0:0:0:0:
351,102,22862,1,0,0:0:0:0:
134,177,23034,5,0,0:0:0:0:
165,292,23207,1,0,0:0:0:0:
280,323,23379,1,0,0:0:0:0:
365,239,23551,1,0,0:0:0:0:
134,177,23724,5,0,0:0:0:0:
282,339,23897,1,0,0:0:0:0:
127,170,24069,5,0,0:0:0:0:
336,237,24242,1,0,0:0:0:0:
119,162,24414,5,0,0:0:0:0:
224,40,24586,1,0,0:0:0:0:
224,40,24671,1,0,0:0:0:0:
224,40,24758,2,0,L|305:32,1,59.9999985694885
430,81,24931,1,0,0:0:0:0:
222,232,25103,5,0,0:0:0:0:
123,62,25276,1,0,0:0:0:0:
230,240,25448,2,0,P|254:309|249:364,1,119.999997138977
84,209,25793,5,0,0:0:0:0:
253,109,25965,1,0,0:0:0:0:
253,109,26051,1,0,0:0:0:0:
253,109,26138,2,0,P|288:98|329:98,1,59.9999985694885
471,121,26310,1,0,0:0:0:0:
303,232,26482,5,0,0:0:0:0:
402,62,26655,1,0,0:0:0:0:
295,240,26827,2,0,P|271:309|276:364,1,119.999997138977
487,176,27172,5,0,0:0:0:0:
487,176,27258,2,0,B|452:163|452:163|419:169,1,59.9999985694885
170,240,27517,2,0,B|228:222|228:222|306:235,1,119.999997138977
150,341,27862,5,0,0:0:0:0:
108,153,28034,1,0,0:0:0:0:
142,349,28207,2,0,P|78:368|16:354,1,119.999997138977
67,62,28551,1,0,0:0:0:0:
42,253,28723,1,0,0:0:0:0:
77,57,28896,2,0,P|143:61|197:95,1,119.999997138977
298,285,29241,5,0,0:0:0:0:
107,310,29413,1,0,0:0:0:0:
303,275,29586,2,0,P|298:208|264:154,1,119.999997138977
111,314,29931,5,0,0:0:0:0:
346,341,30103,1,0,0:0:0:0:
109,169,30276,1,0,0:0:0:0:
234,384,30448,1,0,0:0:0:0:
338,333,30620,5,0,0:0:0:0:
338,230,30793,1,0,0:0:0:0:
249,179,30965,1,0,0:0:0:0:
161,230,31138,1,0,0:0:0:0:
346,341,31310,5,0,0:0:0:0:
321,122,31482,1,0,0:0:0:0:
160,332,31655,1,0,0:0:0:0:
432,276,31827,1,0,0:0:0:0:
373,198,32000,5,0,0:0:0:0:
270,198,32173,1,0,0:0:0:0:
219,287,32345,1,0,0:0:0:0:
270,375,32518,1,0,0:0:0:0:
321,122,32689,5,0,0:0:0:0:
125,273,32862,1,0,0:0:0:0:
366,208,33034,1,0,0:0:0:0:
126,173,33207,1,0,0:0:0:0:
103,181,33293,1,0,0:0:0:0:
80,189,33378,5,0,0:0:0:0:
80,81,33551,1,0,0:0:0:0:
183,48,33723,1,0,0:0:0:0:
246,135,33896,1,0,0:0:0:0:
41,296,34069,5,0,0:0:0:0:
20,87,34241,1,0,0:0:0:0:
20,87,34327,1,0,0:0:0:0:
20,87,34413,2,0,L|91:79,1,59.9999985694885
265,55,34586,1,0,0:0:0:0:
336,134,34759,5,0,0:0:0:0:
282,228,34931,1,0,0:0:0:0:
177,205,35104,1,0,0:0:0:0:
166,98,35276,1,0,0:0:0:0:
380,223,35448,5,0,0:0:0:0:
380,223,35534,2,0,L|393:301,1,59.9999985694885
482,34,35793,2,0,L|472:162,1,119.999997138977
258,200,36137,5,0,0:0:0:0:
295,178,36224,1,0,0:0:0:0:
295,135,36310,1,0,0:0:0:0:
258,113,36396,1,0,0:0:0:0:
220,133,36482,1,0,0:0:0:0:
218,176,36569,1,0,0:0:0:0:
258,200,36655,5,0,0:0:0:0:
295,178,36741,1,0,0:0:0:0:
295,135,36827,1,0,0:0:0:0:
258,113,36913,1,0,0:0:0:0:
220,133,36999,1,0,0:0:0:0:
218,176,37086,1,0,0:0:0:0:
258,200,37171,5,0,0:0:0:0:
283,235,37257,1,0,0:0:0:0:
278,279,37343,1,0,0:0:0:0:
245,307,37429,1,0,0:0:0:0:
200,303,37516,5,0,0:0:0:0:
162,281,37603,1,0,0:0:0:0:
125,303,37689,1,0,0:0:0:0:
124,346,37775,1,0,0:0:0:0:
161,368,37861,1,0,0:0:0:0:
199,348,37948,1,0,0:0:0:0:
200,303,38034,5,0,0:0:0:0:
162,281,38120,1,0,0:0:0:0:
125,303,38206,1,0,0:0:0:0:
124,346,38292,1,0,0:0:0:0:
161,368,38378,1,0,0:0:0:0:
199,348,38465,1,0,0:0:0:0:
200,303,38550,5,0,0:0:0:0:
217,262,38636,1,0,0:0:0:0:
258,245,38722,1,0,0:0:0:0:
299,260,38808,1,0,0:0:0:0:
321,299,38895,5,0,0:0:0:0:
343,336,38982,1,0,0:0:0:0:
385,336,39068,1,0,0:0:0:0:
408,299,39154,1,0,0:0:0:0:
387,261,39240,1,0,0:0:0:0:
344,259,39327,1,0,0:0:0:0:
321,299,39413,5,0,0:0:0:0:
343,336,39499,1,0,0:0:0:0:
385,336,39585,1,0,0:0:0:0:
408,299,39671,1,0,0:0:0:0:
387,261,39757,1,0,0:0:0:0:
344,259,39844,1,0,0:0:0:0:
321,299,39929,5,0,0:0:0:0:
285,324,40015,1,0,0:0:0:0:
242,319,40101,1,0,0:0:0:0:
213,286,40187,1,0,0:0:0:0:
218,241,40274,5,0,0:0:0:0:
240,203,40361,1,0,0:0:0:0:
218,166,40447,1,0,0:0:0:0:
175,165,40533,1,0,0:0:0:0:
153,202,40619,1,0,0:0:0:0:
173,240,40706,1,0,0:0:0:0:
218,241,40792,5,0,0:0:0:0:
240,203,40878,1,0,0:0:0:0:
218,166,40964,1,0,0:0:0:0:
175,165,41050,1,0,0:0:0:0:
153,202,41136,1,0,0:0:0:0:
173,240,41223,1,0,0:0:0:0:
218,241,41308,5,0,0:0:0:0:
259,258,41394,1,0,0:0:0:0:
276,299,41480,1,0,0:0:0:0:
261,340,41566,1,0,0:0:0:0:
224,368,41655,6,0,L|167:363,1,44.9999989271164
71,261,42000,5,0,0:0:0:0:
71,261,42086,1,0,0:0:0:0:
71,261,42172,2,0,P|30:230|6:179,1,90.0000012874604
231,205,42344,5,0,0:0:0:0:
231,205,42430,1,0,0:0:0:0:
231,205,42517,2,0,P|262:164|272:109,1,90.0000012874604
106,114,42689,5,0,0:0:0:0:
106,114,42775,1,0,0:0:0:0:
106,114,42862,2,0,P|86:66|91:11,1,90.0000012874604
288,16,43034,6,0,L|341:18,1,44.9999989271164
441,123,43379,5,0,0:0:0:0:
441,123,43465,1,0,0:0:0:0:
441,123,43551,2,0,P|481:153|505:204,1,90.0000012874604
281,179,43723,5,0,0:0:0:0:
281,179,43809,1,0,0:0:0:0:
281,179,43896,2,0,P|249:219|239:274,1,90.0000012874604
406,270,44068,5,0,0:0:0:0:
406,270,44154,1,0,0:0:0:0:
406,270,44241,2,0,P|425:317|420:373,1,90.0000012874604
258,376,44413,6,0,L|255:321,1,44.9999989271164
232,145,44758,5,0,0:0:0:0:
232,145,44844,1,0,0:0:0:0:
232,145,44930,2,0,P|202:105|151:81,1,90.0000012874604
176,305,45102,5,0,0:0:0:0:
176,305,45188,1,0,0:0:0:0:
176,305,45275,2,0,P|136:337|81:347,1,90.0000012874604
85,180,45447,5,0,0:0:0:0:
85,180,45533,1,0,0:0:0:0:
85,180,45620,2,0,P|38:161|-18:166,1,90.0000012874604
17,288,45793,6,0,L|19:342,1,44.9999989271164
196,322,46138,5,0,0:0:0:0:
196,322,46224,1,0,0:0:0:0:
196,322,46310,2,0,P|226:362|277:386,1,90.0000012874604
252,162,46482,5,0,0:0:0:0:
252,162,46568,1,0,0:0:0:0:
252,162,46655,2,0,P|292:130|347:120,1,90.0000012874604
343,287,46827,5,0,0:0:0:0:
343,287,46913,1,0,0:0:0:0:
343,287,47000,2,0,P|390:306|446:301,1,90.0000012874604
