osu file format v14

[General]
AudioFilename: audio.mp3
AudioLeadIn: 0
PreviewTime: 308
Countdown: 1
SampleSet: None
StackLeniency: 0.6
Mode: 0
LetterboxInBreaks: 0
WidescreenStoryboard: 1

[Editor]
DistanceSpacing: 1
BeatDivisor: 4
GridSize: 4
TimelineZoom: 1.7

[Metadata]
Title:Culture Shock / 5D
TitleUnicode:Culture Shock / 5D
Artist:Death Grips
ArtistUnicode:Death Grips
Creator:Ancelysia
Version:Morphine in your bloodstream
Source:
Tags:Exmilitary track 09
BeatmapID:1564788
BeatmapSetID:741746

[Difficulty]
HPDrainRate:5
CircleSize:3
OverallDifficulty:9
ApproachRate:9.5
SliderMultiplier:1.5
SliderTickRate:1

[Events]
//Background and Video events
0,0,"BG.jpg",0,0
//Break Periods
//Storyboard Layer 0 (Background)
//Storyboard Layer 1 (Fail)
//Storyboard Layer 2 (Pass)
//Storyboard Layer 3 (Foreground)
//Storyboard Sound Samples

[TimingPoints]
15477,451.127819548872,4,2,0,80,1,0
19537,-100,4,2,0,5,0,0
20045,288.461538461538,4,3,0,100,1,1
20117,-100,4,3,0,80,0,0
20621,-100,4,3,0,100,0,0
20639,-100,4,3,0,80,0,0
21179,288.461538461538,4,3,0,100,1,1
21251,-100,4,3,0,100,0,0

[Colours]
Combo1 : 17,254,176
Combo2 : 173,255,95
Combo3 : 255,88,100
Combo4 : 255,94,55

[HitObjects]
256,192,15476,12,0,19536,0:0:0:0:
168,280,20045,37,4,0:0:0:0:
352,220,20189,1,0,0:0:0:0:
160,136,20333,1,0,0:0:0:0:
344,76,20477,1,0,0:0:0:0:
368,72,20621,5,8,0:0:0:0:
136,140,20766,1,0,0:0:0:0:
380,224,20910,1,0,0:0:0:0:
152,280,21054,1,0,0:0:0:0:
256,132,21179,6,0,P|272:188|272:196,1,37.5,4|0,1:0|2:0,0:0:0:0:
80,208,21323,2,0,P|64:152|64:144,1,37.5,0|0,0:0|2:0,0:0:0:0:
268,124,21467,2,0,P|285:184|285:193,1,37.5,0|0,0:0|2:0,0:0:0:0:
68,212,21611,2,0,P|50:151|50:142,1,37.5,0|0,0:0|2:0,0:0:0:0:
172,172,21755,1,0,1:0:0:0:
120,76,22044,6,0,L|96:32,1,37.5,2|0,0:0|2:0,0:0:0:0:
216,260,22188,2,0,L|240:304,1,37.5,2|0,0:0|2:0,0:0:0:0:
268,124,22332,6,0,L|264:68,1,37.5,2|0,0:0|0:0,0:0:0:0:
80,260,22477,2,0,L|80:320,1,37.5
328,224,22621,2,0,L|344:288,1,37.5
68,160,22765,2,0,L|67:91,1,37.5
232,352,22909,1,0,1:0:0:0:
432,144,23198,6,0,L|364:148,1,37.5,2|0,0:0|2:0,0:0:0:0:
264,232,23343,2,0,L|332:228,1,37.5,2|0,0:0|2:0,0:0:0:0:
432,272,23486,6,0,P|388:312|376:316,1,37.5,6|0,0:0|2:0,0:0:0:0:
188,136,23630,2,0,P|232:96|244:92,1,37.5,0|0,0:0|2:0,0:0:0:0:
340,344,23775,2,0,P|280:346|268:341,1,37.5,0|0,0:0|2:0,0:0:0:0:
292,80,23919,2,0,P|351:77|363:82,1,37.5,0|0,0:0|2:0,0:0:0:0:
408,104,24063,1,0,1:0:0:0:
348,204,24352,5,2,0:0:0:0:
480,24,24496,1,2,0:0:0:0:
272,104,24640,5,8,0:0:0:0:
460,244,24784,1,0,0:0:0:0:
392,88,24928,1,2,0:0:0:0:
304,268,25073,1,0,0:0:0:0:
496,136,25217,5,8,0:0:0:0:
216,196,25361,1,0,0:0:0:0:
400,332,25505,1,2,0:0:0:0:
376,196,25650,1,0,0:0:0:0:
244,336,25794,6,0,L|172:328,1,37.5,8|0,0:0|2:0,0:0:0:0:
64,248,25938,2,0,L|136:256,1,37.5,0|0,0:0|2:0,0:0:0:0:
244,196,26082,2,0,L|172:188,1,37.5,0|0,0:0|2:0,0:0:0:0:
64,108,26226,2,0,L|136:116,1,37.5,0|0,0:0|2:0,0:0:0:0:
200,36,26371,1,0,1:0:0:0:
136,204,26659,5,10,0:0:0:0:
352,116,26803,1,2,0:0:0:0:
160,288,26948,6,0,P|208:292|220:288,1,37.5,10|0,0:0|2:0,0:0:0:0:
204,128,27092,2,0,P|164:124|136:132,1,37.5,0|0,0:0|2:0,0:0:0:0:
288,300,27236,2,0,P|336:304|348:300,1,37.5,0|0,3:0|2:0,3:0:0:0:
331,139,27380,2,0,P|290:135|263:143,1,37.5,0|0,3:0|2:0,3:0:0:0:
412,232,27525,1,0,1:0:0:0:
432,144,27813,6,0,L|440:96,1,37.5,2|0,0:0|2:0,0:0:0:0:
392,316,27957,2,0,L|384:364,1,37.5,2|0,0:0|2:0,0:0:0:0:
328,124,28102,6,0,L|340:68,1,37.5,4|0,0:0|2:0,0:0:0:0:
192,172,28246,2,0,L|136:160,1,37.5,0|0,0:0|2:0,0:0:0:0:
280,304,28390,2,0,L|268:360,1,37.5,0|0,0:0|2:0,0:0:0:0:
420,240,28534,2,0,L|476:252,1,37.5,0|0,0:0|2:0,0:0:0:0:
304,212,28678,1,0,1:0:0:0:
192,268,28967,5,2,0:0:0:0:
320,116,29111,1,2,0:0:0:0:
288,320,29255,5,8,0:0:0:0:
100,184,29400,1,0,0:0:0:0:
216,96,29544,1,2,0:0:0:0:
112,320,29688,1,0,0:0:0:0:
304,200,29832,5,8,0:0:0:0:
76,76,29977,1,0,0:0:0:0:
204,304,30121,1,2,0:0:0:0:
336,56,30265,1,0,0:0:0:0:
124,336,30409,6,0,P|72:332|56:320,1,37.5,8|0,0:0|0:0,0:0:0:0:
57,230,30553,2,0,P|26:187|25:167,1,37.5
95,111,30698,2,0,P|107:60|122:46,1,37.5
211,64,30842,2,0,P|258:41|277:43,1,37.5
325,75,30986,1,0,1:0:0:0:
416,32,31275,5,10,0:0:0:0:
268,140,31419,1,2,0:0:0:0:
435,15,31563,6,0,P|487:19|503:31,1,37.5,10|0,0:0|0:0,0:0:0:0:
486,121,31707,2,0,P|517:164|518:184,1,37.5
448,240,31852,2,0,P|436:291|421:305,1,37.5
332,287,31996,2,0,P|285:310|266:308,1,37.5
218,276,32140,1,0,1:0:0:0:
320,180,32428,6,0,L|344:112,1,37.5,2|0,0:0|0:0,0:0:0:0:
96,284,32573,2,0,L|72:352,1,37.5,2|0,0:0|0:0,0:0:0:0:
128,148,32717,6,0,L|168:192,1,37.5,10|0,0:0|0:0,0:0:0:0:
324,272,32861,2,0,L|284:244,1,37.5
168,72,33005,2,0,P|212:92|228:92,1,37.5
356,180,33150,2,0,P|337:175|321:166,1,37.5
300,60,33294,1,0,1:0:0:0:
212,196,33582,5,2,0:0:0:0:
300,60,33727,1,2,0:0:0:0:
184,96,33871,5,4,3:0:0:0:
328,240,34015,1,0,0:0:0:0:
420,56,34159,1,2,0:0:0:0:
244,288,34303,1,0,0:0:0:0:
256,164,34448,5,8,3:0:0:0:
432,264,34592,1,0,0:0:0:0:
340,32,34736,1,2,0:0:0:0:
340,348,34880,1,0,0:0:0:0:
440,148,35025,6,0,L|392:152,1,37.5,8|0,0:0|0:0,0:0:0:0:
336,256,35169,2,0,L|384:252,1,37.5
300,152,35313,2,0,L|252:156,1,37.5
196,260,35457,2,0,L|244:256,1,37.5
152,164,35602,1,0,1:0:0:0:
60,264,35890,5,10,0:0:0:0:
216,68,36034,1,10,0:0:0:0:
80,288,36178,6,0,P|120:316|140:320,1,37.5,10|0,0:0|3:0,0:0:0:0:
188,196,36323,2,0,P|140:183|120:186,1,37.5,0|0,0:0|3:0,0:0:0:0:
192,336,36467,2,0,P|240:349|261:345,1,37.5,0|0,0:0|3:0,0:0:0:0:
320,248,36611,2,0,P|271:234|250:238,1,37.5,0|0,0:0|3:0,0:0:0:0:
336,360,36755,1,0,1:0:0:0:
392,168,37044,6,0,L|368:120,1,37.5,10|0,0:0|0:0,0:0:0:0:
456,320,37188,2,0,L|480:368,1,37.5,10|0,0:0|0:0,0:0:0:0:
420,164,37332,6,0,L|423:110,1,37.5,10|0,0:0|0:0,0:0:0:0:
368,328,37476,2,0,L|364:381,1,37.5
444,176,37621,2,0,L|473:131,1,37.5
296,280,37765,2,0,L|266:324,1,37.5
468,200,37909,1,0,1:0:0:0:
324,180,38198,5,2,0:0:0:0:
440,312,38342,1,2,0:0:0:0:
408,120,38486,5,4,3:0:0:0:
320,348,38630,1,0,0:0:0:0:
456,224,38775,1,0,0:0:0:0:
204,184,38919,1,0,0:0:0:0:
408,316,39063,5,8,3:0:0:0:
344,40,39207,1,0,0:0:0:0:
224,308,39352,1,0,0:0:0:0:
372,220,39496,1,0,0:0:0:0:
216,88,39640,6,0,L|208:48,1,37.5,12|0,0:0|0:0,0:0:0:0:
316,148,39784,2,0,L|328:104,1,37.5
200,252,39928,2,0,L|188:208,1,37.5
328,288,40072,2,0,L|336:244,1,37.5
256,372,40217,1,0,1:0:0:0:
96,344,40505,5,10,0:0:0:0:
372,348,40650,1,10,0:0:0:0:
144,236,40794,6,0,B|124:184,1,37.5,10|0,0:0|0:0,0:0:0:0:
324,244,40938,2,0,B|344:296,1,37.5
232,156,41082,2,0,B|284:136,1,37.5
228,324,41226,2,0,B|176:336,1,37.5
232,240,41371,1,2,0:0:0:0:
144,184,41659,6,0,L|140:228,1,37.5,2|0,0:0|0:0,0:0:0:0:
312,296,41803,2,0,L|316:252,1,37.5,2|0,0:0|0:0,0:0:0:0:
104,240,41948,6,0,L|100:196,1,37.5,6|0,0:0|0:0,0:0:0:0:
352,264,42092,2,0,L|348:308,1,37.5
64,256,42236,2,0,L|60:212,1,37.5
384,268,42380,2,0,L|380:316,1,37.5
232,240,42525,1,0,1:0:0:0:
64,256,42813,5,2,0:0:0:0:
384,268,42958,1,2,0:0:0:0:
212,85,43102,5,4,0:0:0:0:
248,296,43246,1,0,0:0:0:0:
352,172,43390,1,2,0:0:0:0:
120,197,43534,1,0,0:0:0:0:
364,280,43678,5,8,0:0:0:0:
340,72,43823,1,0,0:0:0:0:
136,305,43967,1,2,0:0:0:0:
104,96,44111,1,0,0:0:0:0:
260,228,44255,6,0,P|268:176|264:164,1,37.5,8|0,0:0|0:0,0:0:0:0:
424,228,44399,2,0,P|421:246|414:263,1,37.5
372,152,44544,2,0,P|354:144|336:142,1,37.5
304,303,44688,2,0,P|321:311|339:313,1,37.5
340,232,44832,1,0,1:0:0:0:
256,204,45121,6,0,L|200:188,1,37.5,2|0,0:0|0:0,0:0:0:0:
420,256,45265,2,0,L|476:272,1,37.5,2|0,0:0|0:0,0:0:0:0:
232,284,45409,6,0,L|164:260,1,37.5,2|0,0:0|0:0,0:0:0:0:
440,176,45553,2,0,L|496:192,1,37.5
396,332,45698,2,0,L|431:342,1,37.5
276,128,45842,2,0,L|239:117,1,37.5
340,232,45986,1,0,1:0:0:0:
296,332,46275,5,0,0:0:0:0:
384,112,46419,1,0,0:0:0:0:
232,208,46563,6,0,L|220:152,1,37.5
296,332,46707,2,0,L|284:276,1,37.5
144,152,46852,2,0,L|152:220,1,37.5
372,328,46996,2,0,L|364:272,1,37.5
216,332,47140,1,0,1:0:0:0:
276,176,47428,6,0,L|260:128,1,37.5,2|0,0:0|0:0,0:0:0:0:
88,288,47573,2,0,L|104:336,1,37.5,2|0,0:0|0:0,0:0:0:0:
156,164,47717,5,4,0:0:0:0:
384,180,47861,1,0,0:0:0:0:
224,316,48005,1,2,0:0:0:0:
172,92,48150,1,0,0:0:0:0:
352,264,48294,5,8,0:0:0:0:
128,248,48438,1,0,0:0:0:0:
328,96,48582,1,2,0:0:0:0:
288,352,48726,1,0,0:0:0:0:
136,308,48871,6,0,P|157:360|166:368,1,37.5,8|0,3:0|0:0,0:0:0:0:
168,196,49015,2,0,P|141:245|140:258,1,37.5
273,145,49159,2,0,P|217:156|207:164,1,37.5
379,185,49303,2,0,P|334:150|322:147,1,37.5
429,249,49448,1,0,1:0:0:0:
468,120,49736,6,0,L|424:96,1,37.5,2|0,0:0|0:0,0:0:0:0:
464,352,49880,2,0,L|420:328,1,37.5,2|0,0:0|0:0,0:0:0:0:
319,312,50025,6,0,P|325:294|335:278,1,37.5,2|0,0:0|0:0,0:0:0:0:
251,123,50169,2,0,P|257:141|267:157,1,37.5
171,340,50313,2,0,P|177:322|187:306,1,37.5
103,151,50457,2,0,P|109:169|119:185,1,37.5
48,288,50602,1,0,1:0:0:0:
272,212,50890,5,2,0:0:0:0:
0,376,51034,1,2,0:0:0:0:
372,336,51178,6,0,P|392:272|392:268,1,37.5,6|0,0:0|0:0,0:0:0:0:
164,336,51323,2,0,P|228:356|232:356,1,37.5
156,103,51467,2,0,P|146:119|140:136,1,37.5
364,104,51612,2,0,P|347:94|330:88,1,37.5
272,212,51755,1,0,1:0:0:0:
468,200,52044,6,0,L|456:136,1,37.5,2|0,0:0|0:0,0:0:0:0:
200,304,52188,2,0,L|212:368,1,37.5,2|0,0:0|0:0,0:0:0:0:
48,268,52332,5,4,0:0:0:0:
364,264,52477,1,0,0:0:0:0:
256,108,52621,1,2,0:0:0:0:
116,340,52766,1,0,0:0:0:0:
336,164,52909,5,8,3:0:0:0:
40,168,53053,1,0,0:0:0:0:
288,336,53198,1,2,0:0:0:0:
168,56,53342,1,0,0:0:0:0:
140,336,53486,6,0,L|128:276,1,37.5,8|0,0:0|0:0,0:0:0:0:
232,200,53630,2,0,L|244:260,1,37.5
0,328,53775,2,0,L|60:316,1,37.5
360,248,53919,2,0,L|300:260,1,37.5
116,208,54063,1,0,1:0:0:0:
264,360,54352,5,2,0:0:0:0:
16,240,54496,1,2,0:0:0:0:
288,124,54640,6,0,L|288:172,1,37.5,2|0,0:0|0:0,0:0:0:0:
184,336,54784,2,0,L|184:288,1,37.5
368,172,54928,2,0,L|368:220,1,37.5
108,300,55073,2,0,L|108:252,1,37.5
448,220,55217,1,0,1:0:0:0:
372,296,55505,6,0,L|364:340,1,37.5,2|0,0:0|0:0,0:0:0:0:
472,112,55650,2,0,L|464:68,1,37.5,2|0,0:0|0:0,0:0:0:0:
340,184,55794,6,0,L|284:168,1,37.5
136,252,55938,2,0,L|152:196,1,37.5
352,264,56082,2,0,L|296:248,1,37.5
208,324,56226,2,0,L|224:268,1,37.5
300,344,56371,1,0,1:0:0:0:
384,176,56659,5,2,0:0:0:0:
64,320,56803,1,2,0:0:0:0:
376,280,56948,5,4,0:0:0:0:
38,184,57092,1,0,0:0:0:0:
288,328,57236,1,2,0:0:0:0:
168,100,57380,1,0,0:0:0:0:
144,336,57525,5,8,0:0:0:0:
412,140,57669,1,0,0:0:0:0:
156,184,57813,1,2,0:0:0:0:
436,332,57957,1,0,0:0:0:0:
