osu file format v14

[General]
AudioFilename: audio.mp3
AudioLeadIn: 0
PreviewTime: 5400
Countdown: 0
SampleSet: Normal
StackLeniency: 0.7
Mode: 0
LetterboxInBreaks: 0
WidescreenStoryboard: 1

[Editor]
DistanceSpacing: 1.4
BeatDivisor: 4
GridSize: 32
TimelineZoom: 1

[Metadata]
Title:5D
TitleUnicode:5D
Artist:Death Grips
ArtistUnicode:Death Grips
Creator:EF5369
Version:Normal
Source:
Tags:
BeatmapID:1497977
BeatmapSetID:708581

[Difficulty]
HPDrainRate:3
CircleSize:3
OverallDifficulty:2
ApproachRate:5
SliderMultiplier:1.49999990463257
SliderTickRate:1

[Events]
//Background and Video events
0,0,"8.jpg",0,0
//Break Periods
//Storyboard Layer 0 (Background)
//Storyboard Layer 1 (Fail)
//Storyboard Layer 2 (Pass)
//Storyboard Layer 3 (Foreground)
//Storyboard Sound Samples

[TimingPoints]
6122,576.923076923077,4,1,1,100,1,0

[HitObjects]
256,192,352,12,0,4968,0:0:0:0:
139,57,5545,5,0,0:0:0:0:
285,87,6121,1,0,0:0:0:0:
396,186,6698,2,0,P|423:228|431:337,1,149.999990463257
301,254,7852,5,0,0:0:0:0:
348,111,8429,1,0,0:0:0:0:
452,218,9006,1,0,0:0:0:0:
322,294,9583,5,0,0:0:0:0:
248,277,9872,1,0,0:0:0:0:
190,228,10160,2,0,P|150:164|150:57,1,149.999990463257
292,78,11314,5,0,0:0:0:0:
390,190,11891,1,0,0:0:0:0:
277,289,12468,1,0,0:0:0:0:
175,178,13045,1,0,0:0:0:0:
79,293,13622,5,0,0:0:0:0:
218,347,14198,1,0,0:0:0:0:
290,328,14487,1,0,0:0:0:0:
349,282,14775,2,0,P|390:234|409:130,1,149.999990463257
392,2,15929,5,0,0:0:0:0:
453,138,16506,1,0,0:0:0:0:
311,186,17083,2,0,P|251:197|159:176,1,149.999990463257
117,120,17948,1,0,0:0:0:0:
169,66,18237,2,0,P|229:101|289:190,1,149.999990463257
315,228,19102,1,0,0:0:0:0:
390,227,19391,5,0,0:0:0:0:
339,85,19968,1,0,0:0:0:0:
210,162,20545,1,0,0:0:0:0:
154,301,21122,1,0,0:0:0:0:
95,254,21410,1,0,0:0:0:0:
72,182,21698,2,0,P|76:123|130:49,1,149.999990463257
194,14,22564,5,0,0:0:0:0:
266,32,22852,2,0,P|321:69|378:147,1,149.999990463257
399,204,23718,1,0,0:0:0:0:
353,263,24006,5,0,0:0:0:0:
278,258,24294,1,0,0:0:0:0:
250,187,24583,1,0,0:0:0:0:
294,126,24871,1,0,0:0:0:0:
368,136,25160,2,0,P|401:191|347:265,1,149.999990463257
292,289,26025,5,0,0:0:0:0:
235,239,26314,1,0,0:0:0:0:
212,167,26602,1,0,0:0:0:0:
206,92,26891,1,0,0:0:0:0:
68,152,27468,6,0,P|83:206|150:280,1,149.999990463257
206,317,28333,1,0,0:0:0:0:
270,277,28622,5,0,0:0:0:0:
270,202,28910,1,0,0:0:0:0:
339,173,29198,1,0,0:0:0:0:
385,114,29487,1,0,0:0:0:0:
351,47,29775,6,0,P|310:30|201:48,1,149.999990463257
91,140,30929,1,0,0:0:0:0:
198,245,31506,1,0,0:0:0:0:
321,159,32083,1,0,0:0:0:0:
421,47,32660,1,0,0:0:0:0:
274,13,33237,6,0,P|193:19|127:48,1,149.999990463257
74,95,34102,1,0,0:0:0:0:
100,165,34391,1,0,0:0:0:0:
223,250,34968,1,0,0:0:0:0:
359,187,35545,2,0,P|402:132|418:45,1,149.999990463257
468,196,36698,2,0,P|453:264|368:315,1,149.999990463257
243,329,37852,5,0,0:0:0:0:
278,230,38140,1,0,0:0:0:0:
185,180,38429,1,0,0:0:0:0:
231,85,38718,1,0,0:0:0:0:
321,31,39006,6,0,L|477:40,1,149.999990463257
500,141,39872,2,0,L|374:234,1,149.999990463257
275,249,40737,1,0,0:0:0:0:
249,147,41025,1,0,0:0:0:0:
174,73,41314,2,0,P|112:205|89:229,1,149.999990463257
154,303,42179,1,0,0:0:0:0:
256,192,42468,12,0,43622,0:0:0:0:
