osu file format v14

[General]
AudioFilename: audio.mp3
AudioLeadIn: 0
PreviewTime: 5400
Countdown: 0
SampleSet: Normal
StackLeniency: 0.7
Mode: 0
LetterboxInBreaks: 0
WidescreenStoryboard: 1

[Editor]
DistanceSpacing: 1
BeatDivisor: 4
GridSize: 32
TimelineZoom: 1

[Metadata]
Title:5D
TitleUnicode:5D
Artist:Death Grips
ArtistUnicode:Death Grips
Creator:EF5369
Version:Hard
Source:
Tags:
BeatmapID:1497975
BeatmapSetID:708581

[Difficulty]
HPDrainRate:4
CircleSize:3.1
OverallDifficulty:4
ApproachRate:6
SliderMultiplier:2.49999990463257
SliderTickRate:1

[Events]
//Background and Video events
0,0,"8.jpg",0,0
//Break Periods
//Storyboard Layer 0 (Background)
//Storyboard Layer 1 (Fail)
//Storyboard Layer 2 (Pass)
//Storyboard Layer 3 (Foreground)
//Storyboard Sound Samples

[TimingPoints]
6122,576.923076923077,4,1,1,100,1,0

[HitObjects]
256,192,352,12,0,4102,0:0:0:0:
128,167,5545,5,4,0:0:0:0:
200,61,5833,1,8,0:0:0:0:
261,159,6121,5,4,0:0:0:0:
332,52,6410,1,8,0:0:0:0:
411,147,6698,6,0,P|435:236|414:309,1,124.999995231628,8|4,0:0|0:0,0:0:0:0:
422,290,7275,1,2,0:0:0:0:
338,311,7564,5,8,0:0:0:0:
301,307,7708,1,4,0:0:0:0:
268,294,7852,1,8,0:0:0:0:
193,211,8141,1,4,0:0:0:0:
306,186,8429,1,2,0:0:0:0:
348,89,8718,5,8,0:0:0:0:
371,58,8862,1,4,0:0:0:0:
401,32,9006,1,8,0:0:0:0:
508,39,9295,1,4,0:0:0:0:
497,156,9583,1,2,0:0:0:0:
427,252,9872,5,4,0:0:0:0:
386,283,10016,1,8,0:0:0:0:
338,298,10160,2,0,P|262:300|176:257,1,124.999995231628,4|8,0:0|0:0,0:0:0:0:
170,195,10737,6,0,P|214:133|300:90,1,124.999995231628,8|4,0:0|0:0,0:0:0:0:
334,59,11314,1,8,0:0:0:0:
361,46,11458,1,4,0:0:0:0:
390,36,11602,1,8,0:0:0:0:
422,31,11746,1,4,0:0:0:0:
453,30,11890,1,2,0:0:0:0:
456,240,12179,5,8,0:0:0:0:
430,258,12323,1,4,0:0:0:0:
403,271,12468,1,8,0:0:0:0:
372,278,12611,1,4,0:0:0:0:
341,284,12756,1,8,0:0:0:0:
307,281,12900,1,4,0:0:0:0:
279,274,13044,1,2,0:0:0:0:
213,334,13333,5,8,0:0:0:0:
187,314,13477,1,4,0:0:0:0:
167,293,13621,1,8,0:0:0:0:
150,265,13766,1,4,0:0:0:0:
135,238,13909,1,8,0:0:0:0:
127,204,14054,1,4,0:0:0:0:
125,176,14198,1,2,0:0:0:0:
203,65,14487,5,4,0:0:0:0:
233,61,14631,1,8,0:0:0:0:
268,61,14775,2,0,P|332:67|402:108,1,124.999995231629,4|8,0:0|0:0,0:0:0:0:
288,156,15352,6,0,P|224:150|154:109,1,124.999995231629,8|4,0:0|0:0,0:0:0:0:
78,251,15929,1,8,0:0:0:0:
111,276,16073,1,4,0:0:0:0:
149,285,16218,1,8,0:0:0:0:
256,259,16506,1,2,0:0:0:0:
337,156,16795,5,8,0:0:0:0:
360,135,16939,1,4,0:0:0:0:
388,123,17083,1,8,0:0:0:0:
483,77,17372,1,8,0:0:0:0:
468,187,17660,1,2,0:0:0:0:
379,265,17948,5,8,0:0:0:0:
356,286,18092,1,4,0:0:0:0:
328,298,18236,1,8,0:0:0:0:
204,305,18525,1,8,0:0:0:0:
268,198,18814,1,2,0:0:0:0:
147,197,19102,5,8,0:0:0:0:
117,189,19246,1,4,0:0:0:0:
92,172,19390,1,8,0:0:0:0:
91,71,19679,6,0,P|154:35|225:29,1,124.999995231629,4|8,0:0|0:0,0:0:0:0:
301,29,20256,6,0,P|382:44|450:109,1,124.999995231629,8|4,0:0|0:0,0:0:0:0:
447,91,20689,1,8,0:0:0:0:
469,123,20833,1,8,0:0:0:0:
472,159,20977,1,4,0:0:0:0:
468,199,21122,1,2,0:0:0:0:
324,281,21410,6,0,L|251:310,1,62.4999976158143,8|4,0:0|0:0,0:0:0:0:
306,207,21698,6,0,L|231:198,1,62.4999976158143,8|4,0:0|0:0,0:0:0:0:
316,136,21987,6,0,L|261:98,1,62.4999976158143,8|4,0:0|0:0,0:0:0:0:
347,69,22275,1,2,0:0:0:0:
342,281,22564,6,0,L|225:318,1,62.4999976158143,8|4,0:0|0:0,0:0:0:0:
185,244,22852,2,0,L|212:146,1,62.4999976158143,4|8,0:0|0:0,0:0:0:0:
258,87,23141,2,0,L|363:44,1,62.4999976158143,8|4,0:0|0:0,0:0:0:0:
410,28,23429,1,2,0:0:0:0:
367,154,23718,6,0,L|369:257,1,62.4999976158143,8|4,0:0|0:0,0:0:0:0:
368,233,24006,1,8,0:0:0:0:
364,250,24150,1,4,0:0:0:0:
358,264,24295,1,8,0:0:0:0:
350,276,24439,1,4,0:0:0:0:
265,271,24583,5,4,0:0:0:0:
268,251,24727,1,8,0:0:0:0:
273,230,24872,1,4,0:0:0:0:
279,213,25016,1,8,0:0:0:0:
281,197,25160,5,8,0:0:0:0:
252,172,25304,1,4,0:0:0:0:
216,156,25448,1,8,0:0:0:0:
179,142,25593,1,4,0:0:0:0:
142,132,25737,1,8,0:0:0:0:
185,209,26025,6,0,L|261:258,1,62.4999976158143,8|4,0:0|0:0,0:0:0:0:
103,203,26314,2,8,L|27:229,1,62.4999976158143,8|4,0:0|0:0,0:0:0:0:
150,138,26602,2,0,L|155:61,1,62.4999976158143,8|4,0:0|0:0,0:0:0:0:
185,209,26891,1,2,0:0:0:0:
258,152,27179,5,8,0:0:0:0:
258,152,27323,1,4,0:0:0:0:
294,163,27468,5,8,0:0:0:0:
294,163,27612,1,4,0:0:0:0:
280,122,27756,5,8,0:0:0:0:
280,122,27900,1,4,0:0:0:0:
280,122,28045,1,2,0:0:0:0:
363,69,28333,2,0,B|407:40|446:58|479:77,1,62.4999976158143,8|4,0:0|0:0,0:0:0:0:
388,188,28622,6,0,B|432:159|471:177|504:196,1,62.4999976158143,8|4,0:0|0:0,0:0:0:0:
388,188,28910,2,0,B|417:232|399:271|380:304,1,62.4999976158143,8|4,0:0|0:0,0:0:0:0:
388,188,29198,2,0,B|344:217|305:199|272:180,1,62.4999976158143,8|4,0:0|0:0,0:0:0:0:
388,188,29487,2,0,B|358:144|376:105|395:72,1,62.4999976158143,8|4,0:0|0:0,0:0:0:0:
311,61,29775,6,0,B|267:32|228:50|195:69,1,62.4999976158143,8|4,0:0|0:0,0:0:0:0:
219,51,30064,1,8,0:0:0:0:
190,56,30208,1,4,0:0:0:0:
154,69,30352,1,2,0:0:0:0:
152,148,30641,5,8,0:0:0:0:
186,161,30785,1,4,0:0:0:0:
219,180,30929,1,8,0:0:0:0:
201,215,31074,1,4,0:0:0:0:
171,240,31218,1,8,0:0:0:0:
135,256,31362,1,4,0:0:0:0:
100,272,31506,1,2,0:0:0:0:
89,111,31795,6,0,P|172:72|197:70,1,62.4999976158143,4|8,0:0|0:0,0:0:0:0:
179,70,32083,1,4,0:0:0:0:
216,63,32227,1,8,0:0:0:0:
247,87,32372,1,4,0:0:0:0:
279,66,32516,1,4,0:0:0:0:
316,86,32660,1,2,0:0:0:0:
404,182,32948,5,8,0:0:0:0:
424,212,33093,1,4,0:0:0:0:
436,244,33237,2,0,P|407:316|397:323,1,62.4999976158143,8|4,0:0|0:0,0:0:0:0:
436,244,33525,2,0,P|364:214|357:205,1,62.4999976158143,8|4,0:0|0:0,0:0:0:0:
436,244,33814,2,0,P|465:172|475:165,1,62.4999976158143,0|4,0:0|0:0,0:0:0:0:
436,244,34102,2,0,P|508:273|515:282,1,62.4999976158143,8|4,0:0|0:0,0:0:0:0:
343,299,34391,5,8,0:0:0:0:
310,319,34535,1,4,0:0:0:0:
273,329,34679,1,8,0:0:0:0:
234,334,34823,1,4,0:0:0:0:
196,330,34968,1,2,0:0:0:0:
178,292,35256,6,0,P|149:364|139:371,1,62.4999976158143,8|4,0:0|0:0,0:0:0:0:
87,285,35544,2,0,P|15:255|8:246,1,62.4999976158143,8|4,0:0|0:0,0:0:0:0:
137,216,35833,2,0,P|166:144|176:137,1,62.4999976158143,8|4,0:0|0:0,0:0:0:0:
229,221,36122,1,2,0:0:0:0:
310,131,36410,6,0,P|254:77|251:65,1,62.4999976158143,8|4,0:0|0:0,0:0:0:0:
351,48,36698,2,0,P|404:-7|416:-10,1,62.4999976158143,8|4,0:0|0:0,0:0:0:0:
396,120,36987,2,0,P|451:173|454:185,1,62.4999976158143,8|4,0:0|0:0,0:0:0:0:
356,204,37276,1,2,0:0:0:0:
182,192,37564,5,8,0:0:0:0:
147,174,37708,1,4,0:0:0:0:
122,141,37852,1,8,0:0:0:0:
221,101,38141,5,8,0:0:0:0:
236,66,38285,1,4,0:0:0:0:
262,39,38429,1,8,0:0:0:0:
274,172,38718,6,0,P|321:175|356:198,1,62.4999976158143,8|4,0:0|0:0,0:0:0:0:
366,192,39006,1,8,0:0:0:0:
397,208,39150,1,4,0:0:0:0:
430,231,39294,1,8,0:0:0:0:
455,265,39438,1,4,0:0:0:0:
476,300,39583,1,2,0:0:0:0:
170,330,39872,6,0,P|114:276|111:264,1,62.4999976158143,8|4,0:0|0:0,0:0:0:0:
81,213,40160,2,0,P|134:157|146:154,1,62.4999976158143,4|8,0:0|0:0,0:0:0:0:
186,108,40449,2,0,P|241:161|244:173,1,62.4999976158143,8|4,0:0|0:0,0:0:0:0:
288,220,40738,1,2,0:0:0:0:
385,248,41025,6,0,P|444:198|448:186,1,62.4999976158143,8|4,0:0|0:0,0:0:0:0:
481,138,41313,2,0,P|431:78|419:74,1,62.4999976158143,4|8,0:0|0:0,0:0:0:0:
384,26,41602,2,0,P|324:75|320:87,1,62.4999976158143,8|4,0:0|0:0,0:0:0:0:
274,131,41891,1,2,0:0:0:0:
152,250,42179,5,8,0:0:0:0:
116,266,42323,1,4,0:0:0:0:
82,272,42468,2,0,P|16:275|-4:268,1,62.4999976158143,8|4,0:0|0:0,0:0:0:0:
60,182,42756,2,0,P|1:150|-11:134,1,62.4999976158143,8|4,0:0|0:0,0:0:0:0:
89,94,43045,2,0,P|50:40|45:19,1,62.4999976158143,8|4,0:0|0:0,0:0:0:0:
174,46,43333,2,0,P|229:10|250:6,1,62.4999976158143,8|2,0:0|0:0,0:0:0:0:
