osu file format v14

[General]
AudioFilename: audio.mp3
AudioLeadIn: 0
PreviewTime: 52240
Countdown: 0
SampleSet: Soft
StackLeniency: 0.7
Mode: 0
LetterboxInBreaks: 0
EpilepsyWarning: 1
WidescreenStoryboard: 1

[Editor]
DistanceSpacing: 1
BeatDivisor: 4
GridSize: 4
TimelineZoom: 1

[Metadata]
Title:SAKURA LETTER
TitleUnicode:SAKURA LETTER
Artist:DearDream
ArtistUnicode:DearDream
Creator:Regraz
Version:Intermediate
Source:ドリフェス!
Tags:Dream Festival mug bandai criware D4 Production 松井洋平 渡邉沙志 天宮 奏 石原 壮馬 及川 慎 溝口 琢矢 佐々木 純哉 富田 健太郎 沢村 千弦 正木 郁 片桐 いつき 太田 将熙 Sun Rainbow
BeatmapID:1190962
BeatmapSetID:563221

[Difficulty]
HPDrainRate:4
CircleSize:3.2
OverallDifficulty:4.5
ApproachRate:5.5
SliderMultiplier:1.7
SliderTickRate:1

[Events]
//Background and Video events
0,0,"6006-10.jpg",0,0
//Break Periods
2,8861,10063
//Storyboard Layer 0 (Background)
//Storyboard Layer 1 (Fail)
//Storyboard Layer 2 (Pass)
//Storyboard Layer 3 (Foreground)
//Storyboard Sound Samples

[TimingPoints]
1083,631.578947368421,4,2,0,30,1,0
8661,-100,4,2,2,30,0,0
11188,-100,4,2,1,40,0,0
12451,-100,4,2,0,40,0,0
12608,-100,4,2,1,40,0,0
14977,-100,4,2,0,40,0,0
15134,-100,4,2,1,40,0,0
17504,-100,4,2,0,40,0,0
17661,-100,4,2,1,40,0,0
20030,-100,4,2,0,40,0,0
20187,-100,4,2,1,40,0,0
22556,-100,4,2,0,40,0,0
22713,-100,4,2,1,40,0,0
25082,-100,4,2,0,40,0,0
25239,-100,4,2,1,40,0,0
27609,-100,4,2,0,40,0,0
27766,-100,4,2,1,40,0,0
30135,-100,4,2,0,40,0,0
30292,-100,4,2,1,40,0,0
37714,-100,4,2,0,40,0,0
37872,-100,4,2,1,40,0,0
52872,631.578947368421,4,2,1,55,1,1
72450,-100,4,2,1,55,0,0
73082,-100,4,2,1,55,0,1
93293,-100,4,2,1,40,0,0

[Colours]
Combo1 : 84,90,17
Combo2 : 163,155,161
Combo3 : 62,114,178
Combo4 : 163,173,127
Combo5 : 149,53,10

[HitObjects]
224,60,1083,6,0,P|161:44|126:53,2,85,2|0|0,0:0|0:0|0:0,0:0:0:0:
304,211,2346,2,0,P|367:195|402:204,2,85,2|0|0,0:0|0:0|0:0,0:0:0:0:
135,236,3609,6,0,L|139:330,2,85,2|0|2,0:0|0:0|0:0,0:0:0:0:
130,151,4556,1,0,0:0:0:0:
188,89,4872,2,0,P|262:95|297:77,1,85,2|0,0:0|0:0,0:0:0:0:
338,40,5504,2,0,L|439:51,1,85,2|0,0:0|0:0,0:0:0:0:
449,129,6135,6,0,P|418:174|297:155,1,170,2|0,0:0|0:0,0:0:0:0:
270,92,7083,1,2,0:0:0:0:
152,214,7714,2,0,L|47:218,2,85,2|0|0,0:0|0:0|0:0,0:0:0:0:
218,267,8661,5,4,0:0:0:0:
326,249,11188,6,0,L|315:339,2,85,2|0|0,0:0|0:0|0:0,0:0:0:0:
345,166,12135,1,0,0:0:0:0:
423,134,12451,2,0,P|366:84|268:130,1,170,2|0,0:0|0:0,0:0:0:0:
212,156,13398,1,0,0:0:0:0:
130,131,13714,6,0,L|33:122,1,85,2|0,0:0|0:0,0:0:0:0:
30,163,14188,1,0,0:0:0:0:
30,163,14346,2,0,P|21:224|39:264,1,85
101,288,14977,2,0,L|274:273,1,170,2|0,0:0|0:0,0:0:0:0:
341,321,15925,1,2,0:0:0:0:
402,263,16240,6,0,B|365:227|365:227|376:104,1,170,2|0,0:0|0:0,0:0:0:0:
384,24,17188,1,0,0:0:0:0:
304,54,17504,2,0,P|252:26|137:59,1,170,2|0,0:0|0:0,0:0:0:0:
98,118,18451,1,2,0:0:0:0:
157,178,18767,6,0,P|175:233|83:328,1,170,2|0,0:0|0:0,0:0:0:0:
34,299,19714,1,0,0:0:0:0:
90,235,20030,1,2,0:0:0:0:
117,320,20346,2,0,L|213:307,1,85,2|2,0:0|0:0,0:0:0:0:
282,332,20977,1,0,0:0:0:0:
359,297,21293,6,0,P|377:235|358:191,2,85,2|0|0,0:0|0:0|0:0,0:0:0:0:
292,244,22240,1,0,0:0:0:0:
310,161,22556,2,0,L|115:182,1,170,2|0,0:0|0:0,0:0:0:0:
73,126,23504,1,0,0:0:0:0:
133,66,23819,6,0,P|183:57|217:71,1,85,2|0,0:0|0:0,0:0:0:0:
249,92,24293,1,0,0:0:0:0:
249,92,24451,2,0,L|354:80,1,85
406,38,25082,2,0,P|370:106|435:177,1,170,2|2,0:0|0:0,0:0:0:0:
475,238,26030,1,0,0:0:0:0:
420,303,26346,6,0,L|278:296,2,127.5,2|0|0,0:0|0:0|0:0,0:0:0:0:
475,238,27609,2,0,P|412:194|307:204,1,170,2|0,0:0|0:0,0:0:0:0:
238,212,28556,1,2,0:0:0:0:
178,272,28872,6,0,L|201:91,1,170,2|0,0:0|0:0,0:0:0:0:
135,46,29819,1,0,0:0:0:0:
71,102,30135,2,0,L|27:92,2,42.5,2|0|2,0:0|0:0|0:0,0:0:0:0:
96,183,30767,1,8,0:0:0:0:
241,95,31398,6,0,L|344:99,1,85,6|0,0:0|0:0,0:0:0:0:
402,136,32030,2,0,P|407:186|374:235,1,85,0|2,0:0|0:0,0:0:0:0:
356,238,32504,2,0,L|245:235,1,85
228,237,32977,1,0,0:0:0:0:
150,272,33293,2,0,P|143:230|156:190,1,85,8|2,0:0|0:0,0:0:0:0:
156,105,33925,6,0,L|90:109,2,42.5,2|0|0,0:0|0:0|0:0,0:0:0:0:
234,72,34556,2,0,P|291:80|337:63,1,85
337,35,35030,2,0,L|445:48,1,85
462,34,35504,2,0,L|454:94,1,42.5,2|2,0:0|0:0,0:0:0:0:
450,118,35819,1,8,0:0:0:0:
478,198,36135,1,2,0:0:0:0:
393,188,36451,6,0,P|329:175|286:192,1,85,2|0,0:0|0:0,0:0:0:0:
233,214,37083,2,0,L|139:209,1,85
74,252,37714,2,0,P|113:197|52:104,1,170,2|8,0:0|0:0,0:0:0:0:
9,54,38661,1,2,0:0:0:0:
9,54,38977,6,0,L|209:69,1,170,2|0,0:0|0:0,0:0:0:0:
252,23,39925,1,0,0:0:0:0:
321,70,40240,2,0,L|418:60,2,85,0|2|8,0:0|0:0|0:0,0:0:0:0:
251,119,41188,1,2,0:0:0:0:
186,174,41504,6,0,P|175:237|188:269,1,85,2|0,0:0|0:0,0:0:0:0:
163,338,42135,2,0,L|75:326,1,85,0|2,0:0|0:0,0:0:0:0:
36,322,42609,1,0,0:0:0:0:
36,322,42767,2,0,P|63:264|39:190,1,127.5,2|2,0:0|0:0,0:0:0:0:
17,175,43398,2,0,L|34:77,1,85,8|2,0:0|0:0,0:0:0:0:
105,49,44030,6,0,B|175:44|175:44|277:74,1,170,2|0,0:0|0:0,0:0:0:0:
355,72,44977,2,0,L|466:59,1,85
480,136,45609,1,2,0:0:0:0:
414,190,45925,2,0,P|356:178|308:201,1,85,8|2,0:0|0:0,0:0:0:0:
275,247,46556,6,0,P|174:264|136:211,1,170,2|0,0:0|0:0,0:0:0:0:
83,153,47504,1,0,0:0:0:0:
83,153,47819,2,0,L|83:327,1,170,0|8,0:0|0:0,0:0:0:0:
158,362,48767,1,2,0:0:0:0:
231,318,49083,6,0,L|333:326,1,85,2|0,0:0|0:0,0:0:0:0:
357,331,49556,2,0,P|339:277|350:241,1,85
368,215,50030,1,0,0:0:0:0:
451,198,50346,2,0,P|475:120|434:32,2,170,2|8|2,0:0|0:0|0:0,0:0:0:0:
147,62,52872,5,4,0:0:0:0:
97,130,53187,1,0,0:0:0:0:
181,140,53503,2,0,P|238:134|279:146,1,85,8|2,0:0|0:0,0:0:0:0:
303,157,53977,2,0,L|294:259,1,85,2|2,0:0|0:0,0:0:0:0:
290,283,54450,1,2,0:0:0:0:
373,266,54766,1,8,0:0:0:0:
452,297,55082,1,2,0:0:0:0:
440,212,55398,6,0,P|455:162|439:113,1,85,2|0,0:0|0:0,0:0:0:0:
366,109,56029,2,0,L|259:124,1,85,8|0,0:0|0:0,0:0:0:0:
198,102,56661,2,0,P|142:87|101:95,1,85,2|2,0:0|0:0,0:0:0:0:
51,146,57293,1,8,0:0:0:0:
98,216,57608,1,0,0:0:0:0:
61,293,57924,6,0,L|14:290,2,42.5,2|0|0,0:0|0:0|0:0,0:0:0:0:
128,344,58556,2,0,P|187:327|220:333,1,85,8|0,0:0|0:0,0:0:0:0:
292,349,59187,2,0,L|400:345,1,85,2|0,0:0|0:0,0:0:0:0:
436,284,59819,2,0,P|445:233|430:191,1,85,8|0,0:0|0:0,0:0:0:0:
381,136,60450,6,0,L|186:146,1,170,2|8,0:0|0:0,0:0:0:0:
153,205,61398,1,0,0:0:0:0:
94,143,61714,2,0,L|82:84,2,42.5,2|8|2,0:0|0:0|0:0,0:0:0:0:
71,225,62345,1,8,0:0:0:0:
153,205,62661,1,0,0:0:0:0:
204,137,62977,6,0,L|214:39,1,85,6|0,0:0|0:0,0:0:0:0:
296,38,63608,2,0,P|341:51|384:36,1,85,8|0,0:0|0:0,0:0:0:0:
416,25,64082,2,0,L|411:122,1,85,2|2,0:0|0:0,0:0:0:0:
409,152,64556,1,2,0:0:0:0:
440,230,64872,2,0,P|377:232|346:213,1,85,8|0,0:0|0:0,0:0:0:0:
279,192,65503,6,0,L|171:200,1,85,2|0,0:0|0:0,0:0:0:0:
135,259,66135,2,0,L|27:267,1,85,8|0,0:0|0:0,0:0:0:0:
45,180,66766,2,0,P|36:122|48:76,1,85,2|2,0:0|0:0,0:0:0:0:
108,44,67398,1,8,0:0:0:0:
179,90,67714,1,0,0:0:0:0:
243,35,68029,6,0,L|426:43,1,170,2|8,0:0|0:0,0:0:0:0:
473,100,68977,1,2,0:0:0:0:
415,163,69293,2,0,P|420:204|407:245,1,85,2|2,0:0|0:0,0:0:0:0:
336,198,69924,2,0,P|279:186|240:193,1,85,8|0,0:0|0:0,0:0:0:0:
187,244,70556,6,0,P|121:214|114:121,1,170,2|8,0:0|0:0,0:0:0:0:
182,77,71503,1,0,0:0:0:0:
265,59,71819,2,0,L|263:3,2,42.5,2|8|2,0:0|0:0|0:0,0:0:0:0:
338,100,72450,2,0,L|333:158,1,42.5,8|0,0:0|0:0,0:0:0:0:
375,153,72766,2,0,L|370:211,1,42.5,2|0,0:0|0:0,0:0:0:0:
381,236,73082,6,0,P|320:224|269:242,1,85,4|0,0:0|0:0,0:0:0:0:
268,308,73714,2,0,L|163:304,1,85,8|0,0:0|0:0,0:0:0:0:
145,325,74187,2,0,P|170:262|157:208,1,85,2|2,0:0|0:0,0:0:0:0:
163,203,74661,1,2,0:0:0:0:
111,130,74977,2,0,L|18:134,1,85,8|0,0:0|0:0,0:0:0:0:
29,48,75608,6,0,L|113:44,1,85,2|0,0:0|0:0,0:0:0:0:
194,70,76240,2,0,P|247:72|293:53,1,85,8|0,0:0|0:0,0:0:0:0:
357,34,76872,2,0,L|460:46,1,85,2|2,0:0|0:0,0:0:0:0:
488,114,77503,1,8,0:0:0:0:
417,164,77819,1,2,0:0:0:0:
359,226,78135,6,0,L|364:273,2,42.5,2|0|0,0:0|0:0|0:0,0:0:0:0:
335,141,78766,2,0,P|277:121|226:132,1,85,8|0,0:0|0:0,0:0:0:0:
190,178,79398,2,0,L|74:167,1,85,2|0,0:0|0:0,0:0:0:0:
43,229,80029,2,0,P|29:292|46:327,1,85,8|2,0:0|0:0,0:0:0:0:
110,349,80661,6,0,B|241:331|241:331|285:355,1,170,2|8,0:0|0:0,0:0:0:0:
357,332,81608,1,0,0:0:0:0:
441,344,81924,2,0,P|473:252|436:184,1,170,2|8,0:0|0:0,0:0:0:0:
376,137,82872,1,2,0:0:0:0:
305,184,83187,6,0,L|197:181,1,85,6|0,0:0|0:0,0:0:0:0:
164,246,83819,2,0,P|257:312|325:290,1,170,8|0,0:0|0:0,0:0:0:0:
389,309,84766,1,2,0:0:0:0:
412,227,85082,2,0,L|421:135,1,85,8|0,0:0|0:0,0:0:0:0:
342,103,85714,6,0,P|288:95|248:106,1,85,2|0,0:0|0:0,0:0:0:0:
196,159,86345,2,0,L|97:158,1,85,8|0,0:0|0:0,0:0:0:0:
44,104,86977,2,0,P|77:188|34:257,1,170,2|8,0:0|0:0,0:0:0:0:
21,335,87924,1,0,0:0:0:0:
103,313,88240,6,0,L|300:314,1,170,2|8,0:0|0:0,0:0:0:0:
333,254,89187,1,0,0:0:0:0:
364,333,89503,2,0,P|419:338|480:239,1,170,2|8,0:0|0:0,0:0:0:0:
424,191,90450,1,0,0:0:0:0:
366,128,90766,6,0,L|194:149,1,170,2|8,0:0|0:0,0:0:0:0:
121,110,91714,1,0,0:0:0:0:
49,160,92029,2,0,P|41:216|54:253,1,85,2|8,0:0|0:0,0:0:0:0:
124,281,92661,2,0,L|212:266,1,85,2|0,0:0|0:0,0:0:0:0:
264,203,93293,5,6,0:0:0:0:
256,192,93450,12,2,95819,0:0:0:0:
225,133,97082,6,0,P|149:143|72:78,1,170,2|8,0:0|0:0,0:0:0:0:
35,254,98345,6,0,P|101:253|176:324,1,170,2|8,0:0|0:0,0:0:0:0:
259,305,99293,1,2,0:0:0:0:
342,320,99608,2,0,L|454:305,1,85,2|0,0:0|0:0,0:0:0:0:
406,225,100240,2,0,L|321:236,1,85,8|0,0:0|0:0,0:0:0:0:
240,210,100872,6,0,P|234:156|244:120,1,85,2|0,0:0|0:0,0:0:0:0:
293,59,101503,2,0,P|218:45|187:61,1,85,8|0,0:0|0:0,0:0:0:0:
147,103,102135,1,2,0:0:0:0:
73,236,102766,2,0,L|168:231,1,85,8|2,0:0|0:0,0:0:0:0:
219,172,103398,6,0,B|272:172|272:172|350:152|350:152|417:157,1,170,6|8,0:0|0:0,0:0:0:0:
437,222,104345,1,2,0:0:0:0:
388,292,104661,2,0,B|351:289|351:289|273:309|273:309|220:309,1,170,2|8,0:0|0:0,0:0:0:0:
135,306,105608,1,0,0:0:0:0:
63,351,105924,6,0,P|51:292|71:251,1,85,2|0,0:0|0:0,0:0:0:0:
127,220,106556,2,0,L|130:131,1,85,8|0,0:0|0:0,0:0:0:0:
60,85,107187,2,0,P|138:124|225:79,1,170,2|8,0:0|0:0,0:0:0:0:
380,106,108450,6,0,L|201:95,1,170,2|8,0:0|0:0,0:0:0:0:
125,105,109398,1,0,0:0:0:0:
175,173,109714,2,0,P|169:232|184:269,1,85,2|0,0:0|0:0,0:0:0:0:
260,270,110345,2,0,P|266:329|251:366,1,85,8|0,0:0|0:0,0:0:0:0:
173,360,110977,5,0,0:0:0:0:
256,192,111135,12,4,113503,0:0:0:0:
