osu file format v14

[General]
AudioFilename: audio.mp3
AudioLeadIn: 0
PreviewTime: 52240
Countdown: 0
SampleSet: Soft
StackLeniency: 0.7
Mode: 0
LetterboxInBreaks: 0
EpilepsyWarning: 1
WidescreenStoryboard: 1

[Editor]
DistanceSpacing: 0.8
BeatDivisor: 4
GridSize: 4
TimelineZoom: 1

[Metadata]
Title:SAKURA LETTER
TitleUnicode:SAKURA LETTER
Artist:DearDream
ArtistUnicode:DearDream
Creator:Regraz
Version:Basic
Source:ドリフェス!
Tags:Dream Festival mug bandai criware D4 Production 松井洋平 渡邉沙志 天宮 奏 石原 壮馬 及川 慎 溝口 琢矢 佐々木 純哉 富田 健太郎 沢村 千弦 正木 郁 片桐 いつき 太田 将熙 Sun Rainbow
BeatmapID:1214546
BeatmapSetID:563221

[Difficulty]
HPDrainRate:2.5
CircleSize:3
OverallDifficulty:2.5
ApproachRate:3.5
SliderMultiplier:1.2
SliderTickRate:1

[Events]
//Background and Video events
0,0,"6006-10.jpg",0,0
//Break Periods
2,8861,9808
//Storyboard Layer 0 (Background)
//Storyboard Layer 1 (Fail)
//Storyboard Layer 2 (Pass)
//Storyboard Layer 3 (Foreground)
//Storyboard Sound Samples

[TimingPoints]
1083,631.578947368421,4,2,0,30,1,0
8661,-100,4,2,2,30,0,0
11188,-100,4,2,1,40,0,0
12451,-100,4,2,0,40,0,0
12608,-100,4,2,1,40,0,0
14977,-100,4,2,0,40,0,0
15134,-100,4,2,1,40,0,0
17504,-100,4,2,0,40,0,0
17661,-100,4,2,1,40,0,0
20030,-100,4,2,0,40,0,0
20187,-100,4,2,1,40,0,0
22556,-100,4,2,0,40,0,0
22713,-100,4,2,1,40,0,0
25082,-100,4,2,0,40,0,0
25239,-100,4,2,1,40,0,0
27609,-100,4,2,0,40,0,0
27766,-100,4,2,1,40,0,0
30135,-100,4,2,0,40,0,0
30292,-100,4,2,1,40,0,0
52872,631.578947368421,4,2,1,55,1,1
72450,-100,4,2,1,55,0,0
73082,-100,4,2,1,55,0,1
93293,-100,4,2,1,40,0,0

[Colours]
Combo1 : 84,90,17
Combo2 : 163,155,161
Combo3 : 62,114,178
Combo4 : 163,173,127
Combo5 : 149,53,10

[HitObjects]
127,50,1083,6,0,L|25:43,2,60,2|0|0,0:0|0:0|0:0,0:0:0:0:
117,145,2346,2,0,L|15:138,2,60,2|0|0,0:0|0:0|0:0,0:0:0:0:
177,219,3609,6,0,L|283:208,1,60,2|0,0:0|0:0,0:0:0:0:
278,235,4240,2,0,L|363:225,1,60,2|0,0:0|0:0,0:0:0:0:
377,201,4872,2,0,L|457:217,2,60,2|0|2,0:0|0:0|0:0,0:0:0:0:
351,108,6135,6,0,L|206:121,1,120,2|0,0:0|0:0,0:0:0:0:
203,79,7083,2,0,P|117:80|91:113,1,120,2|0,0:0|0:0,0:0:0:0:
61,135,8030,2,0,P|68:173|52:213,1,60,2|0,0:0|0:0,0:0:0:0:
45,238,8661,1,4,0:0:0:0:
426,284,11188,6,0,L|434:197,2,60,2|0|0,0:0|0:0|0:0,0:0:0:0:
422,331,12135,1,0,0:0:0:0:
422,331,12451,2,0,P|342:304|288:342,1,120,2|0,0:0|0:0,0:0:0:0:
270,338,13398,1,0,0:0:0:0:
270,338,13714,6,0,L|117:329,1,120,2|0,0:0|0:0,0:0:0:0:
102,338,14661,1,0,0:0:0:0:
102,338,14977,2,0,P|72:273|94:216,1,120,2|0,0:0|0:0,0:0:0:0:
113,190,15925,1,2,0:0:0:0:
113,190,16240,6,0,L|270:202,1,120,2|0,0:0|0:0,0:0:0:0:
244,103,17504,2,0,L|124:93,1,120,2|0,0:0|0:0,0:0:0:0:
84,66,18451,1,2,0:0:0:0:
84,66,18767,6,0,P|99:126|53:178,1,120,2|0,0:0|0:0,0:0:0:0:
26,195,19714,1,0,0:0:0:0:
26,195,20030,2,0,L|40:329,1,120,2|2,0:0|0:0,0:0:0:0:
134,312,21293,6,0,L|123:221,2,60,2|0|0,0:0|0:0|0:0,0:0:0:0:
181,321,22240,1,0,0:0:0:0:
181,321,22556,2,0,P|238:307|289:335,1,120,2|0,0:0|0:0,0:0:0:0:
330,361,23503,1,0,0:0:0:0:
330,361,23819,6,0,L|339:208,1,120,2|0,0:0|0:0,0:0:0:0:
307,203,24766,1,0,0:0:0:0:
307,203,25082,2,0,P|227:239|181:217,1,120,2|2,0:0|0:0,0:0:0:0:
165,198,26030,1,0,0:0:0:0:
165,198,26345,6,0,L|45:188,1,120,2|0,0:0|0:0,0:0:0:0:
81,99,27609,2,0,L|200:108,1,120,2|0,0:0|0:0,0:0:0:0:
248,113,28556,1,2,0:0:0:0:
248,113,28872,6,0,P|263:173|217:225,1,120,2|0,0:0|0:0,0:0:0:0:
184,211,29819,1,0,0:0:0:0:
184,211,30135,2,0,L|198:345,1,120,2|8,0:0|0:0,0:0:0:0:
284,290,31398,6,0,L|374:300,1,60,6|0,0:0|0:0,0:0:0:0:
391,297,32030,2,0,P|410:237|394:188,2,90
372,341,33293,1,8,0:0:0:0:
284,290,33925,6,0,L|212:297,1,60,2|0,0:0|0:0,0:0:0:0:
183,321,34556,2,0,L|76:318,2,90,0|0|2,0:0|0:0|0:0,0:0:0:0:
224,295,35819,2,0,P|228:252|219:215,1,60,8|2,0:0|0:0,0:0:0:0:
210,189,36451,5,2,0:0:0:0:
181,97,37083,1,0,0:0:0:0:
181,97,37398,2,0,L|315:107,1,120,0|2,0:0|0:0,0:0:0:0:
348,112,38346,1,8,0:0:0:0:
354,207,38977,6,0,P|281:204|234:242,2,120,2|0|0,0:0|0:0|0:0,0:0:0:0:
396,228,40556,2,0,L|408:150,1,60,2|8,0:0|0:0,0:0:0:0:
415,121,41188,6,0,B|368:105|368:105|334:119|276:99,1,120,2|0,0:0|0:0,0:0:0:0:
253,88,42135,1,0,0:0:0:0:
172,35,42767,2,0,P|106:15|43:32,1,120,2|8,0:0|0:0,0:0:0:0:
29,66,43714,1,2,0:0:0:0:
29,66,44030,6,0,L|29:197,1,120,2|0,0:0|0:0,0:0:0:0:
71,207,44977,1,0,0:0:0:0:
86,303,45609,2,0,P|80:349|90:376,1,60,0|8,0:0|0:0,0:0:0:0:
131,357,46240,6,0,P|192:333|255:349,1,120
291,348,47188,2,0,L|374:333,1,60
397,345,47819,2,0,L|392:206,1,120,0|8,0:0|0:0,0:0:0:0:
365,185,48767,1,2,0:0:0:0:
365,185,49083,6,0,P|312:202|248:177,2,120,2|0|2,0:0|0:0|0:0,0:0:0:0:
417,104,50977,1,8,0:0:0:0:
491,161,51609,1,0,0:0:0:0:
324,65,52872,6,0,L|246:64,1,60,4|0,0:0|0:0,0:0:0:0:
216,60,53503,2,0,P|201:133|214:170,2,90,8|2|0,0:0|0:0|0:0,0:0:0:0:
249,25,54766,1,8,0:0:0:0:
296,108,55398,6,0,P|360:105|420:142,2,120,2|8|2,0:0|0:0|0:0,0:0:0:0:
267,146,56977,1,2,0:0:0:0:
267,146,57293,2,0,L|182:138,1,60,8|0,0:0|0:0,0:0:0:0:
180,180,57924,6,0,P|194:253|174:301,1,120,2|8,0:0|0:0,0:0:0:0:
100,238,59187,2,0,P|83:181|98:123,1,120,2|8,0:0|0:0,0:0:0:0:
141,103,60135,1,0,0:0:0:0:
141,103,60450,6,0,L|12:94,2,120,2|8|2,0:0|0:0|0:0,0:0:0:0:
230,69,62345,1,8,0:0:0:0:
320,100,62977,6,0,L|408:100,1,60,6|0,0:0|0:0,0:0:0:0:
417,130,63608,2,0,P|425:184|406:232,2,90,8|2|2,0:0|0:0|0:0,0:0:0:0:
454,99,64872,1,8,0:0:0:0:
389,29,65503,6,0,P|328:53|272:33,1,120,2|8,0:0|0:0,0:0:0:0:
234,44,66450,1,0,0:0:0:0:
234,44,66766,2,0,L|243:180,1,120,2|8,0:0|0:0,0:0:0:0:
259,208,67714,1,0,0:0:0:0:
259,208,68029,6,0,P|188:195|135:219,1,120,2|8,0:0|0:0,0:0:0:0:
139,259,68977,2,2,L|71:255,1,60,0|2,0:0|0:0,0:0:0:0:
36,169,69924,2,0,P|24:116|33:89,1,60,8|0,0:0|0:0,0:0:0:0:
55,74,70556,6,0,L|178:79,1,120,2|8,0:0|0:0,0:0:0:0:
264,112,71819,2,0,L|270:51,2,60,0|2|8,0:0|0:0|0:0,0:0:0:0:
248,206,73082,6,0,L|169:189,1,60,4|0,0:0|0:0,0:0:0:0:
144,212,73714,2,0,P|135:286|157:318,2,90,8|2|2,0:0|0:0|0:0,0:0:0:0:
156,165,74977,1,8,0:0:0:0:
63,138,75608,6,0,P|40:87|63:26,1,120,2|8,0:0|0:0,0:0:0:0:
108,26,76556,1,0,0:0:0:0:
108,26,76872,2,0,L|243:33,1,120,2|8,0:0|0:0,0:0:0:0:
269,55,77819,1,2,0:0:0:0:
269,55,78135,6,0,P|325:64|386:35,1,120,2|8,0:0|0:0,0:0:0:0:
469,77,79398,1,2,0:0:0:0:
476,124,79714,2,0,L|480:183,2,60,2|8|0,0:0|0:0|0:0,0:0:0:0:
430,109,80661,6,0,P|348:99|299:120,1,120,2|8,0:0|0:0,0:0:0:0:
281,146,81608,1,0,0:0:0:0:
281,146,81924,2,0,L|148:132,1,120,2|8,0:0|0:0,0:0:0:0:
100,207,83187,6,0,P|92:261|103:291,1,60,6|0,0:0|0:0,0:0:0:0:
83,312,83819,2,0,L|231:305,1,120,8|2,0:0|0:0,0:0:0:0:
293,274,85082,2,0,L|370:281,1,60,8|0,0:0|0:0,0:0:0:0:
393,305,85714,6,0,P|408:237|393:183,1,120,2|8,0:0|0:0,0:0:0:0:
331,118,86977,2,0,P|404:95|462:118,1,120,2|8,0:0|0:0,0:0:0:0:
463,150,87924,1,0,0:0:0:0:
463,150,88240,6,0,L|480:25,2,120,2|8|2,0:0|0:0|0:0,0:0:0:0:
392,215,90135,2,0,P|389:264|405:295,1,60,8|0,0:0|0:0,0:0:0:0:
427,306,90766,6,0,L|280:294,1,120,2|8,0:0|0:0,0:0:0:0:
215,325,92029,2,0,L|146:334,1,60,2|0,0:0|0:0,0:0:0:0:
121,298,92661,2,0,L|52:307,1,60,8|0,0:0|0:0,0:0:0:0:
256,192,93293,12,2,95819,0:0:0:0:
403,354,98345,6,0,P|437:315|427:235,1,120,2|8,0:0|0:0,0:0:0:0:
406,211,99293,1,2,0:0:0:0:
406,211,99608,2,0,L|415:126,1,60,2|0,0:0|0:0,0:0:0:0:
420,103,100240,1,8,0:0:0:0:
351,35,100872,6,0,L|221:15,1,120,2|8,0:0|0:0,0:0:0:0:
154,73,102135,2,0,P|126:142|153:207,1,120,2|8,0:0|0:0,0:0:0:0:
181,200,103082,1,2,0:0:0:0:
181,200,103398,6,0,P|242:181|304:212,1,120,4|8,0:0|0:0,0:0:0:0:
332,225,104345,2,0,L|327:301,1,60,2|0,0:0|0:0,0:0:0:0:
244,333,105293,2,0,L|156:321,1,60,8|2,0:0|0:0,0:0:0:0:
170,278,105924,6,0,L|87:288,1,60,2|0,0:0|0:0,0:0:0:0:
62,293,106556,2,0,P|89:213|71:162,1,120,8|2,0:0|0:0,0:0:0:0:
155,120,107819,1,8,0:0:0:0:
226,183,108450,6,0,P|221:257|252:312,1,120,2|8,0:0|0:0,0:0:0:0:
287,302,109398,1,0,0:0:0:0:
287,302,109714,2,0,L|368:293,1,60,2|0,0:0|0:0,0:0:0:0:
390,314,110345,2,0,P|416:246|392:187,1,120,8|2,0:0|0:0,0:0:0:0:
256,192,111135,12,4,113503,0:0:0:0:
