osu file format v14

[General]
AudioFilename: audio.mp3
AudioLeadIn: 0
PreviewTime: 135583
Countdown: 0
SampleSet: Soft
StackLeniency: 0.7
Mode: 0
LetterboxInBreaks: 0
WidescreenStoryboard: 1

[Editor]
Bookmarks: 27510,53957,98168,137641,181851,194483,200799,203956,222904,229220,238693,241851,275700,287261,301851
DistanceSpacing: 1.4
BeatDivisor: 8
GridSize: 8
TimelineZoom: 3.799998

[Metadata]
Title:Never Be Alone
TitleUnicode:不許你注定一人
Artist:Dear Jane
ArtistUnicode:Dear Jane
Creator:Wither
Version:Destiny
Source:
Tags:infinity & eternity hong kong cantonese pop rock cantorock cantopop chinese bat but heoi hui nei lei zyu ju ding jat yat jan yan bu xu ni zhu yi ren
BeatmapID:2505964
BeatmapSetID:1138978

[Difficulty]
HPDrainRate:5
CircleSize:4
OverallDifficulty:8.4
ApproachRate:9.2
SliderMultiplier:2.6
SliderTickRate:1

[Events]
//Background and Video events
0,0,"anime_bg_on_a_non-anime_song_pog.jpg",0,0
//Break Periods
//Storyboard Layer 0 (Background)
//Storyboard Layer 1 (Fail)
//Storyboard Layer 2 (Pass)
//Storyboard Layer 3 (Foreground)
//Storyboard Layer 4 (Overlay)
//Storyboard Sound Samples

[TimingPoints]
1877,789.473684210526,4,2,1,22,1,0
1877,-133.333333333333,4,2,1,22,0,0
12534,810.810810810811,4,2,1,22,1,0
13344,786.369593709043,4,2,1,22,1,0
15890,-133.333333333333,4,2,1,5,0,0
16092,789.473684210526,4,2,1,22,1,0
25565,-200,4,2,2,22,0,0
28723,-200,4,2,1,36,0,0
41355,-133.333333333333,4,2,1,22,0,0
42934,-200,4,2,1,34,0,0
44118,-133.333333333333,4,2,1,34,0,0
44414,-133.333333333333,4,2,1,5,0,0
44513,-133.333333333333,4,2,1,34,0,0
47572,-133.333333333333,4,2,1,5,0,0
47670,-133.333333333333,4,2,1,34,0,0
52309,-212.765957446809,4,2,1,34,0,0
53888,-212.765957446809,4,2,1,5,0,0
53986,-100,4,2,1,52,0,0
66519,-100,4,2,1,10,0,0
66618,-100,4,2,1,52,0,0
88624,-100,4,2,1,15,0,0
88723,-100,4,2,1,52,0,0
98197,-303.030303030303,4,2,1,32,0,0
108851,-2000,4,2,1,32,0,0
110828,-1000,4,2,1,32,0,0
112407,789.473684210526,4,2,1,41,1,0
125038,-100,4,2,1,51,0,0
128097,-100,4,2,1,20,0,0
128196,-100,4,2,1,51,0,0
137670,-90.9090909090909,4,2,1,69,0,1
150203,-90.9090909090909,4,2,1,30,0,1
150301,-90.9090909090909,4,2,1,69,0,1
158492,-90.9090909090909,4,2,1,30,0,1
158591,-90.9090909090909,4,2,1,69,0,1
159676,-90.9090909090909,4,2,1,30,0,1
159775,-90.9090909090909,4,2,1,69,0,1
160860,-90.9090909090909,4,2,1,30,0,1
160959,-90.9090909090909,4,2,1,69,0,1
167176,-90.9090909090909,4,2,1,30,0,1
167275,-90.9090909090909,4,2,1,69,0,1
167670,-83.3333333333333,4,2,1,69,0,1
169249,-71.4285714285714,4,2,1,69,0,1
172308,-71.4285714285714,4,2,1,30,0,1
172406,-71.4285714285714,4,2,1,69,0,1
175564,-90.9090909090909,4,2,1,69,0,1
181880,-100,4,2,1,60,0,0
188196,-90.9090909090909,4,2,1,60,0,0
188492,-90.9090909090909,4,2,1,20,0,0
188591,-90.9090909090909,4,2,1,60,0,0
190170,-76.9230769230769,4,2,1,60,0,0
194117,-133.333333333333,4,2,1,60,0,0
194511,-76.9230769230769,4,2,1,60,0,0
199643,-76.9230769230769,4,2,1,57,0,0
200038,-76.9230769230769,4,2,1,53,0,0
200828,-90.9090909090909,4,2,1,60,0,0
201222,-90.9090909090909,4,2,1,64,0,0
201617,-76.9230769230769,4,2,1,68,0,0
202012,-76.9230769230769,4,2,1,71,0,0
202406,-76.9230769230769,4,2,1,74,0,0
202801,-76.9230769230769,4,2,1,77,0,0
203196,-76.9230769230769,4,2,1,80,0,0
203591,-76.9230769230769,4,2,1,83,0,0
203985,-83.3333333333333,4,2,1,65,0,0
208229,-83.3333333333333,4,2,1,20,0,0
208328,-83.3333333333333,4,2,1,65,0,0
209018,-83.3333333333333,4,2,1,20,0,0
209117,-83.3333333333333,4,2,1,65,0,0
215828,-76.9230769230769,4,2,1,65,0,0
216617,-76.9230769230769,4,2,1,65,0,0
220071,-76.9230769230769,4,2,1,25,0,0
220170,-76.9230769230769,4,2,1,65,0,0
222933,-71.4285714285714,4,2,1,69,0,1
223328,-71.4285714285714,4,2,1,69,0,0
223722,-62.5,4,2,1,75,0,1
224117,-71.4285714285714,4,2,1,75,0,0
224512,-55.5555555555556,4,2,1,82,0,1
224906,-71.4285714285714,4,2,1,82,0,0
225301,-62.5,4,2,1,90,0,1
225696,-62.5,4,2,1,90,0,0
226091,-50,4,2,1,90,0,1
229249,-200,4,2,2,50,0,0
229314,-200,4,2,1,23,0,0
237143,-142.857142857143,4,2,1,33,0,0
237538,-111.111111111111,4,2,1,42,0,0
237933,-90.9090909090909,4,2,1,57,0,0
238328,-76.9230769230769,4,2,1,65,0,0
238722,-62.5,4,2,1,73,0,0
239906,-62.5,4,2,1,73,0,0
240696,-100,4,2,1,73,0,0
241091,-76.9230769230769,4,2,1,73,0,0
241485,-100,4,2,1,73,0,0
241880,-62.5,4,2,1,86,0,1
244249,-55.5555555555556,4,2,1,86,0,1
245038,-62.5,4,2,1,86,0,1
248196,-55.5555555555556,4,2,1,93,0,1
251354,-50,4,2,1,93,0,1
252538,-45.4545454545455,4,2,1,93,0,1
253130,-133.333333333333,4,2,1,93,0,1
254512,-55.5555555555556,4,2,1,86,0,1
255301,-62.5,4,2,1,86,0,1
257966,-62.5,4,2,1,35,0,1
258064,-62.5,4,2,1,86,0,1
260433,-100,4,2,1,86,0,1
260828,-55.5555555555556,4,2,1,86,0,1
261124,-55.5555555555556,4,2,1,35,0,1
261222,-55.5555555555556,4,2,1,86,0,1
263591,-66.6666666666667,4,2,1,100,0,1
263985,-66.6666666666667,4,2,1,86,0,1
267143,-76.9230769230769,4,2,1,74,0,1
270301,-66.6666666666667,4,2,1,81,0,1
273064,-76.9230769230769,4,3,3,90,0,1
273262,-76.9230769230769,4,3,3,90,0,0
273459,-66.6666666666667,4,2,1,81,0,1
276617,-76.9230769230769,4,2,1,83,0,1
279775,-76.9230769230769,4,2,1,71,0,1
282933,-76.9230769230769,4,2,1,63,0,1
284512,-90.9090909090909,4,2,1,63,0,1
285104,-100,4,2,1,63,0,0
285301,-100,4,2,1,83,0,1
285367,-100,4,2,1,83,0,0
285564,-100,4,2,1,83,0,1
285630,-100,4,2,1,83,0,0
285828,-100,4,2,1,83,0,1
285893,-100,4,2,1,83,0,0
286091,-66.6666666666667,4,2,1,93,0,1
289249,-80,4,2,1,75,0,1
292406,-100,4,2,1,66,0,1
294775,-100,4,2,1,71,0,1
294972,-100,4,2,1,74,0,1
295170,-100,4,2,1,79,0,1
295367,-222.71714922049,4,2,1,82,0,0
295466,-223.214285714286,4,2,2,52,0,0
301880,-73.6377025036819,4,2,2,5,0,0

[Colours]
Combo1 : 210,98,253
Combo2 : 255,137,19
Combo3 : 255,145,255
Combo4 : 222,222,69

[HitObjects]
347,77,1877,6,0,P|362:141|328:188,1,97.50000371933,6|0,0:0|0:0,0:0:0:0:
333,277,2666,2,0,P|309:228|327:176,1,97.50000371933,2|0,0:0|0:0,0:0:0:0:
396,149,3258,1,2,0:0:0:0:
396,149,3455,2,0,L|277:138,1,97.50000371933,0|0,0:0|0:0,0:0:0:0:
167,36,4245,2,0,P|172:54|161:87,1,48.750001859665,2|0,0:0|0:0,0:0:0:0:
120,139,4640,2,0,P|114:157|125:190,1,48.750001859665,2|0,0:0|0:0,0:0:0:0:
111,197,4936,1,0,0:0:0:0:
100,211,5034,6,0,P|84:147|117:99,1,97.50000371933,6|0,0:0|0:0,0:0:0:0:
114,10,5824,2,0,P|136:58|118:110,1,97.50000371933,2|0,0:0|0:0,0:0:0:0:
49,138,6415,1,2,0:0:0:0:
49,138,6613,2,0,L|167:147,1,97.50000371933,0|0,0:0|0:0,0:0:0:0:
289,51,7403,2,0,P|283:69|294:102,1,48.750001859665,2|0,0:0|0:0,0:0:0:0:
338,159,7798,2,0,P|343:177|332:210,1,48.750001859665,2|0,0:0|0:0,0:0:0:0:
274,281,8192,6,0,L|157:271,1,97.50000371933,6|0,0:0|0:0,0:0:0:0:
60,298,8982,2,0,L|176:288,1,97.50000371933,2|0,0:0|0:0,0:0:0:0:
234,238,9574,1,2,0:0:0:0:
234,238,9771,2,0,P|253:177|233:140,1,97.50000371933,0|0,0:0|0:0,0:0:0:0:
98,73,10561,6,0,L|155:64,1,48.750001859665,2|0,0:0|0:0,0:0:0:0:
218,15,10955,2,0,L|275:24,1,48.750001859665,2|0,0:0|0:0,0:0:0:0:
274,30,11251,1,0,0:0:0:0:
280,39,11350,5,6,0:0:0:0:
375,22,11745,1,2,0:0:0:0:
471,6,12140,2,0,P|492:56|460:108,1,97.50000371933,2|0,0:0|0:0,0:0:0:0:
373,210,12939,5,2,0:0:0:0:
240,173,13344,1,2,0:0:0:0:
229,185,14130,1,2,0:0:0:0:
256,192,14523,12,0,15997,0:0:0:0:
470,124,16092,5,2,0:0:0:0:
452,137,16881,1,2,0:0:0:0:
374,132,17670,1,2,0:0:0:0:
324,56,18460,1,2,0:0:0:0:
210,184,19249,5,2,0:0:0:0:
223,154,20038,1,2,0:0:0:0:
178,74,20827,1,2,0:0:0:0:
60,92,21617,1,2,0:0:0:0:
28,164,22013,1,0,0:0:0:0:
57,238,22407,5,2,0:0:0:0:
131,270,23197,1,2,0:0:0:0:
231,219,23986,1,2,0:0:0:0:
139,295,24776,1,2,0:0:0:0:
212,349,25170,1,0,0:0:0:0:
303,345,25565,6,0,B|316:306|313:274|313:274|308:286|290:303,2,97.5,2|0|2,0:0|0:0|0:0,0:0:0:0:
474,355,27144,5,2,0:0:0:0:
479,334,27539,1,2,0:0:0:0:
427,219,27835,5,0,0:0:0:0:
427,219,27934,2,0,L|435:253,1,32.5,0|0,0:0|0:0,0:0:0:0:
498,129,28328,2,0,L|490:163,1,32.5,0|0,0:0|0:0,0:0:0:0:
322,34,28723,6,0,P|363:24|388:33,1,65,2|0,0:0|0:0,0:0:0:0:
512,94,29513,2,0,P|471:84|446:93,1,65,2|0,0:0|0:0,0:0:0:0:
380,181,30302,2,0,L|367:113,1,65,2|0,0:0|0:0,0:0:0:0:
288,47,31091,2,0,L|275:115,1,65,2|2,0:0|0:0,0:0:0:0:
145,168,31881,6,0,P|115:177|74:164,1,65,2|0,0:0|0:0,0:0:0:0:
0,86,32670,2,0,P|30:77|71:90,1,65,2|0,0:0|0:0,0:0:0:0:
135,181,33460,2,0,L|150:109,1,65,2|0,0:0|0:0,0:0:0:0:
224,40,34249,2,0,L|239:112,1,65,2|2,0:0|0:0,0:0:0:0:
235,245,35039,6,0,B|204:232|178:252|178:252|145:274|108:253,1,130,2|2,0:0|0:0,0:0:0:0:
12,203,36223,1,2,0:0:0:0:
12,203,36618,2,0,L|20:279,1,65,2|0,0:0|0:0,0:0:0:0:
83,319,37210,2,0,P|113:305|147:311,1,65,0|0,0:0|0:0,0:0:0:0:
251,384,37999,1,0,0:0:0:0:
321,346,38197,6,0,L|328:274,1,65,2|0,0:0|0:0,0:0:0:0:
394,237,38789,2,0,P|426:232|457:250,1,65,0|0,0:0|0:0,0:0:0:0:
468,340,39578,1,0,0:0:0:0:
468,340,39776,6,0,L|457:261,1,65,2|0,0:0|0:0,0:0:0:0:
375,207,40565,1,2,0:0:0:0:
375,207,40960,1,0,0:0:0:0:
301,283,41157,1,2,0:0:0:0:
296,289,41256,1,2,0:0:0:0:
291,295,41355,6,0,P|243:313|197:296,1,97.50000371933,6|0,0:0|0:0,0:0:0:0:
161,383,42144,2,0,P|121:350|113:302,1,97.50000371933,2|0,0:0|0:0,0:0:0:0:
24,309,42934,2,0,P|32:258|70:227,1,97.50000371933,2|0,0:0|0:0,0:0:0:0:
142,280,43723,1,0,0:0:0:0:
280,230,44118,6,0,L|266:143,1,73.1250027894975,2|0,0:0|0:0,0:0:0:0:
253,130,44513,2,0,P|300:135|341:110,1,97.50000371933,6|0,0:0|0:0,0:0:0:0:
401,180,45302,2,0,P|429:141|428:94,1,97.50000371933,2|0,0:0|0:0,0:0:0:0:
512,73,46092,2,0,P|493:28|451:6,1,97.50000371933,2|0,0:0|0:0,0:0:0:0:
391,76,46881,1,0,0:0:0:0:
240,10,47276,6,0,L|147:25,1,73.1250027894975,2|0,0:0|0:0,0:0:0:0:
163,6,47670,2,0,P|183:50|156:102,1,97.50000371933,6|0,0:0|0:0,0:0:0:0:
0,153,48460,2,0,P|28:113|86:111,1,97.50000371933,2|0,0:0|0:0,0:0:0:0:
153,228,49249,2,0,L|168:123,1,97.50000371933,2|0,0:0|0:0,0:0:0:0:
246,67,50039,1,2,0:0:0:0:
457,127,50434,6,0,P|421:141|394:134,1,48.750001859665,2|0,0:0|0:0,0:0:0:0:
400,139,50730,1,2,0:0:0:0:
390,133,50828,2,0,L|407:234,1,97.50000371933,6|2,0:0|0:0,0:0:0:0:
429,384,51618,1,0,0:0:0:0:
283,263,51963,1,2,0:0:0:0:
118,362,52358,6,0,P|64:345|152:288,1,236.762496387291,2|0,0:0|0:0,0:0:0:0:
164,299,53986,6,0,P|223:322|294:276,1,130,6|2,3:2|0:0,0:0:0:0:
312,217,54578,1,0,0:0:0:0:
214,152,54776,2,0,L|221:218,1,65,8|0,0:0|0:0,0:0:0:0:
350,368,55170,5,2,3:2:0:0:
350,368,55368,2,0,L|359:300,1,65,0|2,3:2|0:0,0:0:0:0:
413,223,55763,1,0,3:2:0:0:
413,223,55961,2,0,L|404:155,1,65,2|0,3:2|0:0,0:0:0:0:
512,105,56355,2,0,P|456:131|395:107,1,130,10|2,0:0|0:0,0:0:0:0:
306,32,56947,2,0,L|303:78,1,32.5,0|0,3:2|3:2,0:0:0:0:
280,175,57144,6,0,L|291:40,1,130,2|0,3:2|0:0,0:0:0:0:
202,22,57736,1,2,0:0:0:0:
177,169,57934,2,0,L|164:86,1,65,8|0,0:0|0:0,0:0:0:0:
59,248,58328,5,2,3:2:0:0:
59,248,58526,2,0,B|98:224|122:234|122:234|153:262|193:248,1,130,0|0,3:2|3:2,0:0:0:0:
254,202,59118,2,0,P|266:168|248:120,1,65,2|0,3:2|0:0,0:0:0:0:
159,82,59513,2,0,P|213:110|294:65,1,130,10|2,0:0|0:0,0:0:0:0:
449,146,60105,2,0,P|431:133|405:126,1,32.5,0|0,3:2|3:0,0:0:0:0:
315,174,60302,6,0,P|370:145|449:176,1,130,2|0,3:2|0:0,0:0:0:0:
478,240,60894,1,2,0:0:0:0:
392,291,61091,2,0,P|381:260|392:213,1,65,8|0,0:0|0:0,0:0:0:0:
267,360,61486,5,2,3:2:0:0:
267,360,61684,2,0,P|212:383|145:340,1,130,0|0,3:2|3:2,0:0:0:0:
111,231,62276,2,0,P|106:271|61:304,1,65,2|0,3:2|2:2,0:0:0:0:
0,351,62670,2,0,P|24:296|102:324,1,130,10|2,0:0|0:0,0:0:0:0:
250,247,63263,2,0,P|234:251|218:252,1,32.5,0|0,3:2|3:2,0:0:0:0:
123,179,63460,6,0,P|167:224|231:227,1,130,2|0,3:2|0:0,0:0:0:0:
294,155,64052,1,2,0:0:0:0:
187,79,64249,2,0,L|201:158,1,65,8|0,0:0|0:0,0:0:0:0:
335,64,64644,5,2,3:2:0:0:
335,64,64841,2,0,L|345:-5,1,65,0|2,3:2|0:0,0:0:0:0:
448,122,65236,1,0,3:2:0:0:
448,122,65433,2,0,L|438:53,1,65,0|2,3:2|0:0,0:0:0:0:
314,156,65828,1,8,0:0:0:0:
314,156,66026,1,0,3:2:0:0:
506,225,66223,6,0,P|467:200|400:226,1,97.5,2|0,0:0|0:0,0:0:0:0:
407,219,66618,2,0,P|367:275|391:347,1,130,4|2,3:2|0:0,0:0:0:0:
452,384,67210,1,0,0:0:0:0:
512,297,67407,2,0,L|430:288,1,65,8|0,0:0|0:0,0:0:0:0:
237,384,67802,5,2,3:2:0:0:
237,384,67999,2,0,P|249:343|237:308,1,65,0|2,3:2|0:0,0:0:0:0:
205,246,68394,1,0,3:2:0:0:
205,246,68591,2,0,P|166:227|130:232,1,65,0|0,3:2|0:0,0:0:0:0:
71,376,68986,2,0,B|43:357|43:357|10:314|38:259,1,130,10|2,0:0|0:0,0:0:0:0:
167,139,69578,1,0,3:2:0:0:
167,139,69677,1,0,3:2:0:0:
167,139,69776,6,0,P|224:161|296:125,1,130,2|2,3:2|0:0,0:0:0:0:
244,65,70368,1,0,0:0:0:0:
159,149,70565,2,0,L|172:219,1,65,8|0,0:0|0:0,0:0:0:0:
0,330,70960,5,2,3:2:0:0:
0,330,71157,2,0,P|23:308|116:321,1,130,0|0,3:2|3:2,0:0:0:0:
171,384,71749,2,0,P|202:383|231:367,1,65,2|0,3:2|0:0,0:0:0:0:
430,384,72144,6,0,L|415:303,1,65,10|0,0:0|3:2,0:0:0:0:
332,224,72538,1,10,0:0:0:0:
440,179,72736,1,8,0:0:0:0:
220,93,72934,6,0,B|194:135|194:135|205:235,1,130,6|0,3:2|3:2,0:0:0:0:
261,286,73526,1,0,0:0:0:0:
123,332,73723,2,0,L|139:251,1,65,10|0,0:0|0:0,0:0:0:0:
202,215,74118,1,2,0:0:0:0:
345,274,74315,1,8,0:0:0:0:
256,297,74513,5,0,3:2:0:0:
309,137,74710,1,8,0:0:0:0:
507,181,74907,2,0,P|464:202|376:164,1,130,2|8,3:2|0:0,0:0:0:0:
388,88,75499,1,0,3:2:0:0:
388,88,75697,2,0,L|400:13,1,65,2|0,0:0|0:0,0:0:0:0:
183,227,76091,6,0,P|226:237|250:226,1,65,4|0,3:2|0:0,0:0:0:0:
319,152,76486,1,0,3:2:0:0:
319,152,76684,1,0,0:0:0:0:
207,60,76881,2,0,L|225:154,1,65,12|0,0:0|0:0,0:0:0:0:
372,296,77276,2,0,L|390:202,1,65,14|0,0:0|0:0,0:0:0:0:
318,54,77670,5,2,3:2:0:0:
220,150,77868,1,8,0:0:0:0:
61,76,78065,1,14,0:0:0:0:
61,76,78263,1,0,3:2:0:0:
0,270,78460,5,10,0:0:0:0:
123,206,78657,1,0,3:2:0:0:
240,351,78855,1,14,0:0:0:0:
101,331,79052,1,8,0:0:0:0:
242,227,79249,6,0,B|275:221|301:248|301:248|339:261|368:237,1,130,6|2,3:2|0:0,0:0:0:0:
444,183,79841,1,0,0:0:0:0:
509,327,80039,2,0,L|500:253,1,65,8|0,0:0|0:0,0:0:0:0:
376,113,80434,5,2,3:2:0:0:
376,113,80631,2,0,P|324:104|291:123,1,65,0|2,3:2|0:0,0:0:0:0:
229,173,81026,1,0,3:2:0:0:
229,173,81223,2,0,P|177:182|144:163,1,65,2|0,3:2|0:0,0:0:0:0:
52,56,81618,1,10,0:0:0:0:
52,56,81815,2,0,L|72:187,1,130,0|0,3:2|0:0,0:0:0:0:
0,346,82407,6,0,B|38:325|38:325|139:336,1,130,2|0,3:2|3:2,0:0:0:0:
215,384,82999,1,2,0:0:0:0:
315,301,83197,2,0,P|325:270|316:239,1,65,8|0,0:0|0:0,0:0:0:0:
202,135,83591,5,2,3:2:0:0:
202,135,83789,2,0,L|285:146,1,65,0|2,3:2|0:0,0:0:0:0:
340,33,84184,1,0,3:2:0:0:
340,33,84382,2,0,L|257:44,1,65,0|2,3:2|0:0,0:0:0:0:
119,148,84776,1,8,0:0:0:0:
198,97,84973,1,0,3:2:0:0:
115,0,85170,2,0,L|131:85,1,65,2|0,0:0|0:0,0:0:0:0:
59,288,85565,6,0,P|118:267|188:305,1,130,6|0,3:2|3:2,0:0:0:0:
459,150,86355,2,0,L|447:233,1,65,10|0,0:0|0:0,0:0:0:0:
359,87,86749,2,0,L|371:170,1,65,2|0,0:0|3:2,0:0:0:0:
373,176,87045,1,0,3:2:0:0:
373,176,87144,1,10,0:0:0:0:
269,102,87341,1,8,0:0:0:0:
130,191,87539,1,0,3:2:0:0:
130,191,87638,1,0,3:2:0:0:
130,191,87736,1,2,3:2:0:0:
291,247,87934,5,8,0:0:0:0:
149,338,88131,1,0,3:2:0:0:
22,199,88328,2,0,P|8:150|31:101,1,97.5,2|0,3:2|0:0,0:0:0:0:
46,90,88723,5,0,3:2:0:0:
219,159,88920,1,8,0:0:0:0:
110,228,89118,2,0,L|121:154,1,65,0|0,3:2|0:0,0:0:0:0:
0,384,89513,6,0,P|54:353|132:383,1,130,8|0,0:0|0:0,0:0:0:0:
207,325,90105,1,0,3:2:0:0:
216,319,90203,1,0,3:2:0:0:
225,313,90302,1,2,3:2:0:0:
301,368,90499,1,8,0:0:0:0:
336,219,90697,2,0,L|326:288,1,65,2|2,3:2|0:0,0:0:0:0:
402,151,91091,1,8,0:0:0:0:
509,346,91289,2,0,B|502:261|502:261|467:222,1,130,2|0,3:2|0:0,0:0:0:0:
358,227,91881,6,0,P|406:237|480:188,1,130,6|0,3:2|3:2,0:0:0:0:
489,117,92473,1,2,0:0:0:0:
374,61,92670,2,0,L|456:50,1,65,8|0,0:0|2:2,0:0:0:0:
402,151,93065,2,0,L|320:140,1,65,0|0,0:0|3:2,0:0:0:0:
112,229,93460,5,2,3:2:0:0:
41,179,93657,2,0,P|18:111|54:54,1,130,8|2,0:0|0:0,0:0:0:0:
170,114,94249,2,0,L|88:125,1,65,8|0,0:0|0:0,0:0:0:0:
206,197,94644,1,2,3:2:0:0:
336,110,94841,1,0,3:2:0:0:
345,102,94940,1,0,3:2:0:0:
354,95,95039,6,0,L|346:187,1,65,2|0,3:2|0:0,0:0:0:0:
318,239,95434,1,0,3:2:0:0:
419,196,95631,1,0,0:0:0:0:
512,313,95828,2,0,L|437:305,1,65,10|0,0:0|0:0,0:0:0:0:
302,378,96223,2,0,L|227:385,1,65,0|0,3:2|0:0,0:0:0:0:
80,279,96618,6,0,P|67:246|80:199,1,65,2|0,3:2|0:0,0:0:0:0:
175,312,97013,1,8,0:0:0:0:
28,368,97210,1,2,3:2:0:0:
96,97,97407,5,8,0:0:0:0:
189,181,97605,1,0,3:2:0:0:
334,147,97802,1,10,0:0:0:0:
380,0,97999,1,8,0:0:0:0:
324,135,98197,6,0,P|372:142|406:121,1,85.7999997381592,6|0,0:0|0:0,0:0:0:0:
488,267,99381,1,2,0:0:0:0:
488,267,99578,2,0,L|410:258,1,64.3499998036194,0|0,0:0|0:0,0:0:0:0:
263,363,100565,5,2,0:0:0:0:
186,374,100762,1,2,0:0:0:0:
143,311,100959,1,2,0:0:0:0:
181,244,101157,1,2,0:0:0:0:
257,248,101355,6,0,P|318:238|340:213,1,85.7999997381592,6|0,0:0|0:0,0:0:0:0:
336,132,102539,1,2,0:0:0:0:
336,132,102802,2,0,L|342:194,1,57.1999998254394
437,65,103723,5,2,0:0:0:0:
367,30,103920,1,2,0:0:0:0:
298,63,104118,1,2,0:0:0:0:
229,29,104315,1,2,0:0:0:0:
163,68,104513,6,0,L|150:153,1,85.7999997381592,6|0,0:0|0:0,0:0:0:0:
177,243,105697,1,2,0:0:0:0:
212,372,106091,2,0,L|203:330,1,42.8999998690796,2|0,0:0|0:0,0:0:0:0:
258,263,106881,1,2,0:0:0:0:
403,316,107276,1,2,0:0:0:0:
484,251,107670,6,0,L|495:203,2,42.8999998690796,6|2|2,0:0|0:0|0:0,0:0:0:0:
387,122,108855,6,0,L|396:180,1,58.5,2|2,0:0|3:2,0:0:0:0:
305,59,110828,5,8,0:0:0:0:
36,195,111223,5,0,1:0:0:0:
221,384,111815,5,4,0:3:0:0:
431,54,112407,6,0,L|421:185,1,130,6|0,3:2|0:0,0:0:0:0:
346,272,112999,1,0,3:2:0:0:
346,272,113196,2,0,L|337:201,1,65
452,140,113591,2,0,P|413:144|384:123,1,65,8|0,0:0|0:0,0:0:0:0:
207,67,113985,5,2,0:0:0:0:
118,164,114183,1,0,3:2:0:0:
118,164,114380,2,0,L|128:91,1,65,2|0,3:2|0:0,0:0:0:0:
53,230,114775,2,0,P|116:257|189:220,1,130,10|2,0:0|0:0,0:0:0:0:
284,128,115367,1,2,0:0:0:0:
301,124,115466,1,2,0:0:0:0:
317,130,115564,6,0,B|348:148|337:186|337:186|320:266,1,130,6|2,3:2|0:0,0:0:0:0:
250,320,116157,1,0,3:2:0:0:
402,384,116354,2,0,L|389:306,1,65
508,206,116749,2,0,L|497:270,1,65,8|0,0:0|0:0,0:0:0:0:
438,111,117143,6,0,P|381:140|307:97,1,130,2|2,0:0|3:2,0:0:0:0:
231,63,117735,1,2,0:0:0:0:
111,172,117933,1,8,0:0:0:0:
128,18,118130,2,0,L|144:109,1,65,10|0,0:0|0:0,0:0:0:0:
22,255,118525,1,2,0:0:0:0:
11,250,118624,1,2,0:0:0:0:
0,246,118722,6,0,B|36:226|63:248|63:248|95:272|150:253,1,130,6|0,3:2|0:0,0:0:0:0:
195,206,119314,1,0,3:2:0:0:
135,110,119512,2,0,P|116:136|112:168,1,65,0|0,0:0|0:0,0:0:0:0:
202,296,119907,1,8,0:0:0:0:
287,230,120104,1,2,0:0:0:0:
484,328,120301,5,2,0:0:0:0:
451,249,120499,1,0,3:2:0:0:
418,170,120696,2,0,L|343:163,1,65,2|0,3:2|0:0,0:0:0:0:
229,155,121091,5,10,0:0:0:0:
284,73,121288,2,0,L|357:67,1,65,10|0,0:0|0:0,0:0:0:0:
204,25,121683,1,2,0:0:0:0:
193,21,121782,1,2,0:0:0:0:
182,16,121880,6,0,P|134:65|147:136,1,130,6|2,3:2|0:0,0:0:0:0:
50,204,122472,2,0,P|82:225|128:224,1,65,2|0,3:2|0:0,0:0:0:0:
227,200,122867,1,2,0:0:0:0:
202,359,123064,2,0,L|198:283,1,65,8|2,0:0|0:0,0:0:0:0:
286,134,123459,5,2,0:0:0:0:
138,221,123657,1,2,3:2:0:0:
149,127,123854,1,2,3:2:0:0:
161,34,124051,1,2,3:2:0:0:
219,197,124249,5,8,0:0:0:0:
369,108,124446,2,0,P|380:50|369:21,1,65,0|2,3:2|0:0,0:0:0:0:
310,188,124841,1,2,0:0:0:0:
398,319,125038,6,0,P|450:331|515:288,1,130,6|2,3:2|0:0,0:0:0:0:
335,72,125828,2,0,P|330:109|343:144,1,65,10|0,0:0|0:0,0:0:0:0:
433,223,126222,1,2,0:0:0:0:
433,223,126420,2,0,B|402:201|372:214|372:214|334:232|284:203,1,130,0|0,3:2|3:2,0:0:0:0:
163,242,127012,2,0,L|178:161,1,65,2|0,3:2|0:0,0:0:0:0:
58,46,127407,2,0,L|73:127,1,65,8|0,0:0|0:0,0:0:0:0:
173,236,127801,6,0,P|125:220|68:252,1,97.5,2|0,0:0|0:0,0:0:0:0:
68,249,128196,2,0,P|51:285|64:337,1,65,6|0,3:2|0:0,0:0:0:0:
182,383,128591,2,0,L|252:375,1,65,2|0,0:0|0:0,0:0:0:0:
395,273,128985,2,0,L|325:265,1,65,10|0,0:0|0:0,0:0:0:0:
200,174,129380,2,0,P|195:129|219:95,1,65,2|0,0:0|0:0,0:0:0:0:
211,104,129676,1,0,3:2:0:0:
221,97,129775,5,2,3:2:0:0:
103,127,129972,1,0,0:0:0:0:
0,62,130170,2,0,P|-5:26|12:-5,1,65,2|0,3:2|0:0,0:0:0:0:
109,135,130564,2,0,L|29:150,1,65,8|0,0:0|0:0,0:0:0:0:
242,250,130959,6,0,L|113:235,1,130,6|0,3:2|3:2,0:0:0:0:
398,381,131749,2,0,P|378:336|387:297,1,65,2|0,3:2|0:0,0:0:0:0:
491,260,132143,2,0,P|510:215|501:176,1,65,10|0,0:0|0:0,0:0:0:0:
431,86,132538,1,2,3:2:0:0:
354,129,132735,1,0,0:0:0:0:
166,71,132933,6,0,P|228:52|306:112,1,130,6|0,3:2|3:2,0:0:0:0:
419,237,133525,1,0,0:0:0:0:
419,237,133722,2,0,L|431:160,1,65,10|0,0:0|0:0,0:0:0:0:
499,316,134117,1,2,3:2:0:0:
404,372,134314,1,0,3:2:0:0:
380,368,134413,1,0,3:2:0:0:
358,358,134512,6,0,B|329:336|329:336|301:286|331:239,1,130,4|2,3:2|0:0,0:0:0:0:
180,328,135104,1,0,0:0:0:0:
134,175,135301,2,0,L|149:91,1,65,12|0,0:0|0:0,0:0:0:0:
334,269,135696,2,0,L|320:196,1,65,2|0,3:2|3:2,0:0:0:0:
60,245,136091,5,14,0:0:0:0:
222,193,136288,1,8,0:0:0:0:
295,43,136485,1,2,3:2:0:0:
212,200,136683,1,0,1:2:0:0:
418,190,136880,6,0,L|426:125,1,65,2|0,1:2|3:2,0:0:0:0:
202,209,137275,2,0,L|216:296,1,65,10|0,0:0|3:2,0:0:0:0:
313,349,137571,1,0,3:2:0:0:
325,342,137670,6,0,B|311:325|284:327|284:327|248:374|181:357,1,143.000004364014,6|2,3:2|3:2,0:0:0:0:
105,384,138262,1,0,0:0:0:0:
1,284,138459,2,0,L|19:214,1,71.5000021820069,8|0,0:0|0:0,0:0:0:0:
300,61,138854,5,2,3:2:0:0:
251,148,139051,2,0,P|206:163|171:146,1,71.5000021820069,0|2,3:2|0:0,0:0:0:0:
29,101,139446,5,0,3:2:0:0:
133,0,139643,2,0,L|120:85,1,71.5000021820069,2|0,3:2|0:0,0:0:0:0:
0,238,140038,6,0,B|39:226|65:249|65:249|93:269|135:254,1,143.000004364014,10|2,0:0|0:0,0:0:0:0:
266,151,140630,1,8,0:0:0:0:
259,145,140729,1,8,0:0:0:0:
252,139,140828,6,0,L|264:285,1,143.000004364014,6|0,3:2|3:2,0:0:0:0:
185,359,141420,1,2,0:0:0:0:
340,384,141617,2,0,L|352:298,1,71.5000021820069,8|0,0:0|0:0,0:0:0:0:
400,141,142012,5,2,3:2:0:0:
512,224,142209,2,0,P|451:237|423:221,1,71.5000021820069,0|2,3:2|0:0,0:0:0:0:
190,112,142604,5,0,3:2:0:0:
271,30,142801,2,0,L|343:39,1,71.5000021820069,2|0,3:2|0:0,0:0:0:0:
233,281,143196,5,10,0:0:0:0:
180,198,143393,1,0,3:2:0:0:
167,208,143591,1,2,0:0:0:0:
253,384,143788,1,8,0:0:0:0:
408,199,143985,6,0,B|372:177|372:177|320:165|268:201,1,143.000004364014,6|0,3:2|3:2,0:0:0:0:
392,299,144578,1,2,0:0:0:0:
503,173,144775,2,0,L|487:100,1,71.5000021820069,8|0,0:0|0:0,0:0:0:0:
234,16,145170,5,2,3:2:0:0:
125,110,145367,2,0,L|51:102,1,71.5000021820069,0|2,3:2|0:0,0:0:0:0:
240,5,145762,5,0,3:2:0:0:
329,70,145959,2,0,L|403:62,1,71.5000021820069,2|0,3:2|0:0,0:0:0:0:
250,196,146354,5,10,0:0:0:0:
250,196,146551,2,0,P|232:159|247:111,1,71.5000021820069,0|2,3:2|0:0,0:0:0:0:
154,293,146946,1,8,0:0:0:0:
147,303,147045,1,8,0:0:0:0:
141,313,147143,6,0,L|-4:331,1,143.000004364014,6|0,3:2|3:2,0:0:0:0:
213,376,147735,1,2,3:2:0:0:
300,241,147933,2,0,L|229:235,1,71.5000021820069,8|0,0:0|0:0,0:0:0:0:
365,326,148328,1,2,3:2:0:0:
365,326,148525,1,0,3:2:0:0:
354,63,148722,5,10,0:0:0:0:
439,259,148920,1,8,0:0:0:0:
439,259,149117,1,0,3:2:0:0:
480,58,149314,5,2,1:2:0:0:
293,236,149512,2,0,P|282:190|298:155,1,71.5000021820069,0|0,1:2|0:0,0:0:0:0:
141,9,149907,6,0,P|63:45|31:31,1,107.25000327301,10|0,0:0|0:0,0:0:0:0:
31,22,150301,2,0,L|48:180,1,143.000004364014,6|2,3:2|3:2,0:0:0:0:
155,236,150893,1,0,0:0:0:0:
310,169,151091,2,0,P|271:154|239:157,1,71.5000021820069,8|0,0:0|0:0,0:0:0:0:
73,321,151485,5,2,3:2:0:0:
199,383,151683,2,0,L|272:372,1,71.5000021820069,0|2,3:2|0:0,0:0:0:0:
455,229,152078,5,0,3:2:0:0:
369,286,152276,2,0,L|295:275,1,71.5000021820069,0|0,3:2|0:0,0:0:0:0:
368,31,152670,2,0,B|387:36|402:50|402:50|430:95|397:152,1,143.000004364014,10|0,0:0|0:0,0:0:0:0:
174,213,153262,1,10,0:0:0:0:
153,174,153360,1,8,0:0:0:0:
173,131,153459,6,0,P|215:106|290:157,1,143.000004364014,6|2,3:2|3:2,0:0:0:0:
219,235,154051,1,0,0:0:0:0:
75,206,154249,2,0,P|64:166|71:128,1,71.5000021820069,8|0,0:0|0:0,0:0:0:0:
143,369,154643,6,0,L|215:360,1,71.5000021820069,2|0,3:2|3:2,0:0:0:0:
297,304,155038,2,0,L|369:313,1,71.5000021820069,2|0,0:0|3:2,0:0:0:0:
493,274,155433,2,0,P|503:240|492:206,1,71.5000021820069,2|0,3:2|0:0,0:0:0:0:
428,66,155828,2,0,P|417:99|428:133,1,71.5000021820069,10|0,0:0|0:0,0:0:0:0:
512,0,156222,5,10,0:0:0:0:
327,33,156420,1,8,0:0:0:0:
154,93,156617,6,0,P|174:46|246:78,1,143.000004364014,6|0,3:2|3:2,0:0:0:0:
89,180,157209,1,0,3:2:0:0:
2,47,157407,2,0,P|-19:97|-8:138,1,71.5000021820069,14|0,0:0|0:0,0:0:0:0:
48,253,157801,1,2,3:2:0:0:
167,152,157999,1,0,3:2:0:0:
298,285,158196,6,0,L|175:272,1,107.25000327301,12|0,0:0|2:2,0:0:0:0:
179,272,158591,2,0,P|167:306|185:349,1,71.5000021820069,2|0,3:2|0:0,0:0:0:0:
280,205,158985,1,12,0:0:0:0:
368,326,159183,1,8,0:0:0:0:
512,182,159380,6,0,P|445:167|403:210,1,107.25000327301,2|0,3:2|0:0,0:0:0:0:
405,200,159775,2,0,L|419:49,1,143.000004364014,4|0,3:2|3:2,0:0:0:0:
306,8,160367,1,0,0:0:0:0:
303,231,160564,2,0,L|280:105,1,107.25000327301,12|0,0:0|0:0,0:0:0:0:
288,134,160959,6,0,P|234:161|200:146,1,71.5000021820069,10|0,0:0|3:2,0:0:0:0:
16,80,161354,1,14,0:0:0:0:
166,17,161551,1,8,0:0:0:0:
145,253,161749,1,2,3:2:0:0:
124,138,161946,1,0,0:0:0:0:
279,214,162143,5,6,3:2:0:0:
211,355,162341,1,0,3:2:0:0:
436,384,162538,1,10,0:0:0:0:
368,262,162735,1,0,3:2:0:0:
364,249,162834,1,0,3:2:0:0:
370,236,162933,6,0,B|400:206|400:206|453:183|503:218,1,143.000004364014,6|0,3:2|3:2,0:0:0:0:
339,140,163525,1,2,0:0:0:0:
438,46,163722,2,0,P|436:87|407:116,1,71.5000021820069,8|0,0:0|0:0,0:0:0:0:
207,157,164117,5,2,3:2:0:0:
115,94,164314,2,0,L|131:-4,1,71.5000021820069,0|2,3:2|0:0,0:0:0:0:
234,254,164709,5,0,3:2:0:0:
328,176,164906,2,0,L|313:95,1,71.5000021820069,2|0,3:2|0:0,0:0:0:0:
181,344,165301,5,10,0:0:0:0:
27,276,165499,1,0,3:2:0:0:
199,96,165696,2,0,P|216:134|207:174,1,71.5000021820069,2|8,0:0|0:0,0:0:0:0:
119,246,165992,1,8,0:0:0:0:
107,235,166091,6,0,B|141:210|175:229|175:229|206:247|243:230,1,143.000004364014,6|0,3:2|3:2,0:0:0:0:
355,123,166683,1,2,0:0:0:0:
498,369,166880,6,0,P|468:310|491:253,1,107.25000327301,8|0,0:0|0:0,0:0:0:0:
486,258,167275,2,0,P|497:221|478:184,1,71.5000021820069,2|0,3:2|3:2,0:0:0:0:
257,278,167670,6,0,P|221:292|175:280,2,77.999997619629,2|0|0,0:0|3:2|3:3,0:0:0:0:
360,214,168262,1,2,0:0:0:0:
478,359,168459,6,0,L|462:281,1,77.999997619629,8|0,0:0|3:2,0:0:0:0:
443,153,168853,1,2,0:0:0:0:
319,302,169051,1,0,3:2:0:0:
98,235,169249,6,0,B|67:209|67:209|30:140|101:76,1,181.999994445801,14|0,0:0|3:2,0:0:0:0:
202,35,169841,1,0,3:2:0:0:
319,166,170038,2,0,L|223:152,1,90.9999972229005,14|0,0:0|0:0,0:0:0:0:
175,290,170433,2,0,L|269:275,1,90.9999972229005,2|0,3:2|3:2,0:0:0:0:
397,84,170828,6,0,B|363:111|363:111|322:186|396:248,1,181.999994445801,4|0,0:0|3:2,0:0:0:0:
491,84,171420,1,2,3:2:0:0:
360,4,171617,2,0,P|320:-2|268:14,1,90.9999972229005,12|0,0:0|0:0,0:0:0:0:
67,147,172012,6,0,P|48:205|75:279,1,136.499995834351,2|0,3:2|0:0,0:0:0:0:
79,278,172406,2,0,L|259:253,1,181.999994445801,4|0,3:2|3:2,0:0:0:0:
405,229,172999,1,0,3:2:0:0:
503,383,173196,6,0,L|324:359,1,181.999994445801,12|0,0:0|3:2,0:0:0:0:
176,337,173789,1,0,0:0:0:0:
169,33,173985,5,6,0:0:0:0:
73,128,174183,2,0,L|93:235,1,90.9999972229005,8|0,0:0|0:0,0:0:0:0:
322,136,174578,5,2,3:2:0:0:
424,250,174776,2,0,L|403:343,1,90.9999972229005,12|0,0:0|3:2,0:0:0:0:
291,268,175170,1,2,1:2:0:0:
215,344,175367,1,0,1:2:0:0:
13,299,175564,6,0,P|49:262|137:273,1,143.000004364014,6|0,3:2|3:2,0:0:0:0:
225,339,176156,1,2,0:0:0:0:
413,184,176354,2,0,B|369:158|369:158|275:177,1,143.000004364014,8|0,0:0|3:2,0:0:0:0:
191,215,176946,1,0,3:2:0:0:
0,76,177143,5,2,0:0:0:0:
123,189,177341,1,8,0:0:0:0:
219,76,177538,1,0,3:2:0:0:
202,64,177735,1,2,3:2:0:0:
0,245,177933,5,8,0:0:0:0:
78,335,178130,1,0,3:2:0:0:
224,186,178328,1,2,0:0:0:0:
309,344,178525,1,8,0:0:0:0:
284,365,178624,1,8,0:0:0:0:
258,384,178722,6,0,B|236:342|236:342|232:289|274:241,1,143.000004364014,6|0,3:2|3:2,0:0:0:0:
345,174,179314,1,2,3:2:0:0:
449,381,179512,5,8,0:0:0:0:
412,264,179709,1,0,3:2:0:0:
512,151,179906,2,0,L|500:226,1,71.5000021820069,8|0,0:0|0:0,0:0:0:0:
277,384,180301,5,2,3:2:0:0:
123,267,180499,2,0,L|110:185,1,71.5000021820069,8|0,0:0|0:0,0:0:0:0:
60,367,180893,1,2,3:2:0:0:
217,308,181091,2,0,L|230:226,1,71.5000021820069,8|0,0:0|0:0,0:0:0:0:
269,79,181485,1,8,0:0:0:0:
239,50,181583,1,8,0:0:0:0:
198,44,181682,1,8,0:0:0:0:
161,63,181781,1,8,0:0:0:0:
150,57,181880,6,0,B|174:100|174:100|161:202,1,130,2|0,3:2|0:0,0:0:0:0:
239,278,182472,1,0,0:0:0:0:
419,190,182670,2,0,L|412:116,1,65,8|0,0:0|0:0,0:0:0:0:
329,233,183064,1,0,3:2:0:0:
224,178,183262,2,0,L|231:104,1,65,0|0,3:2|0:0,0:0:0:0:
328,248,183656,1,8,0:0:0:0:
407,59,183854,1,0,3:2:0:0:
222,96,184051,1,0,3:2:0:0:
422,195,184249,5,8,0:0:0:0:
315,97,184446,1,0,3:2:0:0:
157,179,184643,2,0,L|147:271,1,65,10|2,0:2|3:2,0:0:0:0:
74,284,184939,1,0,3:2:0:0:
63,278,185038,6,0,P|95:264|189:291,1,130,2|2,3:2|3:2,0:0:0:0:
259,349,185630,1,0,0:0:0:0:
389,222,185828,2,0,P|397:188|387:145,1,65,10|0,0:0|0:0,0:0:0:0:
244,223,186222,2,0,P|269:246|311:259,2,65,2|0|0,3:2|3:2|0:0,0:0:0:0:
258,124,186814,1,0,3:2:0:0:
258,124,187012,2,0,P|283:104|315:96,1,65,0|0,3:2|0:0,0:0:0:0:
122,254,187406,5,8,0:0:0:0:
73,147,187604,1,0,3:2:0:0:
230,240,187801,1,2,0:0:0:0:
80,383,187999,1,10,0:0:0:0:
67,354,188097,1,8,0:0:0:0:
76,323,188196,6,0,P|117:300|194:331,1,107.25000327301,2|0,3:2|0:0,0:0:0:0:
211,332,188591,2,0,P|259:339|301:320,1,71.5000021820069,2|0,3:2|0:0,0:0:0:0:
287,156,188985,2,0,P|239:149|197:168,1,71.5000021820069,10|0,0:0|0:0,0:0:0:0:
381,245,189380,1,2,3:2:0:0:
419,155,189578,1,0,3:2:0:0:
243,305,189775,5,2,0:0:0:0:
160,155,189972,1,8,0:0:0:0:
376,64,190170,6,0,L|264:52,1,84.4999961318971,2|0,3:2|0:0,0:0:0:0:
72,9,190564,2,0,L|183:-3,1,84.4999961318971,8|0,0:0|3:2,0:0:0:0:
304,188,190959,1,2,1:2:0:0:
191,148,191156,1,0,1:0:0:0:
443,9,191354,6,0,P|472:62|463:109,1,84.4999961318971,6|0,3:2|0:0,0:0:0:0:
383,234,191749,2,0,P|322:233|286:202,1,84.4999961318971,2|0,3:2|0:0,0:0:0:0:
257,28,192143,1,10,0:0:0:0:
370,116,192341,1,0,3:2:0:0:
192,326,192538,6,0,P|178:274|228:172,1,168.999992263794,4|0,3:2|0:0,0:0:0:0:
392,300,193130,1,8,0:0:0:0:
474,251,193328,2,0,P|448:209|393:220,1,84.4999961318971,2|0,3:2|0:0,0:0:0:0:
195,287,193722,6,0,P|203:258|244:234,1,56.3333307545981,2|2,1:2|3:2,0:0:0:0:
275,323,193985,1,2,1:2:0:0:
275,323,194117,2,0,L|287:371,2,32.5000012397767,0|0|0,3:2|3:2|3:2,0:0:0:0:
71,269,194512,5,6,3:2:0:0:
131,181,194709,1,0,0:0:0:0:
148,350,194906,1,0,3:2:0:0:
11,175,195104,5,2,0:0:0:0:
204,107,195301,1,12,0:0:0:0:
67,85,195499,1,0,0:0:0:0:
220,226,195696,5,2,0:0:0:0:
267,47,195893,1,0,3:2:0:0:
322,194,196091,1,0,0:0:0:0:
155,29,196288,5,14,0:0:0:0:
362,84,196485,1,0,3:2:0:0:
207,132,196683,1,0,0:0:0:0:
66,0,196880,5,14,0:0:0:0:
259,53,197078,1,0,0:0:0:0:
106,219,197275,2,0,P|100:163|127:123,1,84.4999961318971,2|0,0:0|0:0,0:0:0:0:
393,264,197670,5,6,3:2:0:0:
261,292,197867,1,0,0:0:0:0:
128,324,198064,1,0,3:2:0:0:
291,152,198262,5,2,0:0:0:0:
135,321,198459,1,12,0:0:0:0:
193,159,198656,1,0,0:0:0:0:
260,384,198854,5,2,0:0:0:0:
181,150,199051,1,0,0:0:0:0:
387,218,199249,5,6,3:2:0:0:
354,180,199348,1,2,0:0:0:0:
305,169,199446,1,10,0:0:0:0:
95,308,199643,5,6,3:2:0:0:
113,269,199742,1,2,0:0:0:0:
150,250,199840,1,2,0:0:0:0:
306,384,200038,5,14,2:2:0:0:
296,349,200137,1,2,0:0:0:0:
269,328,200235,1,2,3:2:0:0:
460,217,200433,6,0,B|478:253|478:253|458:346,1,126.749994197846,2|0,0:0|0:0,0:0:0:0:
456,356,200828,6,0,L|507:348,2,47.6666681213379,6|0|0,3:2|0:0|0:0,0:0:0:0:
353,265,201222,2,0,L|302:257,2,47.6666681213379,2|0|0,3:2|0:0|0:0,0:0:0:0:
463,195,201617,5,10,0:0:0:0:
482,177,201749,2,0,P|494:141|479:96,1,56.3333307545981,0|0,3:2|3:2,0:0:0:0:
432,62,202012,5,2,3:2:0:0:
366,103,202143,2,0,P|391:131|437:140,1,56.3333307545981,2|2,3:2|3:2,0:0:0:0:
372,7,202406,5,2,0:0:0:0:
352,5,202538,1,2,3:2:0:0:
332,3,202670,1,2,1:2:0:0:
284,67,202801,5,2,1:2:0:0:
259,70,202933,1,2,0:0:0:0:
234,71,203065,1,2,0:0:0:0:
164,17,203196,5,14,0:0:0:0:
143,70,203328,1,2,1:2:0:0:
163,124,203459,1,2,1:2:0:0:
223,181,203591,5,2,1:2:0:0:
157,134,203722,1,2,0:2:0:0:
81,164,203854,1,2,0:2:0:0:
13,120,203985,6,0,B|-17:162|-17:162|0:267,1,155.999995239258,6|2,3:2|3:2,0:0:0:0:
391,157,204775,2,0,P|334:103|243:120,1,155.999995239258,10|2,0:0|3:2,0:0:0:0:
134,308,205564,2,0,L|117:389,1,77.999997619629,2|0,3:2|0:0,0:0:0:0:
272,221,205959,2,0,L|289:302,1,77.999997619629,2|0,3:2|0:0,0:0:0:0:
34,99,206354,2,0,L|-3:261,1,155.999995239258,10|2,0:0|3:2,0:0:0:0:
129,121,206946,1,0,0:0:0:0:
306,289,207143,6,0,B|343:310|385:287|385:287|427:263|479:288,1,155.999995239258,6|2,3:2|3:2,0:0:0:0:
186,384,207933,2,0,P|168:323|186:247,1,116.999996429443,8|0,0:0|0:0,0:0:0:0:
183,252,208328,2,0,P|195:212|182:157,1,77.999997619629,2|0,3:2|0:0,0:0:0:0:
0,50,208722,6,0,P|67:53|105:-3,1,116.999996429443,0|0,3:2|0:0,0:0:0:0:
107,2,209117,2,0,L|129:102,1,77.999997619629,6|0,3:2|0:0,0:0:0:0:
346,91,209512,2,0,P|341:140|308:191,1,77.999997619629,14|0,0:0|0:0,0:0:0:0:
490,325,209906,2,0,P|473:373|418:379,1,77.999997619629,6|0,3:2|0:0,0:0:0:0:
103,260,210301,6,0,B|141:213|211:232|211:232|239:258,1,155.999995239258,6|2,3:2|3:2,0:0:0:0:
17,384,211091,2,0,B|47:342|26:304|26:304|1:259|30:212,1,155.999995239258,10|2,0:0|3:2,0:0:0:0:
0,51,211683,1,2,0:0:0:0:
0,51,211880,2,0,P|53:19|147:29,1,155.999995239258,0|0,3:2|3:2,0:0:0:0:
276,199,212670,6,0,L|292:288,1,77.999997619629,14|0,0:0|0:0,0:0:0:0:
351,93,213064,1,2,3:2:0:0:
351,93,213262,1,0,0:0:0:0:
135,242,213459,6,0,L|119:331,1,77.999997619629,6|0,3:2|0:0,0:0:0:0:
103,137,213854,1,2,3:2:0:0:
230,209,214051,1,0,0:0:0:0:
476,174,214249,5,14,0:0:0:0:
363,267,214446,1,0,3:2:0:0:
235,199,214643,2,0,B|219:156|256:99|256:99|287:100|313:136,1,155.999995239258,14|0,0:0|3:2,0:0:0:0:
415,299,215235,5,8,0:0:0:0:
401,307,215333,1,8,0:0:0:0:
386,312,215432,1,10,0:0:0:0:
370,315,215531,1,8,0:0:0:0:
355,315,215629,1,8,0:0:0:0:
339,311,215728,1,8,0:0:0:0:
325,304,215827,5,10,0:0:0:0:
276,261,215926,1,8,0:0:0:0:
215,270,216025,1,8,0:0:0:0:
182,324,216124,1,0,3:2:0:0:
202,384,216222,2,0,P|250:381|270:362,1,42.2499980659486,0|0,3:2|3:2,0:0:0:0:
372,208,216420,1,0,3:2:0:0:
375,201,216518,1,0,3:2:0:0:
379,194,216617,6,0,P|384:146|359:99,1,84.4999961318971,12|0,0:0|0:0,0:0:0:0:
281,0,217012,1,2,3:2:0:0:
281,0,217209,1,0,3:2:0:0:
104,104,217406,2,0,L|197:91,1,84.4999961318971,14|0,0:0|0:0,0:0:0:0:
0,214,217801,2,0,L|100:223,1,84.4999961318971,2|0,3:2|3:2,0:0:0:0:
257,384,218196,6,0,P|248:336|279:285,1,84.4999961318971,4|0,0:0|3:2,0:0:0:0:
350,179,218591,1,2,3:2:0:0:
350,179,218788,1,0,3:2:0:0:
485,302,218985,6,0,L|465:397,1,84.4999961318971,14|0,0:0|3:2,0:0:0:0:
332,171,219380,1,2,0:0:0:0:
507,62,219578,1,10,0:0:0:0:
507,62,219676,1,8,0:0:0:0:
507,62,219775,6,0,P|459:80|384:53,1,126.749994197846,4|0,3:2|0:0,0:0:0:0:
382,68,220170,2,0,P|362:24|375:-18,1,84.4999961318971,2|0,3:2|3:2,0:0:0:0:
95,178,220564,6,0,L|-18:166,1,84.4999961318971,14|0,0:0|0:0,0:0:0:0:
173,64,220959,1,2,3:2:0:0:
232,244,221156,1,0,3:2:0:0:
418,345,221354,5,12,0:0:0:0:
200,384,221551,1,0,3:2:0:0:
342,190,221749,1,2,3:2:0:0:
512,273,221946,1,0,3:2:0:0:
209,247,222143,5,12,0:0:0:0:
313,40,222341,1,0,3:2:0:0:
203,256,222538,1,2,0:0:0:0:
460,230,222735,2,0,P|477:196|477:171,1,42.2499980659486,0|0,3:2|3:2,0:0:0:0:
426,22,222933,6,0,P|452:75|450:200,1,181.999994445801,12|0,0:0|3:2,0:0:0:0:
320,344,223525,1,0,3:2:0:0:
149,53,223722,6,0,P|87:88|79:222,1,208,12|0,0:0|3:2,0:0:0:0:
207,367,224314,1,0,3:2:0:0:
478,133,224512,6,0,P|437:34|323:84,1,233.999992858887,12|0,0:0|3:2,0:0:0:0:
190,264,225104,1,0,3:2:0:0:
191,67,225301,5,12,0:0:0:0:
85,381,225499,1,0,3:2:0:0:
381,297,225696,5,10,0:0:0:0:
38,221,225893,1,10,0:0:0:0:
83,0,226091,6,0,L|99:148,1,130,6|0,3:2|0:0,0:0:0:0:
390,304,226485,2,4,B|411:268|411:268|417:221|384:178,1,130,4|0,1:3|0:0,0:0:0:0:
43,208,226880,2,0,B|81:225|81:225|194:188,1,130,4|0,1:1|0:0,0:0:0:0:
467,34,227275,2,0,P|410:-4|360:54,1,130,14|0,0:0|0:0,0:0:0:0:
274,229,227670,5,6,3:2:0:0:
279,250,227801,1,8,0:0:0:0:
285,273,227933,1,8,0:0:0:0:
221,322,228064,5,10,0:0:0:0:
145,292,228196,1,8,0:0:0:0:
67,317,228328,1,8,0:0:0:0:
10,266,228459,5,10,0:0:0:0:
17,250,228591,1,8,0:0:0:0:
24,234,228722,1,8,0:0:0:0:
97,182,228854,5,2,1:2:0:0:
92,172,228986,1,0,1:2:0:0:
89,163,229117,1,0,1:2:0:0:
19,114,229249,6,0,P|39:33|120:73,1,195,4|0,3:1|0:0,0:0:0:0:
99,155,230630,1,0,0:0:0:0:
99,155,230828,2,0,P|147:143|179:150,1,65,2|0,0:0|0:0,0:0:0:0:
249,174,231420,1,0,0:0:0:0:
249,174,231618,2,0,P|281:174|311:163,1,65,2|0,0:0|0:0,0:0:0:0:
341,83,232209,1,0,0:0:0:0:
341,83,232406,6,0,B|338:50|370:31|372:10|372:10|376:30|437:47|427:110,1,195,2|0,0:0|0:0,0:0:0:0:
484,179,233788,1,0,0:0:0:0:
484,179,233985,2,0,P|432:184|414:176,1,65,2|0,0:0|0:0,0:0:0:0:
306,238,234578,1,0,0:0:0:0:
306,238,234775,2,0,P|358:233|376:241,1,65,2|0,0:0|0:0,0:0:0:0:
231,299,235367,1,0,0:0:0:0:
231,299,235564,6,0,B|216:204|216:204|131:257,1,195,2|0,0:0|0:0,0:0:0:0:
38,323,236946,1,0,0:0:0:0:
38,323,237143,6,0,P|29:295|38:260,1,45.4999986114502,2|0,0:0|0:0,0:0:0:0:
79,184,237538,2,0,P|88:156|76:115,1,58.4999982147217,2|0,0:0|0:0,0:0:0:0:
0,39,237933,2,0,L|78:25,1,71.5000021820069,2|0,0:0|0:0,0:0:0:0:
252,80,238328,2,0,L|153:62,1,84.4999961318971,2|0,0:0|0:0,0:0:0:0:
176,58,238624,1,0,3:2:0:0:
184,52,238722,6,0,B|181:157|181:157|125:227,1,156,6|0,3:2|0:0,0:0:0:0:
43,242,239117,2,0,P|120:210|174:228,1,104,4|2,1:3|0:0,0:0:0:0:
398,384,239512,5,8,0:0:0:0:
364,266,239709,1,0,1:2:0:0:
508,130,239906,2,0,P|445:156|380:123,1,104,6|0,3:2|0:0,0:0:0:0:
259,193,240301,1,2,3:2:0:0:
257,184,240399,1,0,3:2:0:0:
256,176,240498,1,0,3:2:0:0:
254,166,240597,1,0,3:2:0:0:
253,160,240696,2,0,L|244:115,1,32.5,0|0,1:2|0:0,0:0:0:0:
337,24,240893,1,2,1:2:0:0:
100,174,241091,6,0,L|93:295,1,84.4999961318971,12|0,0:0|3:2,0:0:0:0:
30,350,241387,1,0,3:2:0:0:
18,341,241485,2,0,B|43:330|66:343|66:343|91:354|132:340,1,97.5,2|0,3:2|0:0,0:0:0:0:
125,356,241880,6,0,P|162:293|137:244,1,104,6|0,3:2|0:0,0:0:0:0:
15,87,242275,1,2,3:2:0:0:
146,165,242472,1,0,0:0:0:0:
334,112,242670,6,0,P|272:80|213:104,1,104,8|0,0:0|0:0,0:0:0:0:
455,164,243064,1,2,3:2:0:0:
455,164,243262,2,0,L|440:46,1,104,0|2,3:2|0:0,0:0:0:0:
380,257,243656,1,0,3:2:0:0:
470,353,243854,1,0,3:2:0:0:
243,223,244051,1,2,3:2:0:0:
497,44,244249,6,0,B|432:19|386:63|386:63|332:111|269:79,1,233.999992858887,8|2,0:0|0:0,0:0:0:0:
24,125,244841,1,0,3:2:0:0:
6,94,244939,1,0,3:2:0:0:
13,59,245038,6,0,P|68:25|148:74,1,156,6|0,3:2|0:0,0:0:0:0:
157,92,245433,2,0,P|139:159|91:183,1,104,2|0,3:2|0:0,0:0:0:0:
0,335,245828,2,0,P|66:312|119:341,1,104,8|0,0:0|0:0,0:0:0:0:
293,384,246222,5,2,3:2:0:0:
443,241,246420,2,0,L|323:261,1,104,0|2,3:2|0:0,0:0:0:0:
132,198,246814,5,0,3:2:0:0:
264,35,247012,2,0,L|244:155,1,104,2|0,3:2|0:0,0:0:0:0:
8,341,247406,5,8,0:0:0:0:
221,265,247604,1,0,3:2:0:0:
124,208,247801,1,2,0:0:0:0:
77,285,247999,1,0,3:2:0:0:
337,377,248196,6,0,P|356:317|323:249,1,116.999996429443,14|0,0:0|3:2,0:0:0:0:
212,156,248591,1,0,3:2:0:0:
391,84,248788,1,0,3:2:0:0:
74,31,248985,5,14,0:0:0:0:
291,95,249183,1,0,3:2:0:0:
61,284,249380,1,2,3:2:0:0:
139,123,249578,1,0,3:2:0:0:
302,384,249775,5,12,0:0:0:0:
263,251,249972,1,0,3:2:0:0:
416,311,250170,1,2,3:2:0:0:
463,140,250367,1,0,3:2:0:0:
185,222,250564,5,12,0:0:0:0:
150,64,250762,1,0,3:2:0:0:
340,205,250959,1,2,3:2:0:0:
213,374,251156,1,8,0:0:0:0:
3,282,251354,6,0,B|-34:180|5:115|5:115|62:91|114:156,1,260,4|0,3:2|3:2,0:0:0:0:
205,271,251946,1,0,0:0:0:0:
377,194,252143,2,0,P|389:151|291:151,1,130,4|0,3:2|0:0,0:0:0:0:
100,365,252538,2,0,P|91:250|129:199,1,143.000004364014,2|0,3:2|0:0,0:0:0:0:
202,95,252933,1,4,3:2:0:0:
427,354,253130,5,2,3:2:0:0:
440,309,253228,1,0,3:2:0:0:
417,269,253327,1,0,3:2:0:0:
371,261,253426,1,0,3:2:0:0:
358,273,253525,5,10,0:0:0:0:
296,229,253623,1,8,0:0:0:0:
275,156,253722,1,12,0:0:0:0:
305,87,253821,1,8,0:0:0:0:
371,51,253919,1,8,0:0:0:0:
444,63,254018,1,8,0:0:0:0:
494,119,254117,5,2,3:2:0:0:
481,134,254215,1,0,3:2:0:0:
464,145,254314,1,0,3:2:0:0:
444,148,254413,1,0,3:2:0:0:
424,145,254512,6,0,B|400:115|412:78|412:78|344:142|283:114|283:114|307:80,1,233.999992858887,6|0,3:2|3:2,0:0:0:0:
123,20,255104,1,2,0:0:0:0:
123,20,255301,2,0,P|132:73|83:128,1,104,8|0,0:0|0:0,0:0:0:0:
10,278,255696,5,2,3:2:0:0:
186,239,255893,2,0,P|133:214|83:229,1,104,0|2,3:2|0:0,0:0:0:0:
264,384,256288,5,0,3:2:0:0:
322,214,256485,2,0,P|347:259|332:317,1,104,2|0,3:2|3:2,0:0:0:0:
110,99,256880,6,0,P|97:33|122:-14,1,104,10|0,0:0|3:2,0:0:0:0:
246,189,257275,1,2,0:0:0:0:
33,301,257472,1,8,0:0:0:0:
7,263,257571,1,8,0:0:0:0:
20,218,257670,6,0,P|92:194|161:230,1,156,6|0,3:2|0:0,0:0:0:0:
190,266,258064,2,0,P|236:286|297:271,1,104,0|2,3:2|0:0,0:0:0:0:
442,199,258459,2,0,L|456:56,1,104,8|0,0:0|0:0,0:0:0:0:
389,320,258854,1,2,3:2:0:0:
389,320,259051,1,0,3:2:0:0:
128,135,259249,5,2,0:0:0:0:
206,331,259446,1,0,3:2:0:0:
321,226,259643,1,0,3:2:0:0:
229,153,259841,1,2,3:2:0:0:
81,384,260038,6,0,P|67:322|96:274,1,104,8|0,0:0|3:2,0:0:0:0:
238,148,260433,2,0,P|242:103|231:83,1,65,2|0,0:0|3:2,0:0:0:0:
146,15,260729,1,0,3:2:0:0:
133,7,260828,6,0,P|117:67|156:178,1,175.499994644165,6|0,3:2|2:2,0:0:0:0:
165,208,261222,2,0,B|145:189|128:144|128:144|114:165|109:208,1,116.999996429443,2|0,3:2|0:0,0:0:0:0:
78,342,261617,5,2,3:2:0:0:
132,335,261748,1,0,3:2:0:0:
186,331,261880,1,0,3:2:0:0:
262,356,262011,5,2,3:2:0:0:
318,295,262143,1,8,0:0:0:0:
290,219,262275,1,8,0:0:0:0:
208,215,262406,6,0,P|188:154|226:88,1,116.999996429443,6|0,3:2|0:0,0:0:0:0:
337,43,262801,1,0,3:2:0:0:
475,137,262999,1,2,1:2:0:0:
466,146,263097,1,0,1:2:0:0:
457,155,263196,2,0,L|469:36,1,116.999996429443,0|0,3:2|0:0,0:0:0:0:
335,348,263591,6,0,B|291:341|275:293|275:293|249:316|249:316|207:296|166:326,1,195.00000743866,6|0,3:2|0:0,0:0:0:0:
23,200,264183,1,8,0:0:0:0:
232,114,264380,1,0,3:2:0:0:
145,193,264578,1,0,3:2:0:0:
90,0,264775,5,8,0:0:0:0:
319,75,264972,2,0,P|329:131|297:183,1,97.50000371933,0|0,3:2|0:0,0:0:0:0:
108,292,265367,5,0,3:2:0:0:
149,256,265466,1,0,3:2:0:0:
203,251,265564,1,10,0:0:0:0:
332,348,265762,1,8,0:0:0:0:
311,384,265860,2,0,L|321:316,1,48.750001859665,8|0,0:0|3:2,0:0:0:0:
393,193,266058,1,8,0:0:0:0:
416,230,266156,1,2,3:2:0:0:
230,195,266354,2,0,P|243:127|290:97,1,97.50000371933,8|0,0:0|3:2,0:0:0:0:
432,323,266749,1,10,0:0:0:0:
294,258,266946,1,8,0:0:0:0:
89,384,267143,6,0,L|101:277,1,84.4999961318971,6|0,3:2|0:0,0:0:0:0:
174,208,267538,2,0,L|162:101,1,84.4999961318971,0|2,3:2|0:0,0:0:0:0:
10,286,267933,2,0,P|67:294|97:274,1,84.4999961318971,8|0,0:0|0:0,0:0:0:0:
248,140,268328,1,0,3:2:0:0:
78,118,268525,1,0,3:2:0:0:
314,265,268722,5,6,0:0:0:0:
438,106,268920,1,0,3:2:0:0:
438,106,269117,2,0,L|427:201,1,84.4999961318971,0|2,3:2|3:2,0:0:0:0:
308,352,269512,2,0,P|240:315|228:275,1,84.4999961318971,8|0,0:0|3:2,0:0:0:0:
134,67,269906,2,0,P|136:143|107:174,1,84.4999961318971,2|0,0:0|3:2,0:0:0:0:
35,234,270203,1,0,3:2:0:0:
14,219,270301,6,0,P|68:187|191:230,1,195.00000743866,6|0,3:2|3:2,0:0:0:0:
296,342,270893,1,2,0:0:0:0:
466,229,271091,2,0,L|449:127,1,97.50000371933,4|0,3:2|0:0,0:0:0:0:
289,0,271485,2,0,L|271:118,1,97.50000371933,0|0,3:2|0:0,0:0:0:0:
138,384,271880,5,6,3:2:0:0:
130,364,271978,1,0,3:2:0:0:
127,342,272077,1,0,3:2:0:0:
128,322,272176,1,0,3:2:0:0:
135,302,272274,1,0,3:2:0:0:
146,283,272373,1,0,3:2:0:0:
160,268,272472,5,10,0:0:0:0:
116,302,272570,1,8,0:0:0:0:
61,304,272669,1,12,0:0:0:0:
16,271,272768,1,8,0:0:0:0:
0,219,272866,1,8,0:0:0:0:
21,167,272965,1,8,0:0:0:0:
68,137,273064,5,10,3:3:0:0:
121,187,273162,1,10,3:3:0:0:
196,206,273261,1,10,3:3:0:0:
271,188,273360,1,10,3:3:0:0:
329,139,273459,6,0,P|338:95|318:39,1,97.50000371933,6|0,3:2|0:0,0:0:0:0:
236,284,273854,1,0,3:2:0:0:
408,228,274051,1,0,3:2:0:0:
229,97,274249,5,10,0:0:0:0:
38,231,274446,1,8,0:0:0:0:
99,2,274643,1,8,0:0:0:0:
241,272,274841,6,0,L|264:172,1,97.50000371933,2|0,3:2|0:0,0:0:0:0:
128,384,275235,2,0,L|106:288,1,97.50000371933,8|0,0:0|0:0,0:0:0:0:
157,192,275630,1,0,3:2:0:0:
315,344,275828,2,0,P|373:351|418:314,1,97.50000371933,10|0,0:0|3:2,0:0:0:0:
486,178,276222,5,10,0:0:0:0:
478,129,276321,1,8,0:0:0:0:
470,81,276420,1,8,0:0:0:0:
462,33,276518,1,8,0:0:0:0:
421,2,276617,6,0,L|303:-10,1,84.4999961318971,6|0,3:2|0:0,0:0:0:0:
196,142,277012,1,0,3:2:0:0:
312,95,277209,1,0,3:2:0:0:
71,110,277406,5,10,0:0:0:0:
228,246,277604,1,8,0:0:0:0:
40,317,277801,1,8,0:0:0:0:
319,371,277999,6,0,L|202:353,1,84.4999961318971,2|0,3:2|0:0,0:0:0:0:
418,219,278393,2,0,L|535:201,1,84.4999961318971,8|0,0:0|0:0,0:0:0:0:
341,283,278788,1,0,3:2:0:0:
248,153,278985,2,0,P|242:79|267:52,1,84.4999961318971,10|0,0:0|3:2,0:0:0:0:
163,311,279380,5,10,0:0:0:0:
116,331,279479,1,8,0:0:0:0:
67,324,279578,1,8,0:0:0:0:
28,292,279676,1,8,0:0:0:0:
19,242,279775,6,0,L|37:131,1,84.4999961318971,6|0,3:2|0:0,0:0:0:0:
199,48,280170,1,0,3:2:0:0:
135,130,280367,1,0,3:2:0:0:
418,251,280564,5,10,0:0:0:0:
241,148,280762,1,8,0:0:0:0:
102,297,280959,1,8,0:0:0:0:
373,180,281156,6,0,L|352:82,1,84.4999961318971,2|0,3:2|0:0,0:0:0:0:
495,283,281551,2,0,L|516:185,1,84.4999961318971,8|0,0:0|0:0,0:0:0:0:
379,332,281946,1,0,3:2:0:0:
196,261,282143,2,0,P|244:243|294:268,1,84.4999961318971,10|0,0:0|3:2,0:0:0:0:
78,348,282538,5,10,0:0:0:0:
85,277,282669,1,8,0:0:0:0:
93,207,282801,1,8,0:0:0:0:
56,143,282933,6,0,B|89:173|89:173|155:199|216:139,1,168.999992263794,6|0,3:2|1:2,0:0:0:0:
304,195,283525,1,2,0:0:0:0:
356,29,283722,2,0,P|372:87|342:143,1,84.4999961318971,8|2,0:0|0:0,0:0:0:0:
222,194,284117,5,8,0:0:0:0:
307,189,284249,1,8,0:0:0:0:
367,247,284380,2,0,P|377:279|371:311,1,56.3333307545981,8|0,0:0|3:2,0:0:0:0:
472,129,284709,2,0,B|488:169|468:200|468:200|474:207|474:207|456:238|480:298,1,143.000004364014,2|0,3:2|3:2,0:0:0:0:
512,384,285301,5,14,0:0:0:0:
334,86,285564,5,14,0:0:0:0:
60,298,285828,5,14,0:0:0:0:
60,298,285959,1,8,0:0:0:0:
60,298,286091,6,0,P|49:215|97:172,1,97.50000371933,6|0,3:2|0:0,0:0:0:0:
150,321,286485,1,0,3:2:0:0:
5,376,286683,1,0,3:2:0:0:
147,170,286880,5,10,0:0:0:0:
300,328,287078,1,8,0:0:0:0:
402,134,287275,1,8,0:0:0:0:
469,384,287472,6,0,L|493:287,1,97.50000371933,2|0,3:2|0:0,0:0:0:0:
292,335,287867,2,0,L|268:238,1,97.50000371933,8|0,0:0|0:0,0:0:0:0:
387,356,288262,1,0,3:2:0:0:
203,384,288459,2,0,P|145:371|111:326,1,97.50000371933,10|0,0:0|3:2,0:0:0:0:
14,223,288854,5,10,0:0:0:0:
24,175,288953,1,8,0:0:0:0:
34,127,289051,1,8,0:0:0:0:
45,80,289150,1,8,0:0:0:0:
85,47,289249,6,0,L|185:36,1,81.25,6|0,3:2|0:0,0:0:0:0:
285,122,289643,1,0,3:2:0:0:
162,172,289841,1,0,3:2:0:0:
328,14,290038,5,10,0:0:0:0:
363,224,290235,1,8,0:0:0:0:
455,38,290433,1,8,0:0:0:0:
256,216,290630,6,0,L|277:321,1,81.25,2|0,3:2|0:0,0:0:0:0:
153,161,291025,2,0,L|132:266,1,81.25,8|0,0:0|0:0,0:0:0:0:
40,275,291420,1,0,3:2:0:0:
39,94,291617,2,0,L|60:199,1,81.25,10|0,0:2|3:2,0:0:0:0:
197,325,292012,5,10,0:2:0:0:
240,317,292110,1,8,0:2:0:0:
284,310,292209,1,8,0:2:0:0:
328,303,292308,1,8,0:2:0:0:
371,316,292406,6,0,L|383:231,1,65,6|0,3:2|0:0,0:0:0:0:
335,153,292801,1,0,3:2:0:0:
246,193,292999,1,0,3:2:0:0:
79,71,293196,5,10,0:0:0:0:
179,77,293393,2,0,L|259:86,1,65,8|0,0:0|0:0,0:0:0:0:
418,228,293788,5,2,3:2:0:0:
200,276,293985,1,8,0:0:0:0:
337,344,294183,2,0,L|351:268,1,65,8|0,0:0|0:0,0:0:0:0:
280,222,294578,1,0,3:2:0:0:
0,363,294775,5,0,1:2:0:0:
118,226,294972,1,8,0:2:0:0:
8,90,295170,1,10,0:2:0:0:
18,5,295367,6,0,B|68:15|88:48|91:85|91:85|138:46|189:62|189:62|251:85|304:35|304:35|304:112|243:148|243:148|194:177|169:217|196:343|269:285|314:346|363:242|363:242|383:198|414:183|414:183|445:169|478:182|478:182|510:194|539:181,1,1021.47500639045,4|0,3:1|0:0,0:0:0:0:
