osu file format v14

[General]
AudioFilename: audio.mp3
AudioLeadIn: 0
PreviewTime: 205578
Countdown: 0
SampleSet: Soft
StackLeniency: 0.5
Mode: 0
LetterboxInBreaks: 0
EpilepsyWarning: 1
WidescreenStoryboard: 1

[Editor]
Bookmarks: 578,4133,18355,32578,46800,61022,75244,85911,93022,100133,114355,128578,142800,153466,160578,164133,178355,192578,206800,221022,231689,242355,256578
DistanceSpacing: 1.75
BeatDivisor: 8
GridSize: 16
TimelineZoom: 1.5

[Metadata]
Title:Lost
TitleUnicode:只知感覺失了蹤
Artist:Dear Jane
ArtistUnicode:Dear Jane
Creator:Kencho
Version:Days Gone By
Source:
Tags:yf_bmp 101 Cantonese Hong Kong
BeatmapID:1716307
BeatmapSetID:818551

[Difficulty]
HPDrainRate:5.5
CircleSize:4
OverallDifficulty:7.3
ApproachRate:8.1
SliderMultiplier:3.2
SliderTickRate:2

[Events]
//Background and Video events
0,0,"BG.jpg",0,0
//Break Periods
//Storyboard Layer 0 (Background)
//Storyboard Layer 1 (Fail)
//Storyboard Layer 2 (Pass)
//Storyboard Layer 3 (Foreground)
//Storyboard Sound Samples

[TimingPoints]
578,888.888888888889,4,2,1,15,1,0
1466,-100,4,2,1,25,0,0
2355,-100,4,2,1,20,0,0
3244,-100,4,2,1,40,0,0
4133,-142.857142857143,4,2,1,50,0,0
18355,-142.857142857143,4,2,1,55,0,0
25244,-142.857142857143,4,2,1,5,0,0
25466,-142.857142857143,4,2,1,55,0,0
39466,-142.857142857143,4,2,1,5,0,0
39689,-142.857142857143,4,2,1,55,0,0
46800,-142.857142857143,4,2,1,50,0,0
57466,-142.857142857143,4,2,1,55,0,0
60133,-142.857142857143,4,2,1,60,0,0
60911,-142.857142857143,4,2,1,5,0,0
61022,-125,4,2,1,60,0,1
91522,-125,4,2,1,60,0,0
92800,-125,4,2,1,5,0,0
92911,-125,4,2,1,60,0,0
93022,-111.111111111111,4,2,1,60,0,0
100133,-111.111111111111,4,2,1,55,0,0
114355,-111.111111111111,4,2,1,60,0,0
125022,-111.111111111111,4,2,1,65,0,0
127022,-90.9090909090908,4,2,1,65,0,0
127466,-111.111111111111,4,2,1,65,0,0
127689,-111.111111111111,4,2,1,70,0,0
128578,-100,4,2,1,70,0,1
142689,-100,4,2,1,70,0,0
142800,-100,4,2,1,70,0,1
151578,-100,4,2,1,5,0,1
151689,-100,4,2,1,70,0,1
153800,-100,4,2,1,5,0,1
153911,-100,4,2,1,70,0,1
157355,-100,4,2,1,5,0,1
157466,-100,4,2,1,70,0,1
160578,-90.9090909090909,4,2,1,65,0,0
161466,-83.3333333333333,4,2,1,65,0,0
162355,-76.9230769230769,4,2,1,65,0,0
163244,-90.9090909090909,4,2,1,65,0,0
164133,-90.9090909090909,4,2,1,70,0,0
178355,-90.9090909090909,4,2,1,75,0,0
181911,-90.9090909090909,4,2,1,70,0,0
185466,-90.9090909090909,4,2,1,65,0,0
189022,-90.9090909090909,4,2,1,60,0,0
192578,-90.9090909090909,4,2,1,70,0,0
195466,-90.9090909090909,4,2,1,35,0,0
195578,-90.9090909090909,4,2,1,40,0,0
195689,-90.9090909090909,4,2,1,50,0,0
195800,-90.9090909090909,4,2,1,55,0,0
195911,-90.9090909090909,4,2,1,60,0,0
196022,-90.9090909090909,4,2,1,65,0,0
196133,-90.9090909090909,4,2,1,70,0,0
199244,-90.9090909090909,4,2,1,50,0,0
199355,-90.9090909090909,4,2,1,55,0,0
199466,-90.9090909090909,4,2,1,60,0,0
199578,-90.9090909090909,4,2,1,65,0,0
199689,-90.9090909090909,4,2,1,70,0,0
202578,-90.9090909090909,4,2,1,35,0,0
202689,-90.9090909090909,4,2,1,40,0,0
202800,-90.9090909090909,4,2,1,50,0,0
202911,-90.9090909090909,4,2,1,55,0,0
203022,-90.9090909090909,4,2,1,60,0,0
203133,-90.9090909090909,4,2,1,65,0,0
203244,-90.9090909090909,4,2,1,80,0,0
205022,-83.3333333333333,4,2,1,85,0,0
206355,-71.4285714285714,4,2,1,90,0,0
206800,-83.3333333333333,4,2,1,80,0,1
220911,-83.3333333333333,4,2,1,80,0,0
221022,-83.3333333333333,4,2,1,80,0,1
228022,-83.3333333333333,4,2,1,80,0,0
228133,-83.3333333333333,4,2,1,80,0,1
229800,-83.3333333333333,4,2,1,5,0,1
229911,-83.3333333333333,4,2,1,80,0,1
231578,-83.3333333333333,4,2,1,80,0,0
231689,-83.3333333333333,4,2,1,80,0,1
232022,-83.3333333333333,4,2,1,5,0,1
232133,-83.3333333333333,4,2,1,80,0,1
235133,-83.3333333333333,4,2,1,80,0,0
235244,-83.3333333333333,4,2,1,80,0,1
235578,-83.3333333333333,4,2,1,5,0,1
235689,-83.3333333333333,4,2,1,80,0,1
238689,-83.3333333333333,4,2,1,80,0,0
238800,-83.3333333333333,4,2,1,80,0,1
239133,-83.3333333333333,4,2,1,5,0,1
239244,-83.3333333333333,4,2,1,80,0,1
240578,-100,4,2,1,80,0,0
240633,-100,4,2,1,20,0,0
241911,-100,4,2,1,80,0,0
242244,-100,4,2,1,5,0,0
242355,-125,4,2,1,60,0,0
257022,-125,4,2,1,50,0,0
257466,-125,4,2,1,47,0,0
257911,-125,4,2,1,44,0,0
258355,-125,4,2,1,41,0,0
258800,-125,4,2,1,38,0,0
259244,-125,4,2,1,35,0,0
259689,-125,4,2,1,32,0,0
260133,-125,4,2,1,29,0,0
260578,-125,4,2,1,26,0,0
261022,-125,4,2,1,23,0,0
261466,-125,4,2,1,20,0,0
261911,-125,4,2,1,17,0,0
262355,-125,4,2,1,14,0,0
262800,-125,4,2,1,11,0,0
263244,-125,4,2,1,8,0,0
263689,-125,4,2,1,5,0,0

[Colours]
Combo1 : 32,64,96
Combo2 : 255,192,96
Combo3 : 255,152,80
Combo4 : 255,112,64
Combo5 : 255,72,48
Combo6 : 192,192,192
Combo7 : 96,96,96
Combo8 : 128,192,160

[HitObjects]
129,299,578,5,0,0:0:0:0:
140,252,1466,5,0,0:0:0:0:
207,195,2355,5,0,0:0:0:0:
334,207,3244,5,8,1:3:0:0:
334,207,4133,38,0,L|344:151,2,55.9999982910157,8|0|0,3:3|0:0|3:0,0:0:0:0:
319,290,4800,1,0,3:0:0:0:
255,235,5022,2,0,P|226:236|202:247,1,55.9999982910157,8|0,0:3|0:0,0:0:0:0:
141,305,5466,2,0,P|112:304|88:293,1,55.9999982910157,0|0,3:0|0:0,0:0:0:0:
43,221,5911,1,8,3:3:0:0:
43,221,6133,1,0,0:0:0:0:
81,146,6355,1,0,3:0:0:0:
81,146,6578,1,0,3:0:0:0:
185,184,6800,2,0,P|236:170|262:120,1,111.999996582031,8|8,3:3|0:3,0:0:0:0:
262,120,7689,6,0,P|289:113|318:115,2,55.9999982910157,8|0|0,3:3|0:0|3:0,0:0:0:0:
193,169,8355,1,0,3:0:0:0:
249,232,8578,2,0,P|256:259|254:288,1,55.9999982910157,8|0,0:3|0:0,0:0:0:0:
186,336,9022,2,0,P|159:328|135:312,1,55.9999982910157,0|0,3:0|0:0,0:0:0:0:
109,233,9466,1,8,3:3:0:0:
109,233,9689,1,0,0:0:0:0:
55,297,9911,1,0,3:0:0:0:
55,297,10133,1,0,3:0:0:0:
47,185,10355,2,0,P|92:157|148:165,1,111.999996582031,8|0,3:3|0:0,0:0:0:0:
148,165,11244,102,0,L|203:172,1,55.9999982910157,8|0,3:3|0:0,0:0:0:0:
231,251,11689,1,0,3:0:0:0:
305,211,11911,6,0,P|332:209|361:216,1,55.9999982910157,0|8,3:0|0:3,0:0:0:0:
231,251,12355,1,0,0:0:0:0:
231,251,12578,1,0,3:0:0:0:
305,211,12800,102,0,P|332:209|361:216,1,55.9999982910157,0|8,3:0|0:3,0:0:0:0:
231,251,13244,1,0,0:0:0:0:
231,251,13466,1,0,3:0:0:0:
231,251,13689,1,0,0:0:0:0:
305,211,13911,6,0,P|360:216|400:253,1,111.999996582031,8|8,3:3|0:3,0:0:0:0:
400,253,14800,102,0,L|405:198,1,55.9999982910157,8|0,3:3|0:0,0:0:0:0:
414,113,15244,5,0,3:0:0:0:
328,185,15466,2,0,P|302:193|272:192,2,55.9999982910157,0|8|0,3:0|0:3|0:0,0:0:0:0:
291,109,16133,101,0,3:0:0:0:
198,172,16355,2,0,P|170:173|143:165,1,55.9999982910157,0|8,3:0|0:3,0:0:0:0:
181,88,16800,5,0,0:0:0:0:
291,109,17022,2,0,P|319:110|346:102,1,55.9999982910157,0|0,3:0|0:0,0:0:0:0:
443,47,17466,2,0,L|432:158,1,111.999996582031,8|0,3:3|0:0,0:0:0:0:
432,158,18355,101,8,3:3:0:0:
242,38,18800,2,0,L|248:93,1,55.9999982910157,0|0,0:0|3:0,0:0:0:0:
329,113,19244,2,0,P|320:139|299:160,1,55.9999982910157,8|0,0:3|0:0,0:0:0:0:
188,146,19689,1,0,3:0:0:0:
188,146,19911,2,0,L|199:257,1,111.999996582031,0|0,0:0|0:0,0:0:0:0:
140,318,20578,1,0,3:0:0:0:
140,318,20800,2,0,L|85:305,1,55.9999982910157,0|8,3:0|3:3,0:0:0:0:
199,257,21244,1,0,0:0:0:0:
244,360,21466,1,8,0:3:0:0:
244,360,21911,85,8,3:3:0:0:
412,213,22355,2,0,L|406:158,1,55.9999982910157,0|0,0:0|3:0,0:0:0:0:
338,106,22800,2,0,P|310:104|284:111,1,55.9999982910157,8|0,0:3|0:0,0:0:0:0:
225,172,23244,1,0,3:0:0:0:
225,172,23466,2,0,P|229:115|215:62,1,111.999996582031,0|0,0:0|0:0,0:0:0:0:
146,14,24133,1,0,3:0:0:0:
146,14,24355,2,0,L|91:20,1,55.9999982910157,0|8,3:0|3:3,0:0:0:0:
215,62,24800,2,0,L|326:51,1,111.999996582031,0|0,0:0|0:0,0:0:0:0:
402,86,25466,21,8,3:3:0:0:
263,262,25911,2,0,L|257:207,1,55.9999982910157,0|0,0:0|3:0,0:0:0:0:
176,187,26355,2,0,P|185:161|206:140,1,55.9999982910157,8|0,0:3|0:0,0:0:0:0:
287,123,26800,1,0,3:0:0:0:
287,123,27022,2,0,P|237:102|206:56,1,111.999996582031,0|0,0:0|0:0,0:0:0:0:
277,11,27689,1,0,3:0:0:0:
277,11,27911,2,0,P|301:23|319:47,1,55.9999982910157,0|8,3:0|3:3,0:0:0:0:
287,123,28355,1,0,0:0:0:0:
406,198,28578,1,8,0:3:0:0:
406,198,29022,85,8,3:3:0:0:
192,330,29466,2,0,L|185:275,1,55.9999982910157,0|0,0:0|3:0,0:0:0:0:
250,176,29911,2,0,L|257:231,1,55.9999982910157,8|0,0:3|0:0,0:0:0:0:
169,154,30355,1,0,3:0:0:0:
169,154,30578,2,0,P|167:124|177:94,1,55.9999982910157,0|8,0:0|3:3,0:0:0:0:
237,44,31022,2,0,L|296:52,2,55.9999982910157,0|0|0,3:0|3:0|3:0,0:0:0:0:
303,135,31689,1,8,3:3:0:0:
369,84,31911,1,0,0:0:0:0:
313,218,32133,1,0,3:0:0:0:
313,218,32578,21,8,3:3:0:0:
81,315,33022,2,0,L|136:322,1,55.9999982910157,0|0,0:0|3:0,0:0:0:0:
213,358,33466,2,0,P|221:331|219:304,1,55.9999982910157,8|0,0:3|0:0,0:0:0:0:
161,242,33911,1,0,0:0:0:0:
161,242,34133,2,0,L|174:130,1,111.999996582031,0|0,0:0|0:0,0:0:0:0:
184,47,34800,1,0,3:0:0:0:
184,47,35022,2,0,P|211:54|233:71,1,55.9999982910157,0|8,3:0|3:3,0:0:0:0:
255,152,35466,1,0,0:0:0:0:
381,90,35689,1,8,0:3:0:0:
381,90,36133,85,8,3:3:0:0:
424,339,36578,2,0,L|429:281,1,55.9999982910157,0|0,0:0|3:0,0:0:0:0:
347,206,37022,2,0,L|352:264,1,55.9999982910157,8|0,0:3|0:0,0:0:0:0:
298,326,37466,1,0,0:0:0:0:
298,326,37689,2,0,B|236:347|250:311|188:327,1,111.999996582031,0|0,0:0|0:0,0:0:0:0:
115,367,38355,1,0,3:0:0:0:
115,367,38578,2,0,L|106:312,1,55.9999982910157,0|8,3:0|3:3,0:0:0:0:
33,270,39022,2,0,L|51:159,1,111.999996582031,0|0,0:0|0:0,0:0:0:0:
22,80,39689,22,0,B|59:74|59:74|94:86|94:86|131:80,1,111.999996582031,8|0,3:3|0:0,0:0:0:0:
190,139,40355,1,0,3:0:0:0:
190,139,40578,2,0,L|245:131,1,55.9999982910157,8|0,0:3|0:0,0:0:0:0:
325,102,41022,2,0,B|333:141|333:141|322:174|322:174|330:212,1,111.999996582031,0|8,0:0|3:3,0:0:0:0:
347,293,41689,1,0,0:0:0:0:
347,293,41911,2,0,P|374:285|393:265,1,55.9999982910157,0|0,3:0|3:0,0:0:0:0:
267,267,42355,2,0,L|156:285,1,111.999996582031,8|8,3:3|0:3,0:0:0:0:
92,339,43022,1,0,0:0:0:0:
145,257,43244,86,0,B|159:232|159:232|165:191|146:151,1,111.999996582031,8|0,3:3|0:0,0:0:0:0:
92,86,43911,1,0,3:0:0:0:
174,139,44133,22,0,B|199:153|199:153|240:159|280:140,1,111.999996582031,8|0,3:3|0:0,0:0:0:0:
345,85,44800,1,0,0:0:0:0:
292,167,45022,86,0,B|278:192|278:192|272:233|291:273,1,111.999996582031,8|0,3:3|3:0,0:0:0:0:
345,338,45689,1,0,3:0:0:0:
426,316,45911,22,0,P|433:289|432:261,1,55.9999982910157,8|0,3:3|0:0,0:0:0:0:
420,178,46355,1,0,3:0:0:0:
497,210,46578,1,0,0:0:0:0:
431,95,46800,6,0,P|402:95|377:106,1,55.9999982910157,8|0,3:3|0:0,0:0:0:0:
309,164,47244,2,0,L|253:153,1,55.9999982910157,0|0,3:0|3:0,0:0:0:0:
166,138,47689,1,8,0:3:0:0:
166,138,47911,1,0,3:0:0:0:
101,199,48133,1,0,3:0:0:0:
101,199,48355,2,0,P|76:150|87:96,1,111.999996582031,0|0,3:0|0:0,0:0:0:0:
187,225,49022,2,0,L|181:280,1,55.9999982910157,0|0,0:0|0:0,0:0:0:0:
118,373,49466,2,0,P|145:371|172:361,1,55.9999982910157,8|0,3:3|0:0,0:0:0:0:
248,324,49911,2,0,P|275:326|302:336,1,55.9999982910157,8|0,0:3|0:0,0:0:0:0:
371,384,50355,86,0,B|349:367|349:367|343:324|360:285,1,111.999996582031,8|0,3:3|3:0,0:0:0:0:
407,214,51022,1,0,3:0:0:0:
407,214,51244,2,0,L|401:159,1,55.9999982910157,8|0,0:3|3:0,0:0:0:0:
462,101,51689,1,0,3:0:0:0:
462,101,51911,2,0,B|400:122|414:86|352:102,1,111.999996582031,0|0,3:0|0:0,0:0:0:0:
278,141,52578,2,0,P|269:114|270:85,1,55.9999982910157,0|0,0:0|0:0,0:0:0:0:
349,186,53022,2,0,P|350:240|332:294,1,111.999996582031,8|0,3:3|0:0,0:0:0:0:
94,378,53911,22,0,L|150:367,1,55.9999982910157,8|0,3:3|0:0,0:0:0:0:
215,308,54355,2,0,P|215:279|204:254,1,55.9999982910157,0|0,3:0|3:0,0:0:0:0:
142,198,54800,1,8,0:3:0:0:
142,198,55022,1,0,3:0:0:0:
222,173,55244,1,0,3:0:0:0:
222,173,55466,2,0,B|195:181|195:181|187:139|201:98,1,111.999996582031,0|0,3:0|0:0,0:0:0:0:
281,125,56133,2,0,P|308:128|336:123,1,55.9999982910157,0|0,0:0|0:0,0:0:0:0:
399,179,56578,2,0,P|382:200|372:227,1,55.9999982910157,8|0,3:3|0:0,0:0:0:0:
293,254,57022,2,0,P|282:228|264:206,1,55.9999982910157,8|0,0:3|0:0,0:0:0:0:
194,139,57466,86,0,B|157:133|157:133|122:145|122:145|85:139,1,111.999996582031,8|0,3:3|3:0,0:0:0:0:
90,17,58133,1,0,3:0:0:0:
90,17,58355,2,0,P|108:39|115:65,1,55.9999982910157,8|0,0:3|3:0,0:0:0:0:
23,189,58800,2,0,L|34:78,1,111.999996582031,0|8,3:0|0:3,0:0:0:0:
34,77,59911,37,0,0:0:0:0:
23,189,60133,1,8,3:3:0:0:
106,114,60355,1,0,0:0:0:0:
117,226,60578,2,0,P|119:268|109:309,1,83.9999974365235,0|0,0:0|0:0,0:0:0:0:
82,348,61022,5,6,0:3:0:0:
82,348,61466,38,0,L|145:339,1,64,0|0,0:0|3:0,0:0:0:0:
223,384,61911,2,0,B|236:346|236:346|221:260,1,128,8|0,0:3|3:0,0:0:0:0:
221,259,62800,2,0,P|271:295|334:283,1,128,8|0,0:3|0:0,0:0:0:0:
401,226,63466,2,0,L|390:162,1,64,0|8,3:0|3:3,0:0:0:0:
374,74,63911,1,0,0:0:0:0:
306,132,64133,1,8,3:3:0:0:
390,163,64355,1,2,0:0:0:0:
290,43,64578,53,6,0:3:0:0:
290,43,65022,70,0,L|227:52,1,64,0|0,0:0|3:0,0:0:0:0:
149,8,65466,2,0,B|136:46|136:46|151:132,1,128,8|0,0:3|0:0,0:0:0:0:
151,132,66355,2,0,P|205:163|215:224,1,128,8|0,0:3|0:0,0:0:0:0:
167,300,67022,2,0,L|104:291,1,64,0|8,3:0|0:3,0:0:0:0:
238,355,67466,2,0,L|301:346,1,64,0|0,0:0|0:0,0:0:0:0:
351,271,67911,1,2,0:0:0:0:
432,370,68133,37,6,0:3:0:0:
432,370,68578,54,0,B|443:339|443:339|438:309,1,64,0|0,0:0|3:0,0:0:0:0:
425,220,69022,2,0,P|374:184|312:190,1,128,8|0,0:3|0:0,0:0:0:0:
214,274,69689,2,0,L|223:211,1,64,0|8,3:0|0:3,0:0:0:0:
294,64,70133,2,0,L|312:192,1,128,0|0,0:0|3:0,0:0:0:0:
273,293,70800,2,0,P|241:290|215:274,1,64,8|0,0:3|0:0,0:0:0:0:
182,190,71244,1,8,0:3:0:0:
128,306,71466,1,2,0:0:0:0:
123,120,71689,6,0,P|182:99|241:120,1,128,6|0,0:3|3:0,0:0:0:0:
348,306,72578,2,0,P|300:266|289:204,1,128,8|0,0:3|0:0,0:0:0:0:
397,18,73466,2,0,P|385:80|337:121,1,128,8|0,0:3|0:0,0:0:0:0:
241,120,74133,37,0,0:0:0:0:
290,36,74355,1,8,0:3:0:0:
289,204,74578,1,0,0:0:0:0:
144,120,74800,2,0,P|112:122|84:137,1,64,8|0,3:3|3:0,0:0:0:0:
50,293,75244,5,6,0:3:0:0:
50,293,75689,38,0,L|45:229,1,64,0|0,0:0|0:0,0:0:0:0:
135,263,76133,2,0,P|196:271|244:231,1,128,8|0,0:3|0:0,0:0:0:0:
266,137,76800,2,0,L|393:154,1,128,0|0,3:0|3:0,0:0:0:0:
450,231,77466,1,0,3:0:0:0:
499,148,77689,2,0,P|495:115|481:85,1,64,0|8,3:0|0:3,0:0:0:0:
425,27,78133,1,0,0:0:0:0:
368,96,78355,1,8,0:3:0:0:
316,0,78578,1,2,0:0:0:0:
260,115,78800,53,6,3:3:0:0:
260,115,79244,54,0,L|196:107,1,64,0|0,3:0|3:0,0:0:0:0:
114,71,79689,2,0,P|154:131|148:184,1,128,8|0,0:3|0:0,0:0:0:0:
82,244,80355,2,0,L|210:228,1,128,0|0,0:0|3:0,0:0:0:0:
298,240,81022,1,0,3:0:0:0:
266,158,81244,2,0,P|264:127|274:86,1,64,0|8,3:0|0:3,0:0:0:0:
209,228,81689,1,0,0:0:0:0:
177,146,81911,2,0,P|175:115|185:74,1,64,0|0,0:0|0:0,0:0:0:0:
119,215,82355,6,0,P|88:159|100:99,2,128,6|0|8,0:3|0:0|0:3,0:0:0:0:
119,215,83689,2,0,B|125:257|125:257|112:297|112:297|119:339,1,128,0|8,0:0|0:3,0:0:0:0:
119,340,84578,1,0,3:0:0:0:
195,305,84800,1,0,3:0:0:0:
287,363,85022,2,0,P|319:366|349:357,1,64,8|0,0:3|0:0,0:0:0:0:
401,292,85466,37,8,0:3:0:0:
460,384,85689,1,2,0:0:0:0:
505,264,85911,54,0,P|511:199|488:142,1,128,6|0,0:3|0:0,0:0:0:0:
488,142,86800,2,0,L|354:161,1,128,8|0,0:3|0:0,0:0:0:0:
255,237,87466,2,0,L|319:228,1,64,0|8,0:0|0:3,0:0:0:0:
361,160,87911,2,0,B|347:209|367:254|367:254|392:236,1,128,0|0,0:0|3:0,0:0:0:0:
419,110,88578,2,0,P|394:90|364:84,1,64,8|0,3:3|0:0,0:0:0:0:
258,113,89022,53,0,0:0:0:0:
199,21,89244,1,0,0:0:0:0:
154,141,89466,70,0,P|148:206|171:263,1,128,6|0,0:3|3:0,0:0:0:0:
171,263,90355,2,0,L|37:244,1,128,8|0,0:3|0:0,0:0:0:0:
61,102,91022,2,0,P|71:131|70:164,1,64,0|0,0:0|0:0,0:0:0:0:
7,275,91522,101,0,0:0:0:0:
7,275,92466,6,0,P|55:270|92:242,1,96,0|0,0:0|0:0,0:0:0:0:
114,206,92911,1,0,1:0:0:0:
114,206,93022,6,0,L|131:348,1,143.999995605469,2|0,3:0|1:0,0:0:0:0:
62,381,93689,1,2,3:0:0:0:
199,316,93911,2,0,L|270:331,1,71.9999978027344,8|0,0:0|0:0,0:0:0:0:
341,381,94355,2,0,P|356:348|355:313,1,71.9999978027344,0|0,3:0|0:0,0:0:0:0:
313,190,94800,6,0,P|298:223|299:258,1,71.9999978027344,0|0,3:0|0:0,0:0:0:0:
384,240,95244,1,0,1:0:0:0:
384,240,95466,1,2,3:0:0:0:
449,136,95689,2,0,L|441:63,1,71.9999978027344,8|0,0:0|0:0,0:0:0:0:
345,15,96133,2,0,L|337:90,1,71.9999978027344,0|0,3:0|1:0,0:0:0:0:
332,133,96466,1,0,1:0:0:0:
332,133,96578,102,0,B|292:139|292:139|189:119,1,143.999995605469,2|0,3:0|1:0,0:0:0:0:
126,66,97244,1,2,3:0:0:0:
159,196,97466,2,0,P|163:229|152:271,1,71.9999978027344,8|0,0:0|0:0,0:0:0:0:
13,311,97911,2,0,P|46:296|87:295,1,71.9999978027344,0|0,1:0|0:0,0:0:0:0:
191,337,98355,6,0,P|263:333|331:307,1,143.999995605469,0|0,3:0|1:0,0:0:0:0:
319,215,99022,1,2,1:2:0:0:
419,356,99244,2,0,L|436:213,1,143.999995605469,8|0,0:0|0:0,0:0:0:0:
450,101,99911,1,0,1:0:0:0:
449,107,100022,1,0,1:0:0:0:
448,113,100133,102,0,L|306:134,1,143.999995605469,2|0,3:0|1:0,0:0:0:0:
336,223,100800,1,2,3:3:0:0:
229,211,101022,2,0,P|197:147|212:79,1,143.999995605469,8|0,0:0|1:0,0:0:0:0:
305,134,101689,1,0,0:0:0:0:
229,211,101911,86,0,L|158:202,1,71.9999978027344,0|0,3:0|1:0,0:0:0:0:
81,253,102355,1,0,1:0:0:0:
81,253,102578,1,2,3:0:0:0:
96,134,102800,2,0,L|105:63,1,71.9999978027344,8|8,0:0|0:3,0:0:0:0:
198,8,103244,2,0,P|210:41|212:77,1,71.9999978027344,8|0,1:3|1:0,0:0:0:0:
199,123,103578,1,0,1:0:0:0:
199,123,103689,22,0,B|250:129|250:129|292:109|292:109|338:115,1,143.999995605469,2|0,3:0|1:0,0:0:0:0:
307,196,104355,1,2,3:0:0:0:
424,127,104578,2,0,P|405:61|341:29,1,143.999995605469,8|0,0:0|1:0,0:0:0:0:
231,35,105244,1,0,0:0:0:0:
199,123,105466,86,0,P|234:129|270:120,1,71.9999978027344,0|0,3:0|1:0,0:0:0:0:
138,51,105911,1,0,1:0:0:0:
138,51,106133,1,2,3:0:0:0:
107,161,106355,2,0,L|120:231,1,71.9999978027344,8|8,0:0|0:3,0:0:0:0:
75,384,106800,2,0,L|61:313,1,71.9999978027344,8|0,1:3|1:0,0:0:0:0:
52,268,107133,1,0,1:0:0:0:
52,268,107244,22,0,B|85:278|85:278|193:258,1,143.999995605469,2|0,3:0|1:0,0:0:0:0:
285,240,107911,1,2,3:0:0:0:
327,339,108133,2,0,P|363:340|396:326,1,71.9999978027344,8|0,0:0|0:0,0:0:0:0:
448,248,108578,1,0,1:0:0:0:
491,334,108800,1,0,0:0:0:0:
448,248,109022,86,0,L|462:175,1,71.9999978027344,0|0,3:0|1:0,0:0:0:0:
485,72,109466,1,0,1:0:0:0:
485,72,109689,1,2,3:0:0:0:
372,161,109911,2,0,P|336:155|306:137,1,71.9999978027344,8|8,0:0|0:3,0:0:0:0:
260,0,110355,2,0,P|273:34|272:69,1,71.9999978027344,8|0,1:3|1:0,0:0:0:0:
237,101,110689,1,0,1:0:0:0:
237,101,110800,22,0,L|94:87,1,143.999995605469,2|0,3:0|1:0,0:0:0:0:
8,79,111466,1,2,3:0:0:0:
58,194,111689,86,0,L|201:180,1,143.999995605469,8|0,0:0|1:0,0:0:0:0:
287,172,112355,1,0,0:0:0:0:
237,287,112578,22,0,L|166:280,1,71.9999978027344,0|0,3:0|1:0,0:0:0:0:
79,272,113022,1,0,1:0:0:0:
79,272,113244,1,2,3:0:0:0:
163,204,113466,86,0,P|176:173|176:135,1,71.9999978027344,8|8,0:0|0:3,0:0:0:0:
40,110,113911,2,0,P|60:136|93:155,1,71.9999978027344,8|0,1:3|0:0,0:0:0:0:
197,55,114355,38,0,L|126:62,1,71.9999978027344,2|0,0:0|0:0,0:0:0:0:
263,142,114800,2,0,L|334:135,1,71.9999978027344,0|0,3:0|3:0,0:0:0:0:
422,71,115244,1,8,3:2:0:0:
412,171,115466,1,0,3:0:0:0:
422,71,115689,2,0,L|429:0,1,71.9999978027344,8|0,0:3|3:0,0:0:0:0:
499,107,116133,85,2,0:0:0:0:
499,107,116578,2,0,B|506:142|506:142|499:177,1,71.9999978027344,2|0,3:0|3:0,0:0:0:0:
401,281,117022,2,0,L|258:267,1,143.999995605469,8|0,0:0|0:0,0:0:0:0:
258,267,117911,22,0,L|265:338,2,71.9999978027344,2|0|0,0:0|3:0|3:0,0:0:0:0:
249,174,118578,1,0,3:0:0:0:
162,270,118800,2,0,P|128:275|93:263,1,71.9999978027344,8|0,0:0|0:0,0:0:0:0:
39,186,119244,2,0,L|46:115,1,71.9999978027344,8|0,3:3|3:0,0:0:0:0:
87,30,119689,85,2,0:0:0:0:
165,82,119911,2,0,L|236:75,1,71.9999978027344,0|2,0:0|0:0,0:0:0:0:
303,9,120355,1,0,3:0:0:0:
280,152,120578,2,0,P|279:186|290:222,1,71.9999978027344,8|0,0:0|3:0,0:0:0:0:
397,164,121022,2,0,P|397:128|387:93,1,71.9999978027344,0|0,3:0|0:0,0:0:0:0:
370,254,121466,22,0,L|441:247,1,71.9999978027344,2|0,0:0|0:0,0:0:0:0:
280,152,121911,2,0,L|209:159,1,71.9999978027344,0|0,3:0|3:0,0:0:0:0:
127,240,122355,2,0,B|159:220|159:220|170:165|140:119,1,143.999995605469,8|8,3:2|0:3,0:0:0:0:
76,48,123022,1,0,3:0:0:0:
56,199,123244,85,2,0:0:0:0:
56,199,123689,2,0,B|49:164|49:164|56:129,1,71.9999978027344,2|0,0:0|3:0,0:0:0:0:
154,25,124133,2,0,L|297:39,1,143.999995605469,8|0,0:0|0:0,0:0:0:0:
297,39,125022,22,0,B|291:87|291:87|311:129|311:129|304:177,1,143.999995605469,2|8,0:0|3:3,0:0:0:0:
225,143,125689,1,0,3:0:0:0:
376,74,125911,2,0,P|411:73|444:87,1,71.9999978027344,8|0,0:0|0:0,0:0:0:0:
416,228,126355,2,0,P|397:198|393:162,1,71.9999978027344,8|0,3:3|0:0,0:0:0:0:
494,276,126800,5,6,0:3:0:0:
494,276,127022,2,0,L|485:364,1,88.000002685547,2|8,0:0|3:3,0:0:0:0:
334,373,127466,5,2,3:0:0:0:
267,225,127689,1,6,0:3:0:0:
218,339,127911,1,2,3:0:0:0:
192,125,128133,2,0,L|183:54,1,71.9999978027344,8|0,0:0|3:0,0:0:0:0:
391,211,128578,5,6,3:2:0:0:
391,211,129022,22,0,L|312:220,1,80,0|0,0:0|3:2,0:0:0:0:
192,125,129466,2,0,L|271:134,1,80,8|0,0:0|0:0,0:0:0:0:
339,299,129911,2,0,P|299:303|260:286,1,80,0|0,3:2|0:0,0:0:0:0:
382,132,130355,22,0,L|391:211,1,80,2|0,3:2|0:0,0:0:0:0:
286,89,130800,1,2,0:0:0:0:
272,208,131022,2,0,L|263:287,1,80,0|8,3:2|0:0,0:0:0:0:
179,143,131466,1,0,0:0:0:0:
81,198,131689,2,0,P|67:161|69:119,1,80,0|0,3:2|0:0,0:0:0:0:
161,303,132133,21,2,3:2:0:0:
161,303,132578,70,0,L|152:382,1,80,0|0,3:2|3:2,0:0:0:0:
311,280,133022,2,0,P|274:267|234:271,1,80,8|0,0:0|0:0,0:0:0:0:
263,357,133466,1,0,3:2:0:0:
170,223,133689,1,0,3:0:0:0:
170,223,133800,1,0,1:0:0:0:
170,223,133911,21,2,3:2:0:0:
161,303,134133,1,0,3:2:0:0:
179,143,134355,1,2,3:2:0:0:
97,256,134578,2,0,P|57:258|19:248,1,80,0|8,3:2|0:0,0:0:0:0:
243,190,135022,2,0,P|283:188|321:198,1,80,0|0,0:0|3:2,0:0:0:0:
161,303,135466,1,0,0:0:0:0:
179,143,135689,5,2,3:2:0:0:
179,143,136133,54,0,L|170:222,1,80,0|0,0:0|3:2,0:0:0:0:
80,356,136578,2,0,L|71:277,1,80,8|0,0:0|0:0,0:0:0:0:
58,181,137022,1,0,3:2:0:0:
161,303,137244,2,0,P|200:298|233:274,1,80,0|2,0:0|3:2,0:0:0:0:
255,116,137689,22,0,P|239:152|244:192,1,80,0|2,0:0|0:0,0:0:0:0:
310,244,138133,1,0,3:2:0:0:
161,303,138355,2,0,L|81:292,1,80,8|0,0:0|0:0,0:0:0:0:
286,353,138800,2,0,L|366:342,1,80,0|0,3:2|0:0,0:0:0:0:
333,166,139244,54,0,B|321:207|293:233|293:233|213:243,1,160,2|0,3:2|0:0,0:0:0:0:
108,253,139911,1,0,3:2:0:0:
205,101,140133,102,0,B|235:131|244:169|244:169|212:243,1,160,8|0,0:0|3:2,0:0:0:0:
169,338,140800,1,0,0:0:0:0:
73,184,141022,102,0,P|98:215|108:253,1,80,2|0,3:2|0:0,0:0:0:0:
61,350,141466,1,2,0:0:0:0:
212,243,141689,5,0,3:2:0:0:
73,184,141911,1,8,3:2:0:0:
169,338,142133,1,0,3:2:0:0:
187,139,142355,2,0,P|216:111|253:101,1,80,0|0,3:2|0:0,0:0:0:0:
351,253,142800,6,0,L|344:333,1,80,6|0,3:2|3:2,0:0:0:0:
462,357,143244,22,0,L|455:277,1,80,0|0,3:2|3:2,0:0:0:0:
391,87,143689,2,0,P|375:124|378:163,1,80,8|0,0:0|0:0,0:0:0:0:
472,183,144133,1,0,3:2:0:0:
351,253,144355,22,0,P|312:256|275:240,1,80,0|2,0:0|3:2,0:0:0:0:
243,134,144800,1,0,3:2:0:0:
326,170,145022,1,2,3:2:0:0:
247,322,145244,2,0,P|213:301|193:267,1,80,0|8,3:2|0:0,0:0:0:0:
275,240,145689,1,0,3:0:0:0:
122,317,145911,2,0,P|107:280|111:241,1,80,0|0,3:2|0:0,0:0:0:0:
163,98,146355,22,0,P|178:135|174:174,1,80,2|0,3:2|3:2,0:0:0:0:
32,233,146800,70,0,L|111:241,1,80,0|0,3:2|3:2,0:0:0:0:
254,166,147244,2,0,L|175:174,1,80,8|0,0:0|0:0,0:0:0:0:
317,244,147689,1,0,3:2:0:0:
332,103,147911,22,0,L|340:24,1,80,0|2,0:0|3:2,0:0:0:0:
395,181,148355,1,0,3:2:0:0:
254,166,148578,1,2,3:2:0:0:
411,195,148800,2,0,L|490:187,1,80,0|8,3:2|0:0,0:0:0:0:
332,103,149244,1,0,0:0:0:0:
350,282,149466,2,0,L|358:361,1,80,0|0,3:2|0:0,0:0:0:0:
243,274,149911,70,0,P|210:257|126:332,1,160,2|0,3:2|0:0,0:0:0:0:
267,357,150578,1,0,3:2:0:0:
310,220,150800,2,0,L|299:141,1,80,8|0,0:0|0:0,0:0:0:0:
203,74,151244,2,0,B|275:87|259:53|320:64,1,120,0|0,3:2|0:0,0:0:0:0:
364,86,151689,22,0,P|360:47|373:9,1,80,2|0,3:2|0:0,0:0:0:0:
419,151,152133,1,2,0:0:0:0:
299,141,152355,1,0,3:2:0:0:
499,122,152578,2,0,P|503:161|490:199,1,80,8|0,0:0|0:0,0:0:0:0:
299,141,153022,21,0,3:2:0:0:
444,57,153244,1,0,0:0:0:0:
354,206,153466,70,0,B|347:247|347:247|361:283|361:283|354:324,1,120,2|0,3:2|0:0,0:0:0:0:
391,354,153911,2,0,P|430:355|465:337,1,80,0|0,0:0|0:0,0:0:0:0:
279,291,154355,2,0,B|272:331|272:331|285:369,1,80,8|0,0:0|0:0,0:0:0:0:
354,206,154800,1,0,3:2:0:0:
203,258,155022,22,0,P|164:259|129:241,1,80,0|2,0:0|3:2,0:0:0:0:
202,88,155466,1,0,0:0:0:0:
184,172,155689,1,2,3:2:0:0:
120,114,155911,1,0,3:2:0:0:
266,146,156133,2,0,L|344:163,1,80,8|0,3:2|3:2,0:0:0:0:
184,172,156578,5,0,3:2:0:0:
220,4,156800,1,0,0:0:0:0:
347,119,157022,54,0,P|407:127|450:92,1,120,2|0,3:2|0:0,0:0:0:0:
471,48,157466,2,0,L|481:127,1,80,0|0,0:0|0:0,0:0:0:0:
369,294,157911,2,0,L|379:214,1,80,8|0,0:0|0:0,0:0:0:0:
450,301,158355,1,0,0:0:0:0:
305,348,158578,1,0,0:0:0:0:
379,215,158800,21,2,3:2:0:0:
398,356,159022,1,2,0:0:0:0:
376,186,159244,1,0,0:0:0:0:
323,307,159466,1,2,3:2:0:0:
461,203,159689,2,0,P|459:163|440:128,1,80,8|0,0:0|0:0,0:0:0:0:
336,71,160133,37,8,3:2:0:0:
487,18,160355,1,2,0:0:0:0:
336,71,160578,102,0,L|161:49,1,176.000005371094,6|0,3:2|0:0,0:0:0:0:
65,38,161244,1,0,0:0:0:0:
108,185,161466,6,0,L|298:161,1,191.999994140625,8|0,3:2|0:0,0:0:0:0:
395,150,162133,1,0,0:0:0:0:
352,301,162355,6,0,L|146:275,1,207.999990478516,2|8,3:0|0:0,0:0:0:0:
49,264,163022,1,0,0:0:0:0:
86,354,163244,5,2,3:0:0:0:
108,185,163466,1,8,0:0:0:0:
182,365,163689,1,8,0:0:0:0:
49,264,163911,1,2,0:0:0:0:
182,365,164133,6,0,P|266:354|309:281,1,176.000005371094,6|0,3:2|0:0,0:0:0:0:
207,189,164800,2,0,P|201:232|214:274,1,88.000002685547,0|8,3:0|0:0,0:0:0:0:
288,154,165244,1,2,0:0:0:0:
124,155,165466,2,0,P|112:243|139:325,1,176.000005371094,6|0,3:2|0:0,0:0:0:0:
288,154,166133,21,8,0:0:0:0:
207,189,166355,2,0,P|201:232|214:274,1,88.000002685547,2|0,0:0|0:0,0:0:0:0:
294,322,166800,1,8,0:0:0:0:
152,355,167022,1,2,0:0:0:0:
315,337,167244,1,8,0:0:0:0:
214,274,167466,1,2,0:0:0:0:
336,352,167689,102,0,L|423:336,1,88.000002685547,6|0,3:2|0:0,0:0:0:0:
339,181,168133,2,0,L|252:197,1,88.000002685547,2|0,0:0|3:0,0:0:0:0:
135,275,168578,1,8,0:0:0:0:
86,162,168800,2,0,L|102:75,1,88.000002685547,0|0,0:0|0:0,0:0:0:0:
171,177,169244,1,0,3:0:0:0:
15,205,169466,21,2,3:0:0:0:
177,90,169689,1,8,0:0:0:0:
102,249,169911,2,0,L|86:162,1,88.000002685547,2|0,0:0|0:0,0:0:0:0:
181,300,170355,2,0,P|224:303|263:283,1,88.000002685547,8|0,0:0|0:0,0:0:0:0:
338,123,170800,2,0,P|381:120|420:140,1,88.000002685547,0|0,0:0|3:0,0:0:0:0:
380,347,171244,70,0,B|345:334|345:334|328:266|365:201,1,176.000005371094,6|0,3:2|0:0,0:0:0:0:
493,78,171911,2,0,P|512:118|511:162,1,88.000002685547,0|8,3:0|0:0,0:0:0:0:
440,250,172355,1,2,0:0:0:0:
359,93,172578,2,0,L|336:267,1,176.000005371094,6|0,3:2|0:0,0:0:0:0:
256,336,173244,21,8,0:0:0:0:
251,204,173466,1,0,0:0:0:0:
336,267,173689,1,2,0:0:0:0:
166,141,173911,21,8,3:2:0:0:
135,314,174133,1,8,0:0:0:0:
81,78,174355,5,8,0:0:0:0:
115,229,174578,1,2,0:0:0:0:
217,53,174800,6,0,P|261:51|300:69,1,88.000002685547,6|0,3:2|0:0,0:0:0:0:
319,191,175244,2,0,P|275:193|236:175,1,88.000002685547,2|0,0:0|0:0,0:0:0:0:
382,75,175689,2,0,L|399:161,1,88.000002685547,8|0,3:2|0:0,0:0:0:0:
198,325,176133,2,0,L|181:239,1,88.000002685547,2|0,0:0|0:0,0:0:0:0:
319,191,176578,6,0,P|262:255|181:239,1,176.000005371094,6|2,3:2|0:0,0:0:0:0:
77,119,177244,1,8,0:0:0:0:
181,239,177466,1,8,3:2:0:0:
159,95,177689,1,2,0:0:0:0:
99,263,177911,1,8,0:0:0:0:
222,152,178133,1,0,3:0:0:0:
36,206,178355,86,0,P|16:245|18:288,1,88.000002685547,6|0,3:2|3:0,0:0:0:0:
88,373,178800,1,2,3:0:0:0:
99,263,179022,1,8,3:2:0:0:
169,348,179244,2,0,B|210:362|210:362|253:351,1,88.000002685547,2|0,3:0|3:0,0:0:0:0:
298,192,179689,2,0,B|284:233|284:233|295:276,1,88.000002685547,8|8,3:2|3:3,0:0:0:0:
363,363,180133,101,2,3:2:0:0:
439,283,180355,1,8,3:0:0:0:
441,265,180466,1,2,0:0:0:0:
442,247,180578,1,8,3:2:0:0:
443,229,180689,2,0,P|437:184|415:146,1,88.000002685547,8|2,0:0|0:0,0:0:0:0:
381,121,181022,1,8,3:2:0:0:
298,192,181244,1,8,3:2:0:0:
298,192,181355,1,8,0:0:0:0:
298,192,181466,22,0,L|255:183,1,44.0000013427735,2|2,3:0|0:0,0:0:0:0:
179,118,181689,2,0,L|136:127,1,44.0000013427735,2|2,3:0|0:0,0:0:0:0:
45,165,181911,102,0,P|58:125|56:79,1,88.000002685547,6|0,3:2|3:0,0:0:0:0:
12,3,182355,1,2,3:0:0:0:
80,84,182578,1,8,3:2:0:0:
169,27,182800,2,0,P|212:30|249:53,1,88.000002685547,2|0,3:0|3:0,0:0:0:0:
295,168,183244,2,0,P|333:147|358:111,1,88.000002685547,8|8,3:2|3:3,0:0:0:0:
385,18,183689,101,2,3:2:0:0:
462,96,183911,1,2,3:0:0:0:
467,113,184022,1,2,0:0:0:0:
472,130,184133,1,8,3:2:0:0:
477,147,184244,2,0,L|466:234,1,88.000002685547,8|8,0:0|0:0,0:0:0:0:
460,278,184578,1,8,3:2:0:0:
375,201,184800,1,8,3:2:0:0:
292,303,185022,22,0,L|287:260,1,44.0000013427735,2|2,3:0|0:0,0:0:0:0:
210,181,185244,2,0,L|205:224,1,44.0000013427735,2|2,3:0|0:0,0:0:0:0:
117,291,185466,102,0,P|74:291|36:270,1,88.000002685547,6|0,3:2|3:0,0:0:0:0:
18,138,185911,1,2,3:0:0:0:
95,210,186133,1,8,3:2:0:0:
119,107,186355,2,0,P|157:86|201:86,1,88.000002685547,2|0,3:0|3:0,0:0:0:0:
322,139,186800,2,0,P|284:160|240:160,1,88.000002685547,8|8,3:2|3:3,0:0:0:0:
318,54,187244,101,2,3:2:0:0:
409,137,187466,1,8,3:0:0:0:
427,135,187578,1,2,0:0:0:0:
440,124,187689,1,8,3:2:0:0:
447,108,187800,2,0,P|438:150|446:193,1,88.000002685547,8|2,0:0|0:0,0:0:0:0:
466,233,188133,1,8,3:2:0:0:
510,329,188355,1,8,3:2:0:0:
510,329,188466,1,8,0:0:0:0:
510,329,188578,22,0,L|467:338,1,44.0000013427735,2|2,3:0|0:0,0:0:0:0:
387,375,188800,2,0,L|344:366,1,44.0000013427735,2|2,3:0|0:0,0:0:0:0:
258,384,189022,102,0,B|240:345|240:345|247:299,1,88.000002685547,6|0,3:2|3:0,0:0:0:0:
264,188,189466,1,2,3:0:0:0:
354,259,189689,1,8,3:2:0:0:
247,300,189911,2,0,P|205:286|174:256,1,88.000002685547,2|0,3:0|3:0,0:0:0:0:
266,103,190355,2,0,P|274:146|264:188,1,88.000002685547,8|8,3:2|3:3,0:0:0:0:
175,33,190800,101,2,3:2:0:0:
122,179,191022,1,2,3:0:0:0:
104,179,191133,1,2,0:0:0:0:
87,173,191244,1,8,3:2:0:0:
75,160,191355,2,0,L|86:247,1,88.000002685547,8|8,0:0|0:0,0:0:0:0:
92,291,191689,1,8,3:2:0:0:
198,233,191911,1,8,3:2:0:0:
198,233,192022,1,8,3:2:0:0:
198,233,192133,22,0,L|203:190,1,44.0000013427735,2|2,3:0|0:0,0:0:0:0:
165,70,192355,2,0,L|170:113,1,44.0000013427735,2|2,3:0|0:0,0:0:0:0:
122,180,192578,102,0,B|79:186|79:186|44:212,1,88.000002685547,6|0,3:2|3:0,0:0:0:0:
114,275,193022,1,2,3:0:0:0:
198,233,193244,1,8,3:2:0:0:
122,180,193466,1,2,3:0:0:0:
192,327,193689,2,0,B|235:321|235:321|270:295,1,88.000002685547,0|8,3:0|0:0,0:0:0:0:
320,223,194133,1,0,3:0:0:0:
324,363,194355,101,2,3:0:0:0:
404,248,194578,1,8,3:2:0:0:
404,248,194689,1,8,0:0:0:0:
404,248,194800,1,2,3:0:0:0:
271,295,195022,1,0,3:0:0:0:
406,336,195244,2,0,P|448:325|478:294,1,88.000002685547,8|8,0:0|3:2,0:0:0:0:
412,94,195689,21,8,0:0:0:0:
408,111,195800,1,8,0:0:0:0:
404,128,195911,1,8,3:2:0:0:
400,145,196022,1,8,0:0:0:0:
396,162,196133,102,0,P|393:205|404:248,1,88.000002685547,6|0,3:2|3:0,0:0:0:0:
456,340,196578,1,2,3:0:0:0:
357,304,196800,1,8,3:2:0:0:
270,363,197022,1,2,3:0:0:0:
298,261,197244,2,0,P|301:218|290:175,1,88.000002685547,0|8,3:0|0:0,0:0:0:0:
215,99,197689,1,0,3:0:0:0:
290,175,197911,101,2,3:0:0:0:
318,73,198133,1,8,3:2:0:0:
318,73,198244,1,8,0:0:0:0:
318,73,198355,1,2,3:0:0:0:
393,149,198578,1,0,3:0:0:0:
215,99,198800,2,0,P|172:99|133:121,1,88.000002685547,8|0,0:0|3:0,0:0:0:0:
62,216,199244,21,8,0:0:0:0:
54,232,199355,1,8,0:0:0:0:
46,248,199466,1,8,3:2:0:0:
38,264,199578,1,8,0:0:0:0:
30,280,199689,102,0,L|117:269,1,88.000002685547,6|0,3:2|3:0,0:0:0:0:
256,251,200133,1,2,3:0:0:0:
154,347,200355,1,8,3:2:0:0:
181,211,200578,1,2,0:0:0:0:
241,337,200800,2,0,P|285:333|321:309,1,88.000002685547,0|8,3:0|0:0,0:0:0:0:
329,204,201244,1,0,3:0:0:0:
334,292,201466,101,2,3:0:0:0:
342,187,201689,1,8,3:2:0:0:
342,187,201800,1,8,0:0:0:0:
342,187,201911,1,2,3:0:0:0:
321,309,202133,1,0,3:0:0:0:
250,162,202355,2,0,P|255:122|285:86,1,88.000002685547,8|8,0:2|3:2,0:0:0:0:
373,197,202800,22,0,L|330:204,1,44.0000013427735,8|8,0:0|0:0,0:0:0:0:
246,256,203022,2,0,L|203:249,1,44.0000013427735,8|8,3:2|0:0,0:0:0:0:
134,178,203244,85,6,3:2:0:0:
59,239,203466,1,2,3:0:0:0:
224,212,203689,1,2,3:0:0:0:
118,83,203911,1,8,3:2:0:0:
150,273,204133,5,2,0:0:0:0:
114,61,204355,1,2,3:0:0:0:
76,334,204578,5,8,0:0:0:0:
110,39,204800,1,2,3:0:0:0:
224,212,205022,5,14,3:2:0:0:
53,126,205244,1,2,3:0:0:0:
212,20,205466,1,2,3:0:0:0:
176,311,205689,101,2,3:0:0:0:
164,119,205911,1,6,3:3:0:0:
334,205,206133,1,2,3:0:0:0:
97,364,206355,102,0,P|81:311|97:258,1,111.999996582031,14|0,3:2|3:0,0:0:0:0:
272,113,206800,21,6,0:1:0:0:
272,113,207244,6,0,B|366:127,1,95.9999970703126,2|0,0:0|3:0,0:0:0:0:
212,188,207689,2,0,P|192:231|197:279,1,95.9999970703126,8|0,0:0|0:0,0:0:0:0:
367,127,208133,1,0,3:0:0:0:
237,24,208355,22,0,P|190:26|150:52,1,95.9999970703126,0|2,0:0|3:2,0:0:0:0:
129,146,208800,1,0,1:0:0:0:
220,117,209022,1,2,0:0:0:0:
59,81,209244,1,0,3:0:0:0:
199,211,209466,1,8,0:0:0:0:
150,52,209689,1,0,0:0:0:0:
108,240,209911,2,0,L|86:334,1,95.9999970703126,0|0,3:0|0:0,0:0:0:0:
38,175,210355,21,6,3:3:0:0:
38,175,210800,70,0,P|77:149|125:146,1,95.9999970703126,2|0,0:0|3:0,0:0:0:0:
176,302,211244,2,0,P|133:280|108:240,1,95.9999970703126,8|0,0:0|0:0,0:0:0:0:
150,52,211689,1,0,3:0:0:0:
289,182,211911,22,0,P|249:208|202:211,1,95.9999970703126,0|2,1:0|3:2,0:0:0:0:
220,117,212355,1,0,1:0:0:0:
269,276,212578,1,2,0:0:0:0:
108,240,212800,1,0,3:0:0:0:
220,117,213022,1,8,0:0:0:0:
269,276,213244,2,0,L|298:368,1,95.9999970703126,0|8,0:0|0:3,0:0:0:0:
178,305,213689,1,0,0:0:0:0:
225,96,213911,5,6,3:3:0:0:
225,96,214355,54,0,L|321:109,1,95.9999970703126,2|0,0:0|0:0,0:0:0:0:
474,19,214800,2,0,L|378:32,1,95.9999970703126,8|0,0:0|0:0,0:0:0:0:
357,198,215244,1,0,3:0:0:0:
512,110,215466,22,0,L|416:123,1,95.9999970703126,8|2,0:3|3:2,0:0:0:0:
357,198,215911,1,0,1:0:0:0:
452,211,216133,1,2,0:0:0:0:
321,109,216355,1,0,3:0:0:0:
298,274,216578,2,0,L|285:371,1,95.9999970703126,8|0,3:2|0:0,0:0:0:0:
202,138,217022,2,0,L|202:234,1,95.9999970703126,0|0,3:0|0:0,0:0:0:0:
81,3,217466,38,0,L|106:194,1,191.999994140625,6|2,0:3|0:0,0:0:0:0:
121,308,218133,1,0,0:0:0:0:
253,73,218355,6,0,L|228:264,1,191.999994140625,8|8,3:2|0:0,0:0:0:0:
213,378,219022,1,2,0:0:0:0:
136,194,219244,5,2,3:2:0:0:
320,334,219466,1,8,3:2:0:0:
121,308,219689,101,2,3:0:0:0:
335,220,219911,1,2,3:2:0:0:
213,378,220133,101,8,3:2:0:0:
243,149,220355,1,2,3:2:0:0:
427,291,220578,101,8,3:2:0:0:
258,35,220800,1,2,0:0:0:0:
121,308,221022,37,6,3:1:0:0:
121,308,221466,6,0,L|26:288,1,95.9999970703126,2|0,0:0|3:2,0:0:0:0:
189,369,221911,2,0,P|210:329|208:279,1,95.9999970703126,8|0,0:0|0:0,0:0:0:0:
158,197,222355,1,0,3:0:0:0:
364,302,222578,22,0,P|411:303|453:280,1,95.9999970703126,0|2,0:0|3:2,0:0:0:0:
300,235,223022,1,0,1:0:0:0:
428,369,223244,1,2,3:2:0:0:
389,213,223466,1,0,3:0:0:0:
364,302,223689,1,8,0:0:0:0:
478,191,223911,1,0,3:0:0:0:
325,146,224133,1,0,3:0:0:0:
440,35,224355,1,2,0:0:0:0:
325,146,224578,22,0,P|277:152|219:116,1,95.9999970703126,6|0,3:3|3:0,0:0:0:0:
109,9,225022,70,0,P|138:47|136:115,1,95.9999970703126,2|0,3:0|3:0,0:0:0:0:
11,216,225466,2,0,L|105:200,1,95.9999970703126,8|0,0:0|0:0,0:0:0:0:
235,133,225911,1,0,0:0:0:0:
171,286,226133,1,0,3:0:0:0:
165,300,226244,1,0,1:0:0:0:
159,314,226355,21,2,3:2:0:0:
247,228,226578,1,0,1:0:0:0:
159,191,226800,1,2,3:2:0:0:
259,323,227022,1,0,3:0:0:0:
235,133,227244,1,8,0:0:0:0:
83,249,227466,1,0,3:0:0:0:
335,265,227689,2,0,P|380:251|412:216,1,95.9999970703126,0|0,3:0|0:0,0:0:0:0:
355,3,228133,54,0,B|316:30|316:30|297:102|330:170,1,191.999994140625,6|2,3:1|0:0,0:0:0:0:
436,308,228800,1,2,3:2:0:0:
270,259,229022,1,8,0:0:0:0:
433,201,229244,1,2,0:0:0:0:
335,344,229466,102,0,B|265:365|265:365|199:339,1,143.999995605469,6|0,3:1|0:0,0:0:0:0:
157,281,229911,86,0,P|156:328|136:372,1,95.9999970703126,10|0,3:3|1:0,0:0:0:0:
81,194,230355,1,2,0:0:0:0:
270,259,230578,1,2,3:2:0:0:
44,303,230800,5,8,0:0:0:0:
118,85,231022,1,2,0:0:0:0:
233,368,231244,5,8,3:2:0:0:
194,172,231466,1,2,0:0:0:0:
383,237,231689,6,0,P|449:235|497:178,1,143.999995605469,6|0,3:1|0:0,0:0:0:0:
483,84,232133,2,0,L|497:178,1,95.9999970703126,2|0,0:0|0:0,0:0:0:0:
398,332,232578,2,0,L|383:237,1,95.9999970703126,8|0,0:0|0:0,0:0:0:0:
364,120,233022,1,0,3:0:0:0:
276,194,233244,1,0,1:0:0:0:
383,237,233466,85,2,3:2:0:0:
248,224,233689,1,0,1:0:0:0:
430,306,233911,2,0,P|460:270|465:223,1,95.9999970703126,2|0,3:2|0:0,0:0:0:0:
318,53,234355,2,0,P|288:89|283:136,1,95.9999970703126,8|0,3:2|0:0,0:0:0:0:
328,324,234800,101,0,3:0:0:0:
364,121,235022,1,2,0:0:0:0:
226,254,235244,38,0,B|208:266|181:266|181:266|134:249|116:199,1,143.999995605469,6|0,3:1|0:0,0:0:0:0:
131,104,235689,2,0,L|115:206,1,95.9999970703126,2|0,3:2|0:0,0:0:0:0:
64,263,236022,1,0,0:0:0:0:
64,263,236133,2,0,P|38:224|37:176,1,95.9999970703126,8|0,3:2|0:0,0:0:0:0:
166,21,236578,1,0,0:0:0:0:
196,167,236800,1,0,1:0:0:0:
89,114,237022,85,2,3:2:0:0:
231,84,237244,1,8,3:2:0:0:
213,252,237466,2,0,P|166:249|128:221,1,95.9999970703126,2|0,3:2|3:2,0:0:0:0:
286,175,237911,1,8,3:2:0:0:
231,347,238133,1,2,0:0:0:0:
352,106,238355,101,0,3:0:0:0:
407,279,238578,1,2,0:0:0:0:
260,83,238800,38,0,B|241:69|216:73|216:73|175:104|171:156,1,143.999995605469,6|0,3:1|0:0,0:0:0:0:
174,243,239244,2,0,B|187:233|190:217|190:217|188:187|170:154,1,95.9999970703126,2|0,3:2|0:0,0:0:0:0:
90,274,239689,101,8,0:0:0:0:
365,189,239911,1,2,0:0:0:0:
93,96,240133,101,8,0:0:0:0:
259,332,240355,1,2,0:0:0:0:
263,44,240578,102,0,L|269:24,16,20,6|0|0|0|0|0|0|0|0|0|0|0|0|0|0|0|0,0:1|0:0|0:0|0:0|0:0|0:0|0:0|0:0|0:0|0:0|0:0|0:0|0:0|0:0|0:0|0:0|0:0,0:0:0:0:
263,44,241911,54,0,P|292:90|338:61,1,120,0|0,0:0|0:0,0:0:0:0:
338,61,242355,22,0,L|349:190,1,128,2|0,3:0|3:0,0:0:0:0:
357,284,243022,1,2,0:0:0:0:
265,220,243244,2,0,P|234:218|203:231,1,64,8|8,3:2|0:3,0:0:0:0:
147,308,243689,2,0,P|116:310|85:297,1,64,8|0,0:3|0:0,0:0:0:0:
39,214,244133,6,0,L|44:151,1,64,0|0,3:0|0:0,0:0:0:0:
52,54,244578,1,0,3:0:0:0:
52,54,244800,1,2,0:0:0:0:
134,132,245022,2,0,P|165:134|196:121,1,64,8|8,3:2|0:3,0:0:0:0:
250,43,245466,1,8,0:3:0:0:
318,110,245689,1,0,1:0:0:0:
318,110,245800,1,0,1:0:0:0:
318,110,245911,102,0,L|323:173,1,64,2|0,3:0|0:0,0:0:0:0:
286,262,246355,1,0,3:0:0:0:
286,262,246578,1,2,0:0:0:0:
389,218,246800,2,0,P|419:214|451:223,1,64,8|8,3:2|0:3,0:0:0:0:
474,317,247244,2,0,P|444:321|412:312,1,64,8|0,0:3|0:0,0:0:0:0:
389,218,247689,6,0,L|394:155,1,64,0|0,3:0|0:0,0:0:0:0:
402,58,248133,1,0,3:0:0:0:
402,58,248355,1,2,0:0:0:0:
292,35,248578,2,0,L|297:98,1,64,8|8,3:2|0:3,0:0:0:0:
305,195,249022,1,8,0:3:0:0:
212,171,249244,1,0,1:0:0:0:
212,171,249355,1,0,1:0:0:0:
212,171,249466,102,0,P|210:202|217:233,1,64,2|0,3:0|0:0,0:0:0:0:
259,321,249911,1,0,3:0:0:0:
259,321,250133,1,2,0:0:0:0:
153,285,250355,2,0,P|122:283|91:290,1,64,8|8,3:2|0:3,0:0:0:0:
28,364,250800,2,0,P|45:338|54:307,1,64,8|0,0:3|0:0,0:0:0:0:
22,217,251244,6,0,P|36:246|57:268,1,64,0|0,3:0|0:0,0:0:0:0:
115,191,251689,1,0,3:0:0:0:
115,191,251911,1,2,0:0:0:0:
218,234,252133,2,0,P|248:238|280:229,1,64,8|8,3:2|0:3,0:0:0:0:
362,178,252578,1,8,0:3:0:0:
450,216,252800,1,0,1:0:0:0:
450,216,252911,1,0,1:0:0:0:
450,216,253022,102,0,L|455:153,1,64,2|0,3:0|0:0,0:0:0:0:
463,56,253466,1,0,3:0:0:0:
463,56,253689,1,2,0:0:0:0:
360,99,253911,2,0,P|330:103|298:94,1,64,8|8,3:2|0:3,0:0:0:0:
226,31,254355,2,0,P|196:27|164:36,1,64,8|0,0:3|0:0,0:0:0:0:
91,99,254800,6,0,L|96:162,1,64,0|0,3:0|0:0,0:0:0:0:
104,259,255244,1,0,3:0:0:0:
104,259,255466,1,2,0:0:0:0:
201,202,255689,2,0,P|232:200|263:207,1,64,8|8,3:2|0:3,0:0:0:0:
326,281,256133,2,0,P|309:255|300:224,1,64,8|0,3:3|0:0,0:0:0:0:
332,134,256578,102,0,P|348:133|364:137,2,32,2|0|0,0:0|0:0|3:0,0:0:0:0:
256,192,256911,12,0,263689,0:0:0:0:
