osu file format v14

[General]
AudioFilename: audio.mp3
AudioLeadIn: 0
PreviewTime: 115331
Countdown: 0
SampleSet: Soft
StackLeniency: 0.7
Mode: 0
LetterboxInBreaks: 0
WidescreenStoryboard: 1

[Editor]
Bookmarks: 260,13974,27688,41402,55117,68831,82545,89402,103117,116831,130545,144259,151117,164831,178677,192391,206105,219819
DistanceSpacing: 2.2
BeatDivisor: 16
GridSize: 16
TimelineZoom: 1.4

[Metadata]
Title:Galactic Repairman
TitleUnicode:銀河修理員
Artist:Dear Jane
ArtistUnicode:Dear Jane
Creator:Kencho
Version:Limerence
Source:
Tags:Otosaka-Yu Cantonese Chinese Rock Limerence Hong Kong HK Hongkonger Hongkongese 祝你在亂流下平安 Warner WMG Tim Wong Jackal Ng Howie Yung Nice Lai 香港華納唱片有限公司 黃天翱 翁厚樑 伍漢邦 黎俊華 黃偉文 柯煒林 阿冰 Pomato 小薯茄
BeatmapID:3100281
BeatmapSetID:1514316

[Difficulty]
HPDrainRate:5.7
CircleSize:4.1
OverallDifficulty:7.5
ApproachRate:8.3
SliderMultiplier:3.19999990463257
SliderTickRate:2

[Events]
//Background and Video events
0,0,"BG.jpg",0,0
Video,-600,"video.mp4"
//Break Periods
//Storyboard Layer 0 (Background)
//Storyboard Layer 1 (Fail)
//Storyboard Layer 2 (Pass)
//Storyboard Layer 3 (Foreground)
//Storyboard Layer 4 (Overlay)
//Storyboard Sound Samples

[TimingPoints]
260,857.142857142857,4,2,1,40,1,0
260,-166.666666666667,4,2,1,40,0,0
13974,-166.666666666667,4,2,1,40,0,0
41402,-166.666666666667,4,2,1,40,0,0
55117,-125,4,2,1,60,0,1
80831,-125,4,2,1,50,0,0
82545,-100,4,2,1,70,0,0
89402,-111.111111111111,4,2,1,60,0,0
103117,-111.111111111111,4,2,1,65,0,0
103438,-111.111111111111,4,2,1,5,0,0
103545,-111.111111111111,4,2,1,65,0,0
106867,-111.111111111111,4,2,1,5,0,0
106974,-111.111111111111,4,2,1,65,0,0
110295,-111.111111111111,4,2,1,5,0,0
110402,-111.111111111111,4,2,1,65,0,0
113402,-111.111111111111,4,2,1,70,0,0
114688,-83.3333333333333,4,2,1,70,0,0
115009,-83.3333333333333,4,2,1,5,0,0
115117,-111.111111111111,4,2,1,70,0,0
116831,-100,4,2,1,80,0,1
130438,-100,4,2,1,80,0,0
130545,-100,4,2,1,80,0,1
134295,-100,4,2,1,5,0,1
134402,-100,4,2,1,80,0,1
137724,-100,4,2,1,5,0,1
137831,-100,4,2,1,80,0,1
141152,-100,4,2,1,5,0,1
141259,-100,4,2,1,80,0,1
144259,-100,4,2,1,75,0,0
151117,-100,4,2,1,70,0,0
164831,-90.9090909090909,4,2,1,75,0,0
168259,-83.3333333333333,4,2,1,80,0,0
171688,-76.9230769230769,4,2,1,85,0,0
175117,-71.4285714285714,4,2,1,90,0,0
176831,923.076923076923,4,2,1,80,1,0
176831,-83.3333333333333,4,2,1,80,0,0
177292,-71.4285714285714,4,2,1,80,0,0
177754,-62.5,4,2,1,80,0,0
178061,-62.5,4,2,1,5,0,0
178215,-200,4,2,1,80,0,0
178523,-200,4,2,1,5,0,0
178677,857.142857142857,4,2,1,90,1,1
178677,-83.3333333333333,4,2,1,90,0,1
178998,-83.3333333333333,4,2,1,5,0,1
179105,-83.3333333333333,4,2,1,90,0,1
182427,-83.3333333333333,4,2,1,5,0,1
182534,-83.3333333333333,4,2,1,90,0,1
185855,-83.3333333333333,4,2,1,5,0,1
185962,-83.3333333333333,4,2,1,90,0,1
192284,-83.3333333333333,4,2,1,90,0,0
192391,-83.3333333333333,4,2,1,90,0,1
204391,-100,4,2,1,80,0,0
206105,-100,4,2,1,60,0,0
219819,-400,4,2,1,60,0,0
219927,-400,4,2,1,45,0,0
220677,-400,4,2,1,40,0,0
221534,-400,4,2,1,35,0,0
222391,-400,4,2,1,30,0,0
223248,-400,4,2,1,25,0,0
224105,-400,4,2,1,20,0,0
224962,-400,4,2,1,15,0,0
225819,-400,4,2,1,10,0,0
226677,-400,4,2,1,5,0,0

[Colours]
Combo1 : 64,224,240
Combo2 : 255,64,64
Combo3 : 208,224,240
Combo4 : 255,160,64

[HitObjects]
146,85,260,6,0,P|154:125|159:182,1,95.9999942092898,2|2,0:0|0:0,0:0:0:0:
76,358,1117,2,0,L|82:307,2,47.9999971046449,2|0|2,0:0|0:0|0:0,0:0:0:0:
306,335,1974,2,0,P|314:295|319:238,1,95.9999942092898,2|2,0:0|0:0,0:0:0:0:
236,62,2831,2,0,L|242:113,2,47.9999971046449,2|0|2,0:0|0:0|0:0,0:0:0:0:
494,145,3688,6,0,P|446:157|389:157,1,95.9999942092898,2|2,0:0|0:0,0:0:0:0:
317,16,4545,2,0,L|323:67,2,47.9999971046449,2|0|2,0:0|0:0|0:0,0:0:0:0:
308,149,5188,1,0,0:0:0:0:
308,149,5402,2,0,P|303:187|299:260,1,95.9999942092898,2|2,0:0|0:0,0:0:0:0:
419,369,6259,2,0,L|413:318,2,47.9999971046449,2|0|2,0:0|0:0|0:0,0:0:0:0:
316,334,6902,1,0,0:0:0:0:
316,334,7117,6,0,P|268:346|211:346,1,95.9999942092898,2|2,0:0|0:0,0:0:0:0:
140,287,7759,1,0,0:0:0:0:
140,287,7974,2,0,L|27:305,1,95.9999942092898,2|2,0:0|0:0,0:0:0:0:
0,230,8617,1,0,0:0:0:0:
0,230,8831,2,0,L|62:217,1,47.9999971046449,2|0,0:0|0:0,0:0:0:0:
132,203,9259,1,2,0:0:0:0:
132,203,9688,2,0,L|137:154,1,47.9999971046449,2|0,0:0|0:0,0:0:0:0:
150,41,10117,1,2,0:0:0:0:
150,41,10545,6,0,P|174:47|197:51,1,47.9999971046449,2|0,0:0|0:0,0:0:0:0:
220,125,10974,2,0,P|244:124|267:122,1,47.9999971046449,2|0,0:0|0:0,0:0:0:0:
309,188,11402,2,0,P|332:181|354:173,1,47.9999971046449,2|0,0:0|0:0,0:0:0:0:
411,225,11831,2,0,P|432:212|451:198,1,47.9999971046449,2|0,0:0|0:0,0:0:0:0:
484,79,12259,2,0,L|479:127,1,47.9999971046449,2|0,0:0|0:0,0:0:0:0:
399,39,12688,2,0,L|404:87,1,47.9999971046449,2|0,0:0|0:0,0:0:0:0:
317,39,13117,5,2,0:0:0:0:
261,96,13331,1,0,0:0:0:0:
189,60,13545,1,2,0:0:0:0:
133,117,13759,1,0,0:0:0:0:
56,92,13974,6,0,P|49:72|39:-2,1,95.9999942092898,2|2,0:0|0:0,0:0:0:0:
72,177,14831,2,0,L|64:228,1,47.9999971046449,2|0,0:0|0:0,0:0:0:0:
13,301,15259,2,0,L|21:352,1,47.9999971046449,2|0,0:0|0:0,0:0:0:0:
108,310,15688,2,0,B|136:303|136:303|203:320,1,95.9999942092898,2|2,0:0|0:0,0:0:0:0:
276,365,16331,2,0,L|323:354,1,47.9999971046449,0|2,0:0|0:0,0:0:0:0:
407,373,16759,2,0,L|454:362,1,47.9999971046449,0|2,0:0|0:0,0:0:0:0:
496,282,17188,1,0,0:0:0:0:
496,282,17402,6,0,L|484:187,1,95.9999942092898,2|2,0:0|0:0,0:0:0:0:
484,187,18259,2,0,P|460:196|435:197,1,47.9999971046449,2|0,0:0|0:0,0:0:0:0:
352,142,18688,2,0,P|328:143|305:152,1,47.9999971046449,2|0,0:0|0:0,0:0:0:0:
231,215,19117,2,0,L|136:203,1,95.9999942092898,2|2,0:0|0:0,0:0:0:0:
51,108,19759,2,0,P|55:138|62:165,1,47.9999971046449,0|2,0:0|0:0,0:0:0:0:
131,83,20188,2,0,P|136:60|139:36,1,47.9999971046449,0|2,0:0|0:0,0:0:0:0:
207,130,20617,1,0,0:0:0:0:
207,130,20831,6,0,P|250:107|303:109,1,95.9999942092898,2|2,0:0|0:0,0:0:0:0:
296,107,21688,2,0,L|303:159,1,47.9999971046449,2|0,0:0|0:0,0:0:0:0:
371,211,22117,2,0,L|378:263,1,47.9999971046449,2|0,0:0|0:0,0:0:0:0:
433,330,22545,2,0,P|397:347|341:343,1,95.9999942092898,2|2,0:0|0:0,0:0:0:0:
277,284,23188,2,0,P|254:284|231:292,1,47.9999971046449,0|2,0:0|0:0,0:0:0:0:
165,350,23617,2,0,L|71:335,1,95.9999942092898,0|0,0:0|0:0,0:0:0:0:
70,335,24259,6,0,P|71:282|57:234,1,95.9999942092898,2|2,0:0|0:0,0:0:0:0:
60,240,25117,2,0,P|62:216|69:194,1,47.9999971046449,2|0,0:0|0:0,0:0:0:0:
187,217,25545,1,2,0:0:0:0:
187,217,25759,2,0,P|165:228|142:232,1,47.9999971046449,0|2,0:0|0:0,0:0:0:0:
103,118,26188,2,0,P|122:131|138:149,1,47.9999971046449,0|2,0:0|0:0,0:0:0:0:
60,240,26617,1,0,0:0:0:0:
100,373,26831,5,2,0:0:0:0:
118,295,27045,1,0,0:0:0:0:
42,318,27259,1,2,0:0:0:0:
100,373,27474,1,0,0:0:0:0:
194,272,27688,6,0,P|242:269|289:275,1,95.9999942092898,2|2,0:0|0:0,0:0:0:0:
289,275,28545,2,0,L|337:286,1,47.9999971046449,2|0,0:0|0:0,0:0:0:0:
404,353,28974,2,0,L|452:342,1,47.9999971046449,2|0,0:0|0:0,0:0:0:0:
509,266,29402,2,0,P|510:218|499:170,1,95.9999942092898,2|2,0:0|0:0,0:0:0:0:
415,125,30045,2,0,P|391:128|367:133,1,47.9999971046449,0|2,0:0|0:0,0:0:0:0:
298,200,30474,2,0,B|304:170|304:170|293:139|293:139|299:108,1,95.9999942092898,0|0,0:0|0:0,0:0:0:0:
267,272,31116,6,0,L|258:319,1,47.9999971046449,2|0,0:0|0:0,0:0:0:0:
187,384,31545,1,2,0:0:0:0:
187,384,31759,2,0,L|178:337,1,47.9999971046449,0|2,0:0|0:0,0:0:0:0:
314,263,32188,2,0,P|291:270|267:272,1,47.9999971046449,0|2,0:0|0:0,0:0:0:0:
120,227,32617,2,0,P|143:220|167:218,1,47.9999971046449,0|2,0:0|0:0,0:0:0:0:
50,285,33045,2,0,P|31:240|36:193,1,95.9999942092898,0|0,0:0|0:0,0:0:0:0:
96,107,33688,1,2,0:0:0:0:
96,107,34117,6,0,B|142:93|142:93|190:97,1,95.9999942092898,2|2,0:0|0:0,0:0:0:0:
416,277,34974,2,0,B|370:291|370:291|322:287,2,95.9999942092898,2|2|2,0:0|0:0|0:0,0:0:0:0:
485,211,36045,2,0,P|491:186|492:156,1,47.9999971046449,0|2,0:0|0:0,0:0:0:0:
461,73,36474,1,0,0:0:0:0:
461,73,36688,2,0,L|414:81,1,47.9999971046449,2|0,0:0|0:0,0:0:0:0:
334,95,37117,1,2,0:0:0:0:
416,5,37545,1,2,0:0:0:0:
323,177,37974,6,0,P|280:159|255:117,1,95.9999942092898,2|2,0:0|0:0,0:0:0:0:
190,47,38617,2,0,L|96:62,1,95.9999942092898,0|0,0:0|0:0,0:0:0:0:
57,150,39259,1,2,0:0:0:0:
57,150,39474,2,0,L|155:135,1,95.9999942092898,0|0,0:0|0:0,0:0:0:0:
211,190,40117,2,0,P|218:212|216:242,1,47.9999971046449,2|0,0:0|0:0,0:0:0:0:
160,293,40545,5,2,0:0:0:0:
84,269,40759,1,0,0:0:0:0:
11,302,40974,2,0,P|4:280|6:250,1,47.9999971046449,2|0,0:0|0:0,0:0:0:0:
103,185,41402,6,0,L|7:171,2,95.9999942092898,2|2|2,0:0|0:0|0:0,0:0:0:0:
271,222,42688,2,0,P|278:200|276:170,1,47.9999971046449,2|0,0:0|0:0,0:0:0:0:
179,105,43116,2,0,L|275:91,2,95.9999942092898,2|2|2,0:0|0:0|0:0,0:0:0:0:
314,18,44402,1,2,0:0:0:0:
409,147,44831,6,0,P|411:174|400:250,2,95.9999942092898,2|2|2,0:0|0:0|0:0,0:0:0:0:
311,274,46117,2,0,L|316:325,1,47.9999971046449,2|0,0:0|0:0,0:0:0:0:
245,360,46545,2,0,P|218:362|142:351,2,95.9999942092898,2|2|2,0:0|0:0|0:0,0:0:0:0:
210,203,47831,1,2,0:0:0:0:
92,312,48259,5,2,0:0:0:0:
57,155,48688,1,2,0:0:0:0:
210,203,49117,1,2,0:0:0:0:
175,46,49545,1,2,0:0:0:0:
175,46,49759,2,0,P|203:54|277:63,1,95.9999942092898,0|0,0:0|0:0,0:0:0:0:
355,19,50402,2,0,P|379:23|406:29,1,47.9999971046449,2|0,0:0|0:0,0:0:0:0:
482,82,50831,1,2,0:0:0:0:
482,82,51045,2,0,L|473:181,1,95.9999942092898,0|0,0:0|0:0,0:0:0:0:
419,257,51688,6,0,P|462:273|511:266,1,95.9999942092898,2|2,0:0|0:0,0:0:0:0:
299,173,52545,2,0,P|256:189|207:182,1,95.9999942092898,2|2,0:0|0:0,0:0:0:0:
396,50,53402,1,2,0:0:0:0:
396,50,55117,5,6,3:3:0:0:
396,50,55545,6,0,L|389:116,1,63.9999980926514,0|2,0:0|0:0,0:0:0:0:
377,209,55974,1,8,0:0:0:0:
465,172,56188,1,0,3:2:0:0:
301,151,56402,1,6,3:3:0:0:
301,151,57259,5,2,0:0:0:0:
358,368,57688,1,8,0:0:0:0:
116,283,58117,1,2,3:2:0:0:
152,177,58331,1,0,3:2:0:0:
220,315,58545,5,6,3:3:0:0:
220,315,58974,6,0,P|252:313|283:307,1,63.9999980926514,0|2,0:0|0:0,0:0:0:0:
372,273,59402,1,8,0:0:0:0:
298,212,59617,1,0,3:2:0:0:
358,368,59831,1,6,3:3:0:0:
358,368,60688,5,2,0:0:0:0:
111,299,61117,2,0,L|237:278,1,127.999996185303,8|2,0:0|3:2,0:0:0:0:
298,212,61759,1,0,3:2:0:0:
165,72,61974,5,6,3:3:0:0:
165,72,62402,6,0,P|197:74|228:80,1,63.9999980926514,0|2,0:0|0:0,0:0:0:0:
315,122,62831,1,8,0:0:0:0:
236,176,63045,1,0,3:2:0:0:
386,187,63259,1,6,3:3:0:0:
386,187,64117,5,2,0:0:0:0:
211,0,64545,2,0,P|201:30|201:63,1,63.9999980926514,8|0,0:0|0:0,0:0:0:0:
236,176,64974,1,2,3:2:0:0:
236,176,65402,6,0,B|213:166|213:166|166:171|114:190,1,127.999996185303,6|0,3:3|0:0,0:0:0:0:
26,231,66045,1,2,0:0:0:0:
121,94,66259,1,8,0:0:0:0:
113,190,66474,1,0,3:2:0:0:
34,135,66688,1,6,3:3:0:0:
105,286,66902,2,0,L|133:344,1,63.9999980926514,0|0,0:0|0:0,0:0:0:0:
37,354,67331,5,0,0:0:0:0:
201,275,67545,1,2,0:0:0:0:
201,275,67974,6,0,P|199:241|192:210,1,63.9999980926514,8|0,0:0|0:0,0:0:0:0:
113,31,68402,2,0,P|115:65|122:96,1,63.9999980926514,2|0,3:2|3:2,0:0:0:0:
302,159,68831,6,0,P|251:122|190:133,1,127.999996185303,6|0,3:3|0:0,0:0:0:0:
113,190,69474,1,2,0:0:0:0:
113,31,69688,2,0,P|119:62|121:94,1,63.9999980926514,8|0,0:0|3:2,0:0:0:0:
3,145,70117,6,0,P|23:75|122:96,1,191.999994277954,6|0,3:3|0:0,0:0:0:0:
41,215,70974,1,2,0:0:0:0:
233,384,71402,2,0,P|240:349|250:244,1,127.999996185303,8|2,0:0|3:2,0:0:0:0:
219,166,72045,1,0,0:0:0:0:
345,245,72259,6,0,P|318:246|243:259,1,95.9999971389771,6|0,3:3|0:0,0:0:0:0:
225,271,72688,2,0,L|239:207,1,63.9999980926514,0|2,0:0|0:0,0:0:0:0:
249,55,73117,2,0,L|263:119,1,63.9999980926514,8|0,0:0|3:2,0:0:0:0:
143,219,73545,2,0,P|191:216|239:208,1,95.9999971389771,6|0,3:3|0:0,0:0:0:0:
266,198,73974,5,2,0:0:0:0:
250,279,74188,1,0,0:0:0:0:
328,252,74402,2,0,P|361:242|390:236,1,63.9999980926514,2|2,0:0|0:0,0:0:0:0:
512,319,74831,2,0,P|480:312|450:303,1,63.9999980926514,10|0,0:0|0:0,0:0:0:0:
459,134,75259,1,2,3:2:0:0:
475,215,75473,1,0,3:2:0:0:
359,160,75688,6,0,P|320:154|226:146,1,127.999996185303,6|0,3:3|0:0,0:0:0:0:
139,199,76331,1,2,0:0:0:0:
165,30,76545,2,0,L|175:99,1,63.9999980926514,8|0,0:0|3:2,0:0:0:0:
197,252,76974,1,6,3:3:0:0:
197,252,77831,5,2,0:0:0:0:
9,252,78259,2,0,B|115:222|91:282|196:252,1,191.999994277954,8|0,0:0|3:2,0:0:0:0:
287,369,79117,6,0,P|283:345|302:217,1,127.999996185303,6|0,3:3|0:0,0:0:0:0:
341,158,79759,1,2,0:0:0:0:
455,232,79974,2,0,P|423:237|391:239,1,63.9999980926514,8|0,0:0|3:2,0:0:0:0:
248,157,80402,1,6,3:3:0:0:
48,372,80831,5,2,0:0:0:0:
48,372,82545,5,6,3:2:0:0:
152,319,82759,2,0,P|192:319|238:327,1,79.9999976158142,0|0,3:2|0:0,0:0:0:0:
345,372,83188,1,8,0:0:0:0:
311,249,83402,1,0,0:0:0:0:
364,347,83617,1,0,3:2:0:0:
382,192,83831,2,0,L|391:105,1,79.9999976158142,0|0,3:2|0:0,0:0:0:0:
221,71,84259,6,0,P|265:80|314:78,1,79.9999976158142,2|0,0:0|0:0,0:0:0:0:
401,10,84688,1,0,3:2:0:0:
484,96,84902,1,0,3:2:0:0:
381,0,85117,1,8,0:0:0:0:
412,123,85331,1,0,0:0:0:0:
300,79,85545,2,0,P|256:70|207:72,1,79.9999976158142,0|0,3:2|0:0,0:0:0:0:
402,204,85974,5,2,3:2:0:0:
290,160,86188,2,0,P|246:151|197:153,1,79.9999976158142,0|0,3:2|0:0,0:0:0:0:
109,189,86617,1,8,0:0:0:0:
183,249,86831,1,0,0:0:0:0:
136,94,87045,1,0,3:2:0:0:
26,225,87259,2,0,P|19:184|30:147,1,79.9999976158142,0|0,3:2|0:0,0:0:0:0:
266,213,87688,6,0,P|273:254|262:291,1,79.9999976158142,2|0,0:0|0:0,0:0:0:0:
100,285,88117,1,0,3:2:0:0:
183,249,88331,1,0,3:2:0:0:
215,366,88545,5,10,0:0:0:0:
178,225,88759,1,2,0:0:0:0:
343,286,88974,2,0,P|384:282|428:273,1,79.9999976158142,2|0,0:0|0:0,0:0:0:0:
486,225,89295,1,0,0:0:0:0:
486,225,89402,5,6,3:2:0:0:
417,148,89617,2,0,B|402:111|402:111|417:7,1,143.999991313935,0|0,3:2|3:2,0:0:0:0:
321,58,90259,1,2,0:0:0:0:
400,15,90474,1,0,3:2:0:0:
243,8,90688,2,0,P|231:43|231:83,1,71.9999956569673,8|0,0:0|0:0,0:0:0:0:
294,157,91117,5,2,0:0:0:0:
140,139,91331,1,0,3:2:0:0:
267,169,91545,1,0,3:2:0:0:
222,290,91759,1,2,0:0:0:0:
239,182,91974,1,8,0:0:0:0:
100,227,92188,2,0,P|67:224|29:212,1,71.9999956569673,0|2,0:0|0:0,0:0:0:0:
149,293,92617,2,0,L|156:351,1,35.9999978284837,0|0,0:0|0:0,0:0:0:0:
90,384,92831,5,0,3:2:0:0:
231,329,93045,2,0,B|311:310|290:356|372:334,1,143.999991313935,0|0,3:2|3:2,0:0:0:0:
448,279,93688,1,2,0:0:0:0:
364,246,93902,1,0,3:2:0:0:
487,191,94117,2,0,P|484:157|477:112,1,71.9999956569673,8|0,0:0|0:0,0:0:0:0:
439,27,94545,5,2,0:0:0:0:
372,90,94759,1,0,3:2:0:0:
451,42,94974,1,0,3:2:0:0:
347,102,95188,1,2,0:0:0:0:
460,64,95402,1,8,0:0:0:0:
322,113,95617,2,0,L|251:102,1,71.9999956569673,0|2,0:0|0:0,0:0:0:0:
161,19,96045,2,0,P|166:42|167:62,1,35.9999978284837,0|0,0:0|0:0,0:0:0:0:
127,131,96259,5,0,3:2:0:0:
132,271,96474,2,0,B|151:191|105:212|127:130,1,143.999991313935,0|0,3:2|3:2,0:0:0:0:
167,54,97116,1,2,0:0:0:0:
67,84,97331,1,0,3:2:0:0:
218,151,97545,2,0,P|253:150|295:137,1,71.9999956569673,8|2,0:0|0:0,0:0:0:0:
367,70,97974,5,2,0:0:0:0:
445,173,98188,1,0,3:2:0:0:
368,147,98402,1,0,3:2:0:0:
446,267,98617,1,2,0:0:0:0:
342,226,98831,1,8,0:0:0:0:
436,353,99045,2,0,P|396:349|363:339,1,71.9999956569673,2|2,0:0|0:0,0:0:0:0:
277,276,99474,2,0,L|243:293,1,35.9999978284837,0|0,0:0|0:0,0:0:0:0:
158,335,99688,5,0,3:2:0:0:
70,246,99902,2,0,P|52:205|50:106,1,143.999991313935,0|0,3:2|3:2,0:0:0:0:
128,32,100545,1,0,0:0:0:0:
153,136,100759,1,0,3:2:0:0:
49,107,100974,1,8,0:0:0:0:
147,230,101188,6,0,P|197:220|245:144,1,143.999991313935,0|0,0:0|3:2,0:0:0:0:
314,4,101831,2,0,P|314:39|319:75,1,71.9999956569673,0|2,3:2|0:0,0:0:0:0:
380,171,102259,5,8,0:0:0:0:
152,135,102474,1,0,0:0:0:0:
345,95,102688,5,2,3:2:0:0:
308,323,102902,1,0,3:2:0:0:
429,103,103117,6,0,P|394:71|345:95,1,107.999993485451,6|0,0:0|0:0,0:0:0:0:
270,143,103545,2,0,L|259:68,1,71.9999956569673,0|0,3:2|0:0,0:0:0:0:
426,266,103974,2,0,B|345:280|367:240|286:250,1,143.999991313935,10|0,0:0|0:0,0:0:0:0:
164,304,104617,5,0,3:2:0:0:
212,216,104831,1,0,0:0:0:0:
116,233,105045,1,0,3:2:0:0:
286,250,105259,2,0,P|292:225|277:164,1,71.9999956569673,0|0,3:2|0:0,0:0:0:0:
150,81,105688,2,0,P|144:106|159:167,1,71.9999956569673,10|0,0:0|0:0,0:0:0:0:
212,216,106117,1,0,0:0:0:0:
291,101,106331,1,0,3:2:0:0:
426,266,106545,6,0,P|431:285|445:380,1,107.999993485451,0|0,3:2|0:0,0:0:0:0:
477,356,106974,2,0,L|485:283,1,71.9999956569673,0|0,3:2|0:0,0:0:0:0:
411,161,107402,2,0,L|403:88,1,71.9999956569673,10|0,0:0|0:0,0:0:0:0:
291,101,107831,1,0,0:0:0:0:
344,17,108045,1,0,3:2:0:0:
220,133,108259,5,0,0:0:0:0:
228,19,108474,1,0,3:2:0:0:
164,185,108688,1,0,3:2:0:0:
79,76,108902,2,0,P|114:81|148:93,1,71.9999956569673,0|10,0:0|0:0,0:0:0:0:
238,161,109331,1,0,0:0:0:0:
145,199,109545,1,0,0:0:0:0:
225,41,109759,1,0,3:2:0:0:
334,192,109974,6,0,P|373:191|433:141,1,107.999993485451,4|0,3:2|0:0,0:0:0:0:
411,74,110402,2,0,P|406:111|405:153,1,71.9999956569673,0|0,3:2|0:0,0:0:0:0:
488,317,110831,2,0,P|493:280|494:238,1,71.9999956569673,10|0,0:0|0:0,0:0:0:0:
405,146,111259,1,0,0:0:0:0:
497,211,111474,1,0,3:2:0:0:
403,249,111688,5,0,0:0:0:0:
501,169,111902,1,0,3:2:0:0:
396,350,112117,1,0,3:2:0:0:
301,197,112331,2,0,P|296:165|295:100,1,71.9999956569673,0|10,0:0|0:0,0:0:0:0:
229,244,112759,2,0,P|217:183|216:71,1,143.999991313935,0|0,0:0|3:2,0:0:0:0:
428,69,113402,6,0,L|357:65,1,71.9999956569673,6|0,3:2|0:0,0:0:0:0:
140,53,113831,1,0,3:2:0:0:
301,197,114045,1,0,3:2:0:0:
113,30,114259,5,10,0:0:0:0:
63,277,114474,1,0,3:2:0:0:
374,150,114688,2,0,P|320:109|251:127,1,143.999991313935,8|0,0:0|0:0,0:0:0:0:
174,192,115117,5,8,0:0:0:0:
422,238,115331,1,8,0:0:0:0:
338,1,115545,1,6,0:0:0:0:
338,1,115974,5,10,0:0:0:0:
291,248,116188,1,0,3:2:0:0:
183,20,116402,5,2,0:0:0:0:
403,141,116617,1,0,3:2:0:0:
155,174,116831,5,6,3:2:0:0:
155,174,117259,6,0,P|150:143|148:83,1,79.9999976158142,0|0,3:2|0:0,0:0:0:0:
291,248,117688,2,0,P|297:287|299:327,1,79.9999976158142,8|0,0:0|0:0,0:0:0:0:
119,345,118117,1,0,0:0:0:0:
196,264,118331,1,0,3:2:0:0:
99,352,118545,6,0,P|59:350|24:332,1,79.9999976158142,2|0,0:0|3:2,0:0:0:0:
4,198,118974,1,0,3:2:0:0:
155,237,119188,2,0,P|121:259|83:265,1,79.9999976158142,0|10,0:0|0:0,0:0:0:0:
132,110,119617,2,0,P|116:147|90:176,1,79.9999976158142,0|0,0:0|0:0,0:0:0:0:
39,21,120045,1,0,0:0:0:0:
212,121,120259,5,2,3:2:0:0:
212,121,120688,6,0,L|290:106,1,79.9999976158142,0|0,3:2|0:0,0:0:0:0:
405,0,121117,2,0,L|327:15,1,79.9999976158142,8|0,0:0|0:0,0:0:0:0:
384,92,121545,1,0,0:0:0:0:
233,29,121759,1,0,3:2:0:0:
367,179,121974,6,0,P|407:177|442:159,1,79.9999976158142,2|0,0:0|3:2,0:0:0:0:
300,120,122402,1,0,3:2:0:0:
347,254,122617,2,0,P|365:218|367:179,1,79.9999976158142,0|10,0:0|0:0,0:0:0:0:
320,44,123045,2,0,P|302:80|300:119,1,79.9999976158142,0|0,0:0|0:0,0:0:0:0:
403,15,123474,1,0,3:2:0:0:
214,80,123688,5,6,3:2:0:0:
214,80,124117,6,0,P|173:83|135:73,1,79.9999976158142,0|0,3:2|0:0,0:0:0:0:
0,0,124545,2,0,P|41:-3|79:7,1,79.9999976158142,8|0,0:0|0:0,0:0:0:0:
90,148,124974,1,0,0:0:0:0:
32,82,125188,1,0,3:2:0:0:
148,214,125402,6,0,L|136:293,1,79.9999976158142,0|0,0:0|3:2,0:0:0:0:
163,115,125831,1,0,3:2:0:0:
248,219,126045,2,0,P|289:217|330:205,1,79.9999976158142,0|8,0:0|0:0,0:0:0:0:
437,115,126474,2,0,P|395:116|354:128,1,79.9999976158142,0|0,0:0|0:0,0:0:0:0:
507,178,126902,1,0,3:2:0:0:
351,43,127117,6,0,P|313:55|287:84,1,79.9999976158142,6|0,3:2|0:0,0:0:0:0:
326,206,127545,1,2,3:2:0:0:
490,144,127759,2,0,P|446:147|393:159,1,79.9999976158142,0|10,3:2|0:0,0:0:0:0:
190,94,128188,2,0,P|212:129|248:166,1,79.9999976158142,0|6,0:0|3:2,0:0:0:0:
297,379,128617,2,0,P|315:342|330:299,1,79.9999976158142,0|8,3:2|0:0,0:0:0:0:
326,206,128938,1,8,0:0:0:0:
326,206,129045,1,8,0:0:0:0:
184,279,129259,2,0,L|113:315,1,79.9999976158142,6|0,3:2|0:0,0:0:0:0:
5,369,129688,5,10,0:0:0:0:
152,180,129902,1,4,0:3:0:0:
6,54,130117,5,10,3:2:0:0:
239,193,130331,1,0,3:2:0:0:
442,38,130545,6,0,P|364:58|296:98,1,159.999995231628,6|0,3:2|0:0,0:0:0:0:
198,296,131188,1,0,3:2:0:0:
171,106,131402,1,8,0:0:0:0:
349,177,131617,1,0,3:2:0:0:
131,191,131831,6,0,P|81:131|97:48,1,159.999995231628,0|0,3:2|0:0,0:0:0:0:
239,193,132474,1,8,0:0:0:0:
79,313,132688,1,0,3:2:0:0:
79,313,133117,6,0,P|41:332|48:253,1,159.999995231628,12|0,0:0|0:0,0:0:0:0:
140,378,133759,1,0,3:2:0:0:
228,244,133974,6,0,P|238:184|240:123,1,119.999996423721,6|0,3:2|0:0,0:0:0:0:
232,46,134402,1,0,3:2:0:0:
97,63,134617,2,0,P|127:87|167:92,1,79.9999976158142,0|8,3:2|0:0,0:0:0:0:
305,79,135045,1,0,0:0:0:0:
159,13,135259,1,0,3:2:0:0:
325,77,135474,6,0,P|364:75|405:69,1,79.9999976158142,0|2,3:2|0:0,0:0:0:0:
490,10,135902,1,10,0:0:0:0:
434,144,136117,1,2,0:0:0:0:
325,77,136331,1,2,3:2:0:0:
421,224,136545,1,8,0:0:0:0:
263,201,136759,2,0,P|265:240|271:281,1,79.9999976158142,2|0,3:2|0:0,0:0:0:0:
351,370,137188,1,0,3:2:0:0:
187,306,137402,6,0,P|178:247|175:187,1,119.999996423721,6|0,3:2|0:0,0:0:0:0:
187,107,137831,1,0,3:2:0:0:
344,138,138045,1,0,0:0:0:0:
270,281,138259,2,0,P|265:241|263:201,1,79.9999976158142,8|0,0:0|0:0,0:0:0:0:
351,370,138688,1,0,3:2:0:0:
187,306,138902,1,0,3:2:0:0:
436,310,139117,6,0,P|472:295|498:265,1,79.9999976158142,10|0,0:0|0:0,0:0:0:0:
462,146,139545,1,0,3:2:0:0:
421,224,139759,1,0,3:2:0:0:
425,27,139973,5,10,0:0:0:0:
498,264,140188,1,4,3:2:0:0:
439,22,140402,5,8,0:0:0:0:
343,183,140617,1,0,3:2:0:0:
453,17,140831,6,0,P|471:72|461:132,1,119.999996423721,6|0,3:2|0:0,0:0:0:0:
421,224,141259,1,0,3:2:0:0:
188,111,141474,1,0,3:2:0:0:
310,339,141688,1,8,0:0:0:0:
346,83,141902,1,0,3:2:0:0:
166,269,142117,2,0,P|153:307|150:346,1,79.9999976158142,14|0,0:0|0:0,0:0:0:0:
310,339,142545,5,2,3:2:0:0:
421,224,142759,1,8,0:0:0:0:
346,83,142974,1,8,0:0:0:0:
342,76,143081,1,8,0:0:0:0:
338,69,143188,1,8,0:0:0:0:
334,62,143295,1,8,0:0:0:0:
330,55,143402,5,6,3:2:0:0:
188,111,143617,1,0,3:2:0:0:
134,265,143831,1,8,0:0:0:0:
142,266,143938,1,8,0:0:0:0:
150,267,144045,1,0,3:2:0:0:
158,268,144152,1,0,3:2:0:0:
166,269,144259,6,0,P|210:266|325:250,1,159.999995231628,6|2,3:2|3:2,0:0:0:0:
149,191,144902,1,0,0:0:0:0:
254,334,145117,1,10,0:0:0:0:
324,172,145331,1,0,0:0:0:0:
90,245,145545,6,0,P|72:171|128:114,1,159.999995231628,14|0,0:0|0:0,0:0:0:0:
248,219,146188,1,4,0:3:0:0:
149,191,146402,1,4,3:3:0:0:
223,120,146617,1,4,0:0:0:0:
174,290,146831,1,2,0:0:0:0:
50,163,147045,1,4,0:3:0:0:
248,219,147259,2,0,P|288:216|322:198,1,79.9999976158142,4|4,3:3|0:0,0:0:0:0:
403,49,147688,6,0,B|384:83|384:83|411:203,1,159.999995231628,6|2,3:2|3:2,0:0:0:0:
438,319,148331,1,0,3:2:0:0:
323,197,148546,1,10,0:0:0:0:
275,359,148760,1,0,3:2:0:0:
411,201,148974,6,0,P|379:129|305:111,1,159.999995231628,14|0,0:0|0:0,0:0:0:0:
240,169,149617,1,4,0:3:0:0:
323,197,149831,1,4,3:3:0:0:
223,83,150046,1,0,3:2:0:0:
174,227,150259,2,0,L|149:302,1,79.9999976158142,2|2,3:2|0:0,0:0:0:0:
124,379,150581,1,8,0:0:0:0:
124,379,150688,1,10,0:0:0:0:
91,223,150902,1,2,0:0:0:0:
242,273,151117,6,0,B|295:289|337:259|337:259|318:316,1,159.999995231628,6|2,3:2|3:2,0:0:0:0:
256,378,151759,1,2,0:0:0:0:
413,287,151974,2,0,P|416:247|403:209,1,79.9999976158142,10|2,0:0|3:2,0:0:0:0:
277,184,152402,1,2,3:2:0:0:
337,259,152617,1,0,0:0:0:0:
311,95,152831,6,0,L|299:16,1,79.9999976158142,2|2,3:2|0:0,0:0:0:0:
182,199,153259,2,0,L|194:278,1,79.9999976158142,0|2,0:0|0:0,0:0:0:0:
323,174,153688,1,10,0:0:0:0:
170,120,153902,1,2,3:2:0:0:
194,278,154117,1,10,0:0:0:0:
299,16,154331,1,2,3:2:0:0:
54,51,154545,6,0,B|106:59|106:59|152:31|152:31|205:39,1,159.999995231628,6|0,3:2|3:2,0:0:0:0:
170,120,155187,1,2,0:0:0:0:
299,16,155402,2,0,P|300:56|285:93,1,79.9999976158142,10|2,0:0|3:2,0:0:0:0:
212,207,155830,1,2,3:2:0:0:
170,120,156045,1,0,0:0:0:0:
254,294,156259,6,0,P|204:303|162:288,1,79.9999976158142,2|2,3:2|3:2,0:0:0:0:
362,136,156688,2,0,P|412:127|454:142,1,79.9999976158142,2|2,0:0|0:0,0:0:0:0:
308,215,157117,1,8,0:0:0:0:
170,120,157331,1,2,3:2:0:0:
404,223,157545,1,10,0:0:0:0:
200,373,157759,1,0,3:2:0:0:
266,128,157974,6,0,B|285:65|272:5|272:5|247:30,1,159.999995231628,6|2,3:2|3:2,0:0:0:0:
170,120,158616,1,2,0:0:0:0:
308,215,158831,2,0,P|348:213|387:204,1,79.9999976158142,10|2,0:0|0:0,0:0:0:0:
467,121,159259,1,2,3:2:0:0:
439,281,159474,1,2,0:0:0:0:
439,281,159688,5,10,0:0:0:0:
387,204,159902,1,2,3:2:0:0:
376,362,160117,1,2,3:2:0:0:
463,255,160331,1,2,3:2:0:0:
290,294,160545,1,10,0:0:0:0:
320,138,160759,1,2,3:2:0:0:
179,275,160974,5,10,0:0:0:0:
270,61,161188,1,8,0:0:0:0:
387,204,161402,6,0,P|426:201|462:183,1,79.9999976158142,6|0,3:2|0:0,0:0:0:0:
270,61,161830,1,2,3:2:0:0:
254,205,162044,1,2,3:2:0:0:
405,119,162259,2,0,P|421:83|424:43,1,79.9999976158142,10|0,0:0|0:0,0:0:0:0:
320,138,162687,1,2,3:2:0:0:
461,183,162902,1,2,3:2:0:0:
342,296,163116,6,0,L|331:215,1,79.9999976158142,2|2,3:2|3:2,0:0:0:0:
439,341,163545,1,10,0:0:0:0:
439,341,163652,2,0,L|450:260,1,79.9999976158142,8|8,0:0|0:0,0:0:0:0:
461,183,163974,1,10,3:2:0:0:
342,296,164187,1,2,3:2:0:0:
325,307,164295,1,8,0:0:0:0:
308,318,164402,2,0,L|268:311,1,39.9999988079071,10|0,0:0|3:2,0:0:0:0:
189,366,164617,2,0,L|161:338,1,39.9999988079071,0|0,3:2|3:2,0:0:0:0:
57,359,164831,6,0,P|80:276|57:192,1,176.000000125885,6|2,3:2|3:2,0:0:0:0:
0,114,165473,1,2,0:0:0:0:
152,180,165688,2,0,P|195:182|236:165,1,88.0000000629425,10|0,0:0|0:0,0:0:0:0:
95,104,166117,1,2,3:2:0:0:
114,268,166331,1,0,0:0:0:0:
209,78,166545,6,0,P|252:76|293:93,1,88.0000000629425,10|0,0:0|0:0,0:0:0:0:
425,212,166974,2,0,P|382:214|341:197,1,88.0000000629425,2|2,3:2|0:0,0:0:0:0:
308,25,167402,1,10,0:0:0:0:
232,186,167617,1,2,3:2:0:0:
386,97,167831,1,10,0:0:0:0:
209,78,168045,1,0,3:2:0:0:
341,197,168259,6,0,B|378:266|366:348|366:348|394:325,1,191.99998841858,14|2,0:0|3:2,0:0:0:0:
470,253,168901,1,2,0:0:0:0:
357,113,169117,2,0,P|310:117|273:146,1,95.9999942092898,10|0,0:0|0:0,0:0:0:0:
256,313,169544,1,2,3:2:0:0:
325,235,169759,1,0,0:0:0:0:
161,272,169974,6,0,P|114:268|77:239,1,95.9999942092898,10|0,0:0|0:0,0:0:0:0:
283,50,170402,2,0,L|273:146,1,95.9999942092898,2|2,3:2|0:0,0:0:0:0:
256,313,170830,1,10,0:0:0:0:
171,168,171045,1,10,0:0:0:0:
325,235,171259,1,2,3:2:0:0:
161,272,171474,1,0,3:2:0:0:
273,146,171688,6,0,P|278:49|188:13,1,207.999984279633,14|2,0:0|3:2,0:0:0:0:
171,168,172330,1,2,0:0:0:0:
375,124,172545,2,0,L|476:102,1,103.999992139817,10|0,0:0|0:0,0:0:0:0:
306,47,172973,1,2,3:2:0:0:
343,223,173188,1,0,0:0:0:0:
477,102,173402,6,0,P|505:62|510:9,1,103.999992139817,14|2,0:0|0:0,0:0:0:0:
375,124,173831,1,2,3:2:0:0:
467,302,174045,2,0,L|445:201,1,103.999992139817,2|10,0:0|0:0,0:0:0:0:
407,25,174473,1,2,3:2:0:0:
343,223,174688,5,10,0:0:0:0:
205,69,174902,1,8,0:0:0:0:
477,102,175117,6,0,P|430:130|375:124,1,111.999993244171,6|2,3:2|0:0,0:0:0:0:
306,47,175545,1,10,0:0:0:0:
306,47,175652,1,8,0:0:0:0:
306,47,175759,1,2,3:2:0:0:
343,223,175974,1,10,3:2:0:0:
407,25,176188,5,6,0:3:0:0:
274,146,176402,1,2,3:2:0:0:
477,102,176617,1,2,3:2:0:0:
205,69,176831,6,0,L|142:60,2,63.9999961395265,6|2|2,3:2|3:2|3:2,0:0:0:0:
274,146,177292,6,0,L|347:136,2,74.6666621627809,6|2|2,0:3|3:2|3:2,0:0:0:0:
125,241,177754,6,0,P|202:235|253:306,1,170.666661580404,6|0,3:2|0:0,0:0:0:0:
180,365,178215,6,0,L|169:313,1,53.3333317438762,0|0,0:0|0:0,0:0:0:0:
125,241,178677,6,0,B|75:245|32:276|32:276|47:225,1,143.999991313935,6|0,3:2|0:0,0:0:0:0:
81,160,179105,6,0,P|78:119|61:62,1,95.9999942092898,0|0,3:2|0:0,0:0:0:0:
125,241,179534,2,0,P|162:258|219:272,1,95.9999942092898,8|0,0:0|0:0,0:0:0:0:
173,124,179962,1,0,0:0:0:0:
33,277,180177,1,0,3:2:0:0:
172,151,180391,5,0,0:0:0:0:
149,312,180605,1,0,3:2:0:0:
310,264,180819,2,0,P|278:261|214:272,1,95.9999942092898,0|0,3:2|0:0,0:0:0:0:
149,312,181141,1,0,0:0:0:0:
149,312,181248,1,8,0:0:0:0:
304,183,181462,2,0,P|307:151|295:87,1,95.9999942092898,2|0,0:0|0:0,0:0:0:0:
215,19,181891,1,0,3:2:0:0:
432,69,182105,6,0,B|361:58|361:58|296:88,1,143.999991313935,6|0,3:2|0:0,0:0:0:0:
226,137,182534,6,0,P|189:135|130:123,1,95.9999942092898,2|0,3:2|0:0,0:0:0:0:
2,22,182962,2,0,P|39:24|98:36,1,95.9999942092898,10|0,0:0|0:0,0:0:0:0:
72,198,183391,1,2,0:0:0:0:
226,137,183605,1,0,3:2:0:0:
37,110,183819,5,2,0:0:0:0:
191,49,184034,1,0,3:2:0:0:
166,212,184248,2,0,P|165:259|183:303,1,95.9999942092898,0|0,3:2|0:0,0:0:0:0:
249,350,184569,1,0,0:0:0:0:
249,350,184677,1,8,0:0:0:0:
95,273,184891,2,0,P|49:286|13:317,1,95.9999942092898,2|0,0:0|0:0,0:0:0:0:
147,379,185319,1,0,3:2:0:0:
166,212,185534,6,0,L|182:69,1,143.999991313935,6|0,3:2|0:0,0:0:0:0:
87,80,185962,6,0,L|183:69,1,95.9999942092898,0|0,3:2|0:0,0:0:0:0:
425,304,186391,2,0,L|329:315,1,95.9999942092898,8|0,0:0|0:0,0:0:0:0:
212,146,186819,1,0,3:2:0:0:
300,238,187034,1,0,3:2:0:0:
144,361,187248,6,0,L|133:265,1,95.9999942092898,10|0,0:0|0:0,0:0:0:0:
368,23,187677,2,0,L|379:119,1,95.9999942092898,4|0,3:2|0:0,0:0:0:0:
389,198,187998,1,0,0:0:0:0:
389,198,188105,5,8,0:0:0:0:
123,186,188319,1,4,0:3:0:0:
300,238,188534,5,0,3:2:0:0:
212,146,188748,1,0,3:2:0:0:
222,373,188962,6,0,L|211:277,1,95.9999942092898,6|0,3:2|0:0,0:0:0:0:
301,106,189391,1,0,3:2:0:0:
123,186,189605,1,0,3:2:0:0:
123,186,189712,1,0,0:0:0:0:
123,186,189819,2,0,L|112:90,1,95.9999942092898,8|0,0:0|0:0,0:0:0:0:
389,198,190248,1,6,0:0:0:0:
211,278,190462,2,0,L|205:230,1,47.9999971046449,0|4,3:2|0:3,0:0:0:0:
123,186,190677,5,8,0:0:0:0:
301,106,190891,1,8,0:0:0:0:
301,106,190998,1,0,0:0:0:0:
301,106,191105,2,0,L|312:202,1,95.9999942092898,6|0,0:0|0:0,0:0:0:0:
222,374,191534,5,8,0:0:0:0:
290,10,191748,1,0,3:2:0:0:
323,298,191962,5,8,0:0:0:0:
189,86,192177,1,0,3:2:0:0:
454,112,192391,6,0,P|405:190|312:202,1,191.99998841858,6|0,3:2|3:2,0:0:0:0:
290,10,193034,1,0,3:2:0:0:
185,229,193248,1,8,0:0:0:0:
206,38,193462,1,0,3:2:0:0:
312,202,193677,6,0,B|347:267|326:345|326:345|292:316,1,191.99998841858,6|2,0:0|0:0,0:0:0:0:
116,168,194319,1,8,0:0:0:0:
184,356,194534,1,2,0:0:0:0:
312,202,194748,1,0,3:2:0:0:
8,208,194962,5,10,0:0:0:0:
204,242,195177,1,0,3:2:0:0:
136,54,195391,1,10,0:0:0:0:
96,282,195605,1,2,0:0:0:0:
312,202,195819,6,0,P|359:198|402:217,1,95.9999942092898,6|0,3:2|0:0,0:0:0:0:
376,375,196248,2,0,P|349:336|344:289,1,95.9999942092898,0|0,3:2|0:0,0:0:0:0:
494,232,196569,1,0,0:0:0:0:
494,232,196677,2,0,P|474:274|435:303,1,95.9999942092898,8|0,0:0|0:0,0:0:0:0:
285,360,197105,1,0,3:2:0:0:
262,221,197319,1,0,3:2:0:0:
287,211,197427,1,0,0:0:0:0:
312,202,197534,5,2,0:0:0:0:
162,258,197748,1,8,0:0:0:0:
280,116,197962,1,2,0:0:0:0:
344,288,198177,1,0,3:2:0:0:
248,29,198391,5,10,0:0:0:0:
130,172,198605,1,0,0:0:0:0:
339,44,198819,1,2,0:0:0:0:
402,217,199034,1,0,3:2:0:0:
189,101,199248,6,0,L|105:55,1,95.9999942092898,6|0,3:2|0:0,0:0:0:0:
188,277,199677,2,0,P|218:240|229:194,1,95.9999942092898,0|0,3:2|0:0,0:0:0:0:
96,282,199998,1,0,0:0:0:0:
96,282,200105,2,0,P|112:326|146:359,1,95.9999942092898,8|0,0:0|0:0,0:0:0:0:
276,286,200534,1,0,3:2:0:0:
236,98,200748,1,0,3:2:0:0:
236,98,200855,1,0,0:0:0:0:
236,98,200962,6,0,L|216:4,1,95.9999942092898,10|0,0:0|0:0,0:0:0:0:
444,152,201391,2,0,L|350:171,1,95.9999942092898,0|2,3:2|0:0,0:0:0:0:
256,192,201712,1,0,0:0:0:0:
256,192,201819,5,10,0:0:0:0:
379,80,202034,1,0,3:2:0:0:
414,244,202248,5,10,0:0:0:0:
162,212,202462,1,0,3:2:0:0:
455,173,202677,6,0,P|488:209|495:254,1,95.9999942092898,6|0,3:2|0:0,0:0:0:0:
291,356,203105,1,0,3:2:0:0:
379,80,203319,1,2,0:0:0:0:
256,192,203534,5,4,3:3:0:0:
205,191,203677,1,8,0:0:0:0:
162,164,203819,1,4,3:3:0:0:
61,243,203962,5,2,3:2:0:0:
112,244,204105,1,6,3:3:0:0:
155,271,204247,1,0,0:0:0:0:
211,363,204391,5,6,0:0:0:0:
211,363,206105,5,6,0:0:0:0:
292,275,206319,2,0,P|297:236|292:188,1,79.9999976158142,0|0,3:2|0:0,0:0:0:0:
241,70,206748,1,8,3:2:0:0:
210,203,206962,1,0,0:0:0:0:
313,114,207177,1,0,3:2:0:0:
177,125,207391,2,0,P|159:88|159:50,1,79.9999976158142,6|0,3:3|0:0,0:0:0:0:
294,196,207819,6,0,P|297:235|292:275,1,79.9999976158142,2|0,0:0|0:0,0:0:0:0:
211,363,208248,1,2,3:2:0:0:
185,270,208462,1,0,3:2:0:0:
318,368,208677,2,0,P|358:369|396:358,1,79.9999976158142,10|0,0:0|0:0,0:0:0:0:
372,186,209105,2,0,P|332:185|294:196,1,79.9999976158142,2|0,0:0|0:0,0:0:0:0:
476,260,209534,5,6,0:3:0:0:
387,108,209748,2,0,L|403:27,1,79.9999976158142,0|0,3:2|0:0,0:0:0:0:
447,160,210177,1,8,3:2:0:0:
312,134,210391,1,0,0:0:0:0:
457,149,210605,1,0,3:2:0:0:
302,145,210819,6,0,L|221:129,1,79.9999976158142,4|0,3:3|0:0,0:0:0:0:
98,65,211248,2,0,P|111:79|124:136,1,79.9999976158142,2|0,0:0|0:0,0:0:0:0:
72,295,211677,1,2,3:2:0:0:
52,201,211891,1,0,3:2:0:0:
222,215,212105,2,0,L|141:231,1,79.9999976158142,10|0,0:0|0:0,0:0:0:0:
289,259,212534,2,0,L|370:275,1,79.9999976158142,2|0,0:0|0:0,0:0:0:0:
368,274,212855,1,0,0:0:0:0:
368,274,212962,5,6,0:3:0:0:
216,292,213177,2,0,P|210:252|222:215,1,79.9999976158142,0|0,3:2|0:0,0:0:0:0:
322,133,213605,1,8,3:2:0:0:
289,259,213819,1,0,0:0:0:0:
244,138,214034,1,0,3:2:0:0:
351,208,214248,2,0,P|392:212|429:201,1,79.9999976158142,4|0,3:3|0:0,0:0:0:0:
460,44,214677,6,0,L|444:125,1,79.9999976158142,2|0,0:0|0:0,0:0:0:0:
414,279,215105,1,2,3:2:0:0:
498,232,215319,1,0,3:2:0:0:
399,358,215534,2,0,L|318:342,1,79.9999976158142,10|0,0:0|0:0,0:0:0:0:
219,209,215962,2,0,L|300:225,1,79.9999976158142,2|0,0:0|0:0,0:0:0:0:
206,296,216391,5,6,0:3:0:0:
402,257,216605,2,0,L|483:241,1,79.9999976158142,0|0,3:2|0:0,0:0:0:0:
426,171,217034,1,8,3:2:0:0:
305,276,217248,1,0,0:0:0:0:
457,328,217462,1,0,3:2:0:0:
241,328,217676,6,0,P|225:292|226:253,1,79.9999976158142,4|0,3:3|0:0,0:0:0:0:
330,130,218105,2,0,P|346:166|345:205,1,79.9999976158142,2|0,0:0|0:0,0:0:0:0:
241,328,218534,1,2,3:2:0:0:
266,182,218748,1,4,0:3:0:0:
379,276,218962,2,0,P|395:312|393:351,1,79.9999976158142,10|0,0:0|0:0,0:0:0:0:
266,182,219391,2,0,P|249:145|251:106,1,79.9999976158142,2|0,0:0|0:0,0:0:0:0:
291,36,219712,1,8,0:0:0:0:
291,36,219819,6,0,B|350:-6|403:41|422:120|252:215|252:215|121:75|154:10|214:-24|265:33,1,639.999980926514,6|0,0:0|0:0,0:0:0:0:
