osu file format v14

[General]
AudioFilename: audio.mp3
AudioLeadIn: 0
PreviewTime: 21794
Countdown: 1
SampleSet: Normal
StackLeniency: 0.7
Mode: 0
LetterboxInBreaks: 0
WidescreenStoryboard: 0

[Editor]
DistanceSpacing: 0.6
BeatDivisor: 6
GridSize: 8
TimelineZoom: 5.399998

[Metadata]
Title:History Maker (TV Size)
TitleUnicode:History Maker (TV Size)
Artist:Dean Fujitoka
ArtistUnicode:Dean Fujitoka
Creator:fartownik
Version:Born to Make History
Source:Yuri!!! on Ice
Tags:
BeatmapID:1373482
BeatmapSetID:648310

[Difficulty]
HPDrainRate:6
CircleSize:4
OverallDifficulty:9
ApproachRate:9.3
SliderMultiplier:2.2
SliderTickRate:1

[Events]
//Background and Video events
Video,0,"historymaker finalversion.avi"
0,0,"yuri-on-ice-wallpapers-iphone-1920x1200.jpg",0,0
//Break Periods
//Storyboard Layer 0 (Background)
//Storyboard Layer 1 (Fail)
//Storyboard Layer 2 (Pass)
//Storyboard Layer 3 (Foreground)
//Storyboard Sound Samples

[TimingPoints]
899,447.761194029851,4,1,1,50,1,0
899,-50,4,1,1,50,0,0
4854,-100,4,1,1,50,0,0
5376,-50,4,1,1,50,0,0
6719,-100,4,1,1,50,0,0
7167,-50,4,1,1,50,0,0
8361,-100,4,1,1,50,0,0
8958,-50,4,1,1,50,0,0
9854,-50,4,1,1,50,0,0
10301,-100,4,1,1,50,0,0
10749,-50,4,1,1,50,0,0
12242,-100,4,1,1,50,0,0
12540,-50,4,1,1,50,0,0
14033,-100,4,1,1,50,0,0
14331,-25,4,1,1,50,0,0
15078,-50,4,1,1,50,0,0
15824,-100,4,1,1,50,0,0
16122,-50,4,1,1,50,0,0
16570,-100,4,1,1,50,0,0
16943,-50,4,1,1,50,0,0
17615,-100,4,1,1,50,0,0
17913,-50,4,1,1,50,0,0
18361,-100,4,1,1,50,0,0
18809,-50,4,1,1,50,0,0
19406,-100,4,1,1,50,0,0
19704,-50,4,1,1,50,0,0
21122,-100,4,1,1,50,0,0
21496,-25,4,1,1,50,0,0
22391,-50,4,1,1,50,0,0
37167,-133.333333333333,4,1,1,50,0,0
39406,-66.6666666666667,4,1,1,50,0,0
39555,-133.333333333333,4,1,1,50,0,0
43884,-66.6666666666667,4,1,1,50,0,0
44331,-100,4,1,1,50,0,0
46570,-57.1428571428571,4,1,1,50,0,0
46869,-100,4,1,1,50,0,0
49257,-18,4,1,1,50,0,0
51048,-50,4,1,1,50,0,1
56421,-18,4,1,1,50,0,1
58212,-50,4,1,1,50,0,1
62839,-18,4,1,1,50,0,1
65301,-50,4,1,1,50,0,1
70600,-18,4,1,1,50,0,1
72391,-50,4,1,1,50,0,1
77018,-18,4,1,1,50,0,1
84182,-10,4,1,1,50,0,1
86869,-8,4,1,1,50,0,1
88660,-100,4,1,1,50,0,1

[HitObjects]
384,328,892,5,4,0:0:0:0:
408,88,1048,1,2,0:0:0:0:
408,88,1197,1,2,0:0:0:0:
256,216,1346,5,0,0:0:0:0:
376,208,1496,1,2,0:0:0:0:
376,208,1645,1,2,0:0:0:0:
288,64,1794,5,4,0:0:0:0:
256,336,1943,1,2,0:0:0:0:
256,336,2093,1,2,0:0:0:0:
376,208,2242,5,0,0:0:0:0:
176,184,2391,1,2,0:0:0:0:
176,184,2540,1,2,0:0:0:0:
136,352,2690,5,4,0:0:0:0:
176,48,2839,1,2,0:0:0:0:
176,48,2913,1,0,0:0:0:0:
176,48,2988,1,2,0:0:0:0:
448,176,3137,6,0,P|464:248|424:312,1,146.666666666667,6|0,0:0|0:0,0:0:0:0:
208,272,3436,1,2,0:0:0:0:
72,32,3585,5,4,0:0:0:0:
24,376,3734,1,2,0:0:0:0:
24,376,3809,1,0,0:0:0:0:
24,376,3884,1,2,0:0:0:0:
336,216,4033,6,0,P|352:144|312:80,1,146.666666666667,6|0,0:0|0:0,0:0:0:0:
96,120,4331,1,2,0:0:0:0:
256,336,4481,6,0,B|288:328|288:328|328:336|328:336|368:328|400:344|400:344|480:336|480:336|448:296|448:296|416:328,1,293.333333333333,6|2,0:0|0:0,0:0:0:0:
438,305,5078,6,0,P|430:265|440:216,1,73.3333333333333
480,152,5376,6,0,B|448:144|448:144|408:152|408:152|368:144|336:160|336:160|256:152|256:152|288:112|288:112|320:144,1,293.333333333333,6|2,0:0|0:0,0:0:0:0:
297,121,5973,1,2,0:0:0:0:
115,78,6272,6,0,B|43:94|27:174|75:230|147:230|179:182|179:182|195:206|195:206,1,293.333333333333,6|2,0:0|0:0,0:0:0:0:
195,206,6869,2,0,P|227:198|267:198,1,73.3333333333333
384,176,7167,6,0,B|456:192|472:272|424:328|352:328|320:280|320:280|304:304|304:304,1,293.333333333333,6|2,0:0|0:0,0:0:0:0:
304,303,7764,1,2,0:0:0:0:
96,104,8063,6,0,B|80:96|80:96|106:90|106:90|120:152|120:152|112:176|112:176|120:208,1,146.666666666667,4|2,0:0|0:0,0:0:0:0:
136,336,8361,5,2,0:0:0:0:
136,336,8660,2,0,P|184:328|224:328,1,73.3333333333333,2|2,0:0|0:0,0:0:0:0:
320,352,8958,6,0,B|352:272|304:192|304:192|296:128|296:128|272:184,1,293.333333333333,6|2,0:0|0:0,0:0:0:0:
271,184,9555,1,2,0:0:0:0:
128,192,9854,6,0,B|124:179|124:179|132:155|132:155|118:93|118:93|92:99|92:99|108:107,1,146.666666666667,4|0,0:0|0:0,0:0:0:0:
296,128,10152,5,2,0:0:0:0:
296,128,10451,2,0,P|352:136|384:136,1,73.3333333333333,2|0,0:0|0:0,0:0:0:0:
400,272,10749,6,0,B|326:278|390:351|457:316|457:316|490:247|415:186|411:260,1,293.333333333333,6|2,0:0|0:0,0:0:0:0:
411,255,11346,1,2,0:0:0:0:
240,344,11645,6,0,B|224:352|224:352|250:358|250:358|264:296|264:296|256:272|256:272|264:240,1,146.666666666667,4|0,0:0|0:0,0:0:0:0:
280,152,11943,5,2,0:0:0:0:
280,152,12242,2,0,P|344:144|360:136,1,73.3333333333333,2|2,0:0|0:0,0:0:0:0:
352,32,12540,6,0,B|272:0|192:48|192:48|128:56|128:56|184:80,1,293.333333333333,6|2,0:0|0:0,0:0:0:0:
184,80,13137,1,2,0:0:0:0:
112,232,13436,6,0,B|124:235|124:235|148:227|148:227|210:241|210:241|204:267|204:267|196:251,1,146.666666666667,4|0,0:0|0:0,0:0:0:0:
264,168,13734,5,2,0:0:0:0:
264,168,13884,1,0,0:0:0:0:
264,168,14033,2,0,P|336:160|384:160,1,73.3333333333333,2|0,0:0|0:0,0:0:0:0:
432,336,14331,6,0,B|416:328|416:328|440:320|440:320|408:312|408:312|440:304|440:304|400:296|400:296|448:280|448:280|384:264|384:264|448:240|448:240|368:216|368:216|448:192|448:192|336:160|336:160|448:120|448:120|312:24|216:88|216:88|176:184|272:264,1,1173.33333333333,8|2,0:0|0:0,0:0:0:0:
80,336,15227,6,0,B|83:324|83:324|75:300|75:300|89:238|89:238|115:244|115:244|99:252,1,146.666666666667,4|0,0:0|0:0,0:0:0:0:
80,88,15525,5,2,0:0:0:0:
80,88,15824,2,0,P|128:80|160:72,1,73.3333333333333,2|0,0:0|0:0,0:0:0:0:
279,31,16122,6,0,B|311:87|271:159|207:159|207:159|215:231|263:255,1,293.333333333333,4|2,0:0|0:0,0:0:0:0:
263,255,16719,1,2,0:0:0:0:
80,240,17018,6,0,B|77:252|77:252|85:276|85:276|71:338|71:338|45:332|45:332|61:324,1,146.666666666667,4|0,0:0|0:0,0:0:0:0:
263,255,17316,5,2,0:0:0:0:
263,255,17615,2,0,P|320:261|368:272,1,73.3333333333333,2|0,0:0|0:0,0:0:0:0:
439,304,17913,6,0,B|471:248|431:176|367:176|367:176|375:104|423:80,1,293.333333333333,4|2,0:0|0:0,0:0:0:0:
424,80,18510,2,0,P|368:80|336:88,1,73.3333333333333,2|0,0:0|0:0,0:0:0:0:
255,39,18809,6,0,B|207:47|135:95|175:103|175:103|207:79|103:63|103:63|47:23,1,293.333333333333,6|2,0:0|0:0,0:0:0:0:
50,25,19406,6,0,P|42:73|42:97,1,73.3333333333333,2|2,0:0|0:0,0:0:0:0:
144,176,19704,6,0,B|192:184|264:232|224:240|224:240|192:216|296:200|296:200|352:160,1,293.333333333333,6|2,0:0|0:0,0:0:0:0:
348,162,20301,1,2,0:0:0:0:
272,312,20600,6,0,B|224:320|152:368|192:376|192:376|224:352|120:336|120:336|64:296,1,293.333333333333,6|2,0:0|0:0,0:0:0:0:
67,298,21197,6,0,P|64:256|67:218,1,73.3333333333333,2|0,0:0|0:0,0:0:0:0:
112,112,21496,6,0,B|120:128|120:128|128:104|128:104|136:136|136:136|144:104|144:104|152:144|152:144|168:96|168:96|184:160|184:160|184:88|248:48|248:48|328:112|296:216,1,586.666666666667,8|2,0:0|0:0,0:0:0:0:
296,213,22093,1,2,0:0:0:0:
408,40,22391,6,0,P|360:40|256:80,1,146.666666666667,6|0,0:0|0:0,0:0:0:0:
160,240,22690,5,2,0:0:0:0:
168,152,22839,1,0,0:0:0:0:
152,240,22988,1,2,0:0:0:0:
176,144,23137,1,0,0:0:0:0:
267,72,23287,6,0,P|315:72|419:112,1,146.666666666667,6|0,0:0|0:0,0:0:0:0:
504,296,23585,5,2,0:0:0:0:
496,208,23734,1,0,0:0:0:0:
512,296,23883,1,2,0:0:0:0:
407,104,24032,5,2,0:0:0:0:
407,104,24107,1,2,0:0:0:0:
407,104,24182,2,0,P|359:104|255:144,1,146.666666666667,6|0,0:0|0:0,0:0:0:0:
266,136,24481,1,0,0:0:0:0:
406,168,24630,6,0,P|338:140|266:136,1,146.666666666667,6|0,0:0|0:0,0:0:0:0:
265,136,24928,1,0,0:0:0:0:
265,200,25078,6,0,P|332:172|405:167,1,146.666666666667,6|0,0:0|0:0,0:0:0:0:
405,167,25376,1,0,0:0:0:0:
265,136,25525,6,0,P|332:163|405:168,1,146.666666666667,6|0,0:0|0:0,0:0:0:0:
405,167,25824,1,2,0:0:0:0:
405,167,25899,1,2,0:0:0:0:
405,167,25973,6,0,P|397:255|405:327,1,146.666666666667,6|0,0:0|0:0,0:0:0:0:
184,256,26272,1,2,0:0:0:0:
304,272,26421,1,0,0:0:0:0:
176,264,26570,1,2,0:0:0:0:
312,264,26719,1,0,0:0:0:0:
181,110,26869,6,0,P|189:198|181:270,1,146.666666666667,6|0,0:0|0:0,0:0:0:0:
352,40,27167,2,0,P|344:128|352:200,1,146.666666666667,2|0,0:0|0:0,0:0:0:0:
80,24,27466,2,0,P|88:112|80:184,1,146.666666666667,2|0,0:0|0:0,0:0:0:0:
64,248,27690,1,0,0:0:0:0:
64,248,27764,6,0,P|136:247|206:270,1,146.666666666667,6|0,0:0|0:0,0:0:0:0:
206,270,28063,1,0,0:0:0:0:
64,293,28212,6,0,P|136:293|206:270,1,146.666666666667,6|0,0:0|0:0,0:0:0:0:
206,270,28510,1,0,0:0:0:0:
352,48,28660,6,0,P|352:120|376:200,1,146.666666666667,6|2,0:0|0:0,0:0:0:0:
372,191,28958,1,2,0:0:0:0:
456,312,29107,1,2,0:0:0:0:
304,320,29257,1,2,0:0:0:0:
464,304,29406,1,2,0:0:0:0:
304,320,29555,6,0,P|256:320|152:280,1,146.666666666667,6|0,0:0|0:0,0:0:0:0:
96,64,29854,1,2,0:0:0:0:
336,16,29997,1,2,0:0:0:0:
280,248,30146,1,0,0:0:0:0:
176,0,30295,1,2,0:0:0:0:
128,216,30451,6,0,P|176:216|280:176,1,146.666666666667,6|0,0:0|0:0,0:0:0:0:
336,16,30749,1,2,0:0:0:0:
368,256,30899,1,2,0:0:0:0:
208,72,31048,1,0,0:0:0:0:
480,184,31197,1,2,0:0:0:0:
224,336,31346,6,0,P|208:256|216:192,1,146.666666666667,6|2,0:0|0:0,0:0:0:0:
400,16,31645,1,2,0:0:0:0:
312,224,31794,1,2,0:0:0:0:
224,48,31943,1,0,0:0:0:0:
480,184,32093,1,2,0:0:0:0:
104,248,32242,6,0,P|120:168|112:104,1,146.666666666667,6|0,0:0|0:0,0:0:0:0:
16,320,32540,1,2,0:0:0:0:
160,16,32690,1,0,0:0:0:0:
0,104,32839,1,2,0:0:0:0:
304,152,32988,1,2,0:0:0:0:
304,152,33063,1,2,0:0:0:0:
304,152,33137,6,0,P|224:176|160:208,1,146.666666666667,6|0,0:0|0:0,0:0:0:0:
200,344,33436,1,2,0:0:0:0:
168,104,33586,1,2,0:0:0:0:
328,288,33735,1,0,0:0:0:0:
56,176,33884,1,2,0:0:0:0:
280,48,34033,6,0,P|360:72|424:104,1,146.666666666667,6|0,0:0|0:0,0:0:0:0:
472,240,34331,1,2,0:0:0:0:
160,264,34481,1,0,0:0:0:0:
416,99,34630,1,2,0:0:0:0:
264,344,34779,1,2,0:0:0:0:
264,344,34854,1,2,0:0:0:0:
264,344,34928,6,0,L|248:184,1,146.666666666667,6|0,0:0|0:0,0:0:0:0:
240,80,35227,1,0,0:0:0:0:
16,104,35376,5,12,0:0:0:0:
32,192,35525,1,8,0:0:0:0:
88,280,35675,1,8,0:0:0:0:
200,336,35824,5,12,0:0:0:0:
168,192,35973,1,8,0:0:0:0:
288,48,36122,1,8,0:0:0:0:
496,40,36272,5,12,0:0:0:0:
200,16,36421,1,12,0:0:0:0:
80,320,36570,1,12,0:0:0:0:
480,368,36719,5,12,0:0:0:0:
480,368,37316,6,0,P|464:312|456:296,1,55.0000020980836
384,288,37615,2,0,P|347:242|333:231,1,55.0000020980836
264,248,37913,2,0,P|212:220|195:215,1,55.0000020980836
144,280,38212,2,0,P|80:296|40:336,1,110.000004196167
47,324,39107,6,0,P|63:268|71:252,1,55.0000020980836
144,240,39406,6,0,P|180:194|232:160,1,110.000004196167,10|0,0:0|0:0,0:0:0:0:
288,232,39704,6,0,P|339:204|356:199,1,55.0000020980836
392,296,40003,2,0,P|450:290|467:292,1,55.0000020980836
456,72,40301,5,4,1:0:0:0:
456,72,41197,6,0,P|431:83|407:98,1,55.0000020980836
320,160,41496,2,0,P|344:171|368:186,1,55.0000020980836
56,72,42093,6,0,P|80:83|104:98,1,55.0000020980836
192,160,42392,2,0,P|167:171|143:186,1,55.0000020980836
0,232,42690,2,0,P|24:243|48:258,1,55.0000020980836
240,328,42988,6,0,P|215:339|191:354,1,55.0000020980836
272,224,43287,2,0,P|244:224|217:229,1,55.0000020980836
352,144,43585,2,0,P|326:134|299:128,1,55.0000020980836
456,32,43884,6,0,B|464:112|464:112|448:216|448:216|464:368,1,330.000012588501,4|4,0:0|0:0,0:0:0:0:
463,359,44481,6,0,P|447:303|431:279,1,73.3333333333333
352,264,44780,2,0,P|315:218|296:208,1,73.3333333333333
208,224,45078,2,0,P|156:196|136:192,1,73.3333333333333
104,280,45376,2,0,P|45:274|25:278,1,73.3333333333333
96,96,45675,6,0,P|160:80|240:88,1,146.666666666667,4|0,0:0|0:0,0:0:0:0:
352,48,46122,1,4,0:0:0:0:
352,48,46272,2,0,P|344:104|344:128,1,73.3333333333333
480,112,46570,6,0,P|488:168|488:240,1,128.333334557215,10|0,0:0|0:0,0:0:0:0:
272,208,46869,6,0,P|264:264|264:288,1,73.3333333333333
472,280,47167,2,0,P|480:336|480:360,1,73.3333333333333
192,336,47466,5,4,0:0:0:0:
184,240,47764,1,4,0:0:0:0:
136,160,48063,1,4,0:0:0:0:
316,199,48361,5,4,0:0:0:0:
316,199,48510,1,4,0:0:0:0:
223,201,48660,1,4,0:0:0:0:
223,201,48809,1,4,0:0:0:0:
136,160,48958,1,4,0:0:0:0:
136,160,49107,1,4,0:0:0:0:
192,336,49257,6,0,B|143:372|206:399|219:347|219:347|313:327|349:303|308:304|205:318|205:318|179:274|141:323|177:340,1,400,4|0,0:0|0:0,0:0:0:0:
464,288,49555,6,0,B|513:252|450:225|437:277|437:277|343:297|307:321|348:320|451:306|451:306|477:350|515:301|479:284,1,400,4|0,0:0|0:0,0:0:0:0:
192,336,49854,6,0,B|143:372|206:399|219:347|219:347|313:327|349:303|308:304|205:318|205:318|179:274|141:323|177:340,1,400,4|0,0:0|0:0,0:0:0:0:
464,288,50152,6,0,B|513:252|450:225|437:277|437:277|343:297|307:321|348:320|451:306|451:306|477:350|515:301|479:284,1,400,4|0,0:0|0:0,0:0:0:0:
192,336,50451,6,0,B|143:372|206:399|219:347|219:347|313:327|349:303|308:304|205:318|205:318|179:274|141:323|177:340,1,400,4|0,0:0|0:0,0:0:0:0:
464,288,50749,6,0,B|513:252|450:225|437:277|437:277|343:297|307:321|348:320|451:306|451:306|477:350|515:301|479:284,1,400,4|0,0:0|0:0,0:0:0:0:
162,145,51048,6,0,B|54:66|193:6|222:121|222:121|430:165|509:218|418:216|191:185|191:185|134:282|50:174|129:137,3,880,4|12|4|8,0:0|0:0|0:0|0:0,0:0:0:0:
127,138,54033,1,0,0:0:0:0:
127,138,54331,1,0,0:0:0:0:
369,175,54481,1,0,0:0:0:0:
369,175,54555,1,0,0:0:0:0:
369,175,54630,6,0,B|432:98|295:52|274:158|274:158|66:202|-12:255|77:253|305:222|305:222|366:321|460:213|367:174,1,880,4|12,0:0|0:0,0:0:0:0:
369,175,55824,1,0,0:0:0:0:
369,175,56122,1,0,0:0:0:0:
160,336,56421,6,0,B|196:385|223:322|171:309|171:309|151:215|127:179|128:220|142:323|142:323|98:349|147:387|164:351,1,400,4|0,0:0|0:0,0:0:0:0:
112,64,56719,6,0,B|76:15|49:78|101:91|101:91|121:185|145:221|144:180|130:77|130:77|174:51|125:13|108:49,1,400,4|0,0:0|0:0,0:0:0:0:
160,336,57018,6,0,B|196:385|223:322|171:309|171:309|151:215|127:179|128:220|142:323|142:323|98:349|147:387|164:351,1,400,4|0,0:0|0:0,0:0:0:0:
112,64,57316,6,0,B|76:15|49:78|101:91|101:91|121:185|145:221|144:180|130:77|130:77|174:51|125:13|108:49,1,400,12|0,0:0|0:0,0:0:0:0:
160,336,57615,6,0,B|196:385|223:322|171:309|171:309|151:215|127:179|128:220|142:323|142:323|98:349|147:387|164:351,1,400,4|0,0:0|0:0,0:0:0:0:
112,64,57913,6,0,B|76:15|49:78|101:91|101:91|121:185|145:221|144:180|130:77|130:77|174:51|125:13|108:49,1,400,4|0,0:0|0:0,0:0:0:0:
349,145,58212,6,0,B|457:66|318:6|289:121|289:121|81:165|2:218|93:216|320:185|320:185|377:282|461:174|382:137,3,880,4|12|4|8,0:0|0:0|0:0|0:0,0:0:0:0:
385,138,61197,1,0,0:0:0:0:
385,138,61495,1,0,0:0:0:0:
178,183,61645,1,0,0:0:0:0:
178,183,61719,1,0,0:0:0:0:
178,183,61794,6,0,B|69:103|208:43|237:158|237:158|445:202|524:255|434:253|206:222|206:222|149:319|65:211|144:174,1,880,4|12,0:0|0:0,0:0:0:0:
141,175,62982,6,0,B|92:211|155:238|168:186|168:186|262:166|298:142|257:143|154:157|154:157|128:113|90:162|126:179,1,400,4|0,0:0|0:0,0:0:0:0:
413,127,63280,6,0,B|462:91|399:64|386:116|386:116|292:136|256:160|297:159|400:145|400:145|426:189|464:140|428:123,1,400,4|0,0:0|0:0,0:0:0:0:
141,175,63579,6,0,B|92:211|155:238|168:186|168:186|262:166|298:142|257:143|154:157|154:157|128:113|90:162|126:179,1,400,4|0,0:0|0:0,0:0:0:0:
413,127,63877,6,0,B|462:91|399:64|386:116|386:116|292:136|256:160|297:159|400:145|400:145|426:189|464:140|428:123,1,400,4|0,0:0|0:0,0:0:0:0:
141,175,64176,6,0,B|92:211|155:238|168:186|168:186|262:166|298:142|257:143|154:157|154:157|128:113|90:162|126:179,1,400,4|0,0:0|0:0,0:0:0:0:
413,127,64475,6,0,B|462:91|399:64|386:116|386:116|292:136|256:160|297:159|400:145|400:145|426:189|464:140|428:123,1,400,4|0,0:0|0:0,0:0:0:0:
141,175,64773,6,0,B|92:211|155:238|168:186|168:186|262:166|298:142|257:143|154:157|154:157|128:113|90:162|126:179,1,400,4|0,0:0|0:0,0:0:0:0:
413,127,65072,6,0,B|462:91|399:64|386:116|386:116|292:136|256:160|297:159|400:145|400:145|426:189|464:140|428:123,1,400,4|0,0:0|0:0,0:0:0:0:
160,288,65376,6,0,B|80:397|20:258|135:229|135:229|179:21|232:-58|230:32|199:260|199:260|296:317|188:401|151:322,1,880,4|12,0:0|0:0,0:0:0:0:
152,324,66570,1,4,0:0:0:0:
360,288,66719,1,4,0:0:0:0:
120,216,66869,1,4,0:0:0:0:
360,288,67018,1,4,0:0:0:0:
295,87,67167,6,0,B|375:-22|435:117|320:146|320:146|276:354|223:433|225:343|256:115|256:115|159:58|267:-26|304:53,1,880,4|12,0:0|0:0,0:0:0:0:
303,51,68361,1,4,0:0:0:0:
424,272,68511,1,4,0:0:0:0:
216,104,68660,2,0,P|128:136|88:184,1,146.666666666667,4|0,0:0|0:0,0:0:0:0:
200,288,68958,6,0,B|91:208|230:148|259:263|259:263|467:307|546:360|456:358|228:327|228:327|171:424|87:316|166:279,1,880,4|12,0:0|0:0,0:0:0:0:
163,280,70152,1,4,0:0:0:0:
163,280,70451,1,4,0:0:0:0:
352,48,70749,6,0,B|316:-1|289:62|341:75|341:75|361:169|385:205|384:164|370:61|370:61|414:35|365:-3|348:33,1,400,4|0,0:0|0:0,0:0:0:0:
400,320,71047,6,0,B|436:369|463:306|411:293|411:293|391:199|367:163|368:204|382:307|382:307|338:333|387:371|404:335,1,400,4|0,0:0|0:0,0:0:0:0:
352,48,71346,6,0,B|316:-1|289:62|341:75|341:75|361:169|385:205|384:164|370:61|370:61|414:35|365:-3|348:33,1,400,4|0,0:0|0:0,0:0:0:0:
400,320,71644,6,0,B|436:369|463:306|411:293|411:293|391:199|367:163|368:204|382:307|382:307|338:333|387:371|404:335,1,400,12|0,0:0|0:0,0:0:0:0:
352,48,71943,6,0,B|316:-1|289:62|341:75|341:75|361:169|385:205|384:164|370:61|370:61|414:35|365:-3|348:33,1,400,4|0,0:0|0:0,0:0:0:0:
400,320,72241,6,0,B|436:369|463:306|411:293|411:293|391:199|367:163|368:204|382:307|382:307|338:333|387:371|404:335,1,400,4|0,0:0|0:0,0:0:0:0:
232,184,72540,6,0,B|341:104|202:44|173:159|173:159|-35:203|-114:256|-24:254|204:223|204:223|261:320|345:212|266:175,2,880,4|12|4,0:0|0:0|0:0,0:0:0:0:
232,184,74779,1,4,0:0:0:0:
400,232,74928,2,0,P|400:144|384:88,1,146.666666666667,4|4,0:0|0:0,0:0:0:0:
120,152,75227,6,0,B|11:72|150:12|179:127|179:127|387:171|466:224|376:222|148:191|148:191|91:288|7:180|86:143,1,880,12|4,0:0|0:0,0:0:0:0:
83,144,76570,1,4,0:0:0:0:
160,304,76719,2,0,P|248:288|328:288,1,146.666666666667,12|4,0:0|0:0,0:0:0:0:
408,320,77018,6,0,B|444:369|471:306|419:293|419:293|399:199|375:163|376:204|390:307|390:307|346:333|395:371|412:335,1,400,12|0,0:0|0:0,0:0:0:0:
360,48,77466,6,0,B|324:-1|297:62|349:75|349:75|369:169|393:205|392:164|378:61|378:61|422:35|373:-3|356:33,1,400,4|0,0:0|0:0,0:0:0:0:
408,320,77913,6,0,B|444:369|471:306|419:293|419:293|399:199|375:163|376:204|390:307|390:307|346:333|395:371|412:335,1,400,4|0,0:0|0:0,0:0:0:0:
360,48,78212,6,0,B|324:-1|297:62|349:75|349:75|369:169|393:205|392:164|378:61|378:61|422:35|373:-3|356:33,1,400,4|0,0:0|0:0,0:0:0:0:
408,320,78510,6,0,B|444:369|471:306|419:293|419:293|399:199|375:163|376:204|390:307|390:307|346:333|395:371|412:335,1,400,4|0,0:0|0:0,0:0:0:0:
360,48,78809,6,0,B|324:-1|297:62|349:75|349:75|369:169|393:205|392:164|378:61|378:61|422:35|373:-3|356:33,1,400,12|0,0:0|0:0,0:0:0:0:
408,320,79107,6,0,B|444:369|471:306|419:293|419:293|399:199|375:163|376:204|390:307|390:307|346:333|395:371|412:335,1,400,4|0,0:0|0:0,0:0:0:0:
360,48,79406,6,0,B|324:-1|297:62|349:75|349:75|369:169|393:205|392:164|378:61|378:61|422:35|373:-3|356:33,1,400,4|0,0:0|0:0,0:0:0:0:
64,72,79704,5,6,0:0:0:0:
88,256,79854,1,0,0:0:0:0:
264,232,80003,1,0,0:0:0:0:
248,56,80152,5,6,0:0:0:0:
264,232,80301,1,0,0:0:0:0:
88,256,80451,1,0,0:0:0:0:
64,72,80600,5,6,0:0:0:0:
88,256,80750,1,0,0:0:0:0:
264,232,80899,6,0,B|313:196|250:169|237:221|237:221|143:241|107:265|148:264|251:250|251:250|277:294|315:245|279:228,1,400,4|0,0:0|0:0,0:0:0:0:
336,216,81197,6,0,B|287:252|350:279|363:227|363:227|457:207|493:183|452:184|349:198|349:198|323:154|285:203|321:220,1,400,4|0,0:0|0:0,0:0:0:0:
304,256,81496,6,0,B|268:207|241:270|293:283|293:283|313:377|337:413|336:372|322:269|322:269|366:243|317:205|300:241,1,400,4|0,0:0|0:0,0:0:0:0:
288,192,81794,6,0,B|324:241|351:178|299:165|299:165|279:71|255:35|256:76|270:179|270:179|226:205|275:243|292:207,1,400,4|0,0:0|0:0,0:0:0:0:
264,232,82093,6,0,B|313:196|250:169|237:221|237:221|143:241|107:265|148:264|251:250|251:250|277:294|315:245|279:228,1,400,4|0,0:0|0:0,0:0:0:0:
336,216,82391,6,0,B|287:252|350:279|363:227|363:227|457:207|493:183|452:184|349:198|349:198|323:154|285:203|321:220,1,400,12|12,0:0|0:0,0:0:0:0:
304,256,82690,6,0,B|268:207|241:270|293:283|293:283|313:377|337:413|336:372|322:269|322:269|366:243|317:205|300:241,1,400,4|4,0:0|0:0,0:0:0:0:
288,192,82988,6,0,B|324:241|351:178|299:165|299:165|279:71|255:35|256:76|270:179|270:179|226:205|275:243|292:207,1,400,4|4,0:0|0:0,0:0:0:0:
96,80,83287,5,6,0:0:0:0:
128,304,83436,1,4,0:0:0:0:
344,272,83585,1,4,0:0:0:0:
320,56,83734,5,6,0:0:0:0:
344,272,83884,1,4,0:0:0:0:
128,304,84033,1,4,0:0:0:0:
56,176,84182,6,0,B|-34:242|81:291|105:196|105:196|278:159|345:115|269:117|79:142|79:142|32:61|-37:152|28:183,1,733.333333333333,14|4,0:0|0:0,0:0:0:0:
456,104,84481,6,0,B|546:37|430:-11|406:83|406:83|233:120|166:164|242:162|432:137|432:137|479:218|549:127|483:96,1,733.333333333333,4|4,0:0|0:0,0:0:0:0:
56,176,84779,6,0,B|-34:242|81:291|105:196|105:196|278:159|345:115|269:117|79:142|79:142|32:61|-37:152|28:183,1,733.333333333333,4|4,0:0|0:0,0:0:0:0:
456,104,85078,6,0,B|546:37|430:-11|406:83|406:83|233:120|166:164|242:162|432:137|432:137|479:218|549:127|483:96,1,733.333333333333,14|4,0:0|0:0,0:0:0:0:
56,176,85376,6,0,B|-34:242|81:291|105:196|105:196|278:159|345:115|269:117|79:142|79:142|32:61|-37:152|28:183,1,733.333333333333,4|4,0:0|0:0,0:0:0:0:
456,104,85675,6,0,B|546:37|430:-11|406:83|406:83|233:120|166:164|242:162|432:137|432:137|479:218|549:127|483:96,1,733.333333333333,4|4,0:0|0:0,0:0:0:0:
56,176,85973,6,0,B|-34:242|81:291|105:196|105:196|278:159|345:115|269:117|79:142|79:142|32:61|-37:152|28:183,1,733.333333333333,14|4,0:0|0:0,0:0:0:0:
456,104,86272,6,0,B|546:37|430:-11|406:83|406:83|233:120|166:164|242:162|432:137|432:137|479:218|549:127|483:96,1,733.333333333333,4|4,0:0|0:0,0:0:0:0:
56,176,86570,6,0,B|-34:242|81:291|105:196|105:196|278:159|345:115|269:117|79:142|79:142|32:61|-37:152|28:183,1,733.333333333333,4|4,0:0|0:0,0:0:0:0:
320,208,86869,6,0,B|355:159|382:221|330:234|330:234|311:327|287:362|288:322|302:220|302:220|258:195|307:157|323:193,1,366.666666666667,4|0,0:0|0:0,0:0:0:0:
320,208,87018,6,0,B|284:256|257:194|309:181|309:181|328:88|352:53|351:93|337:195|337:195|381:220|332:258|316:222,1,366.666666666667,4|0,0:0|0:0,0:0:0:0:
320,208,87167,6,0,B|271:172|333:145|346:197|346:197|439:216|474:240|434:239|332:225|332:225|307:269|269:220|305:204,1,366.666666666667,4|0,0:0|0:0,0:0:0:0:
320,208,87316,6,0,B|368:243|306:270|293:218|293:218|200:199|165:175|205:176|307:190|307:190|332:146|370:195|334:211,1,366.666666666667,4|0,0:0|0:0,0:0:0:0:
320,208,87466,6,0,B|355:159|382:221|330:234|330:234|311:327|287:362|288:322|302:220|302:220|258:195|307:157|323:193,1,366.666666666667,4|0,0:0|0:0,0:0:0:0:
320,208,87615,6,0,B|284:256|257:194|309:181|309:181|328:88|352:53|351:93|337:195|337:195|381:220|332:258|316:222,1,366.666666666667,4|0,0:0|0:0,0:0:0:0:
320,208,87764,6,0,B|271:172|333:145|346:197|346:197|439:216|474:240|434:239|332:225|332:225|307:269|269:220|305:204,1,366.666666666667,4|0,0:0|0:0,0:0:0:0:
320,208,87913,6,0,B|368:243|306:270|293:218|293:218|200:199|165:175|205:176|307:190|307:190|332:146|370:195|334:211,1,366.666666666667,4|0,0:0|0:0,0:0:0:0:
320,208,88063,6,0,B|355:159|382:221|330:234|330:234|311:327|287:362|288:322|302:220|302:220|258:195|307:157|323:193,1,366.666666666667,4|0,0:0|0:0,0:0:0:0:
320,208,88212,6,0,B|284:256|257:194|309:181|309:181|328:88|352:53|351:93|337:195|337:195|381:220|332:258|316:222,1,366.666666666667,4|0,0:0|0:0,0:0:0:0:
320,208,88361,6,0,B|271:172|333:145|346:197|346:197|439:216|474:240|434:239|332:225|332:225|307:269|269:220|305:204,1,366.666666666667,4|0,0:0|0:0,0:0:0:0:
320,208,88510,6,0,B|368:243|306:270|293:218|293:218|200:199|165:175|205:176|307:190|307:190|332:146|370:195|334:211,1,366.666666666667,4|0,0:0|0:0,0:0:0:0:
320,208,88660,6,0,B|368:243|306:270|293:218|293:218|200:199|165:175|205:176|307:190|307:190|332:146|370:195|334:211,1,366.666666666667,4|0,0:0|0:0,0:0:0:0:
