osu file format v14

[General]
AudioFilename: audio.mp3
AudioLeadIn: 0
PreviewTime: -1
Countdown: 0
SampleSet: None
StackLeniency: 0.7
Mode: 3
LetterboxInBreaks: 0
SpecialStyle: 0
WidescreenStoryboard: 1

[Editor]
DistanceSpacing: 0.9
BeatDivisor: 6
GridSize: 8
TimelineZoom: 1

[Metadata]
Title:History Maker (TVSize)
TitleUnicode:History Maker (TVSize)
Artist:Dean Fujioka
ArtistUnicode:Dean Fujioka
Creator:Leniane
Version:Rice Maker
Source:ユーリ!!! on ICE
Tags:Yuri on ice anime full Long Notes
BeatmapID:1847843
BeatmapSetID:883981

[Difficulty]
HPDrainRate:9.2
CircleSize:4
OverallDifficulty:8.8
ApproachRate:5
SliderMultiplier:1.4
SliderTickRate:1

[Events]
//Background and Video events
0,0,"background.jpg",0,0
//Break Periods
//Storyboard Layer 0 (Background)
//Storyboard Layer 1 (Fail)
//Storyboard Layer 2 (Pass)
//Storyboard Layer 3 (Foreground)
//Storyboard Sound Samples

[TimingPoints]
670,895.522388059701,4,1,0,40,1,0
50819,-100,4,1,0,40,0,1
88431,-100,4,1,0,40,0,0

[HitObjects]
64,192,670,5,0,0:0:0:0:
448,192,670,1,0,0:0:0:0:
192,192,819,1,0,0:0:0:0:
320,192,968,1,0,0:0:0:0:
192,192,1117,1,0,0:0:0:0:
448,192,1117,1,0,0:0:0:0:
64,192,1267,1,0,0:0:0:0:
448,192,1416,1,0,0:0:0:0:
320,192,1565,1,0,0:0:0:0:
64,192,1565,1,0,0:0:0:0:
448,192,1714,1,0,0:0:0:0:
320,192,1864,1,0,0:0:0:0:
64,192,2013,1,0,0:0:0:0:
192,192,2013,1,0,0:0:0:0:
448,192,2162,1,0,0:0:0:0:
192,192,2311,1,0,0:0:0:0:
64,192,2461,1,0,0:0:0:0:
448,192,2461,1,0,0:0:0:0:
192,192,2610,1,0,0:0:0:0:
64,192,2759,1,0,0:0:0:0:
320,192,2908,1,0,0:0:0:0:
448,192,2908,1,0,0:0:0:0:
64,192,3058,1,0,0:0:0:0:
320,192,3207,1,0,0:0:0:0:
192,192,3356,1,0,0:0:0:0:
448,192,3356,1,0,0:0:0:0:
320,192,3505,1,0,0:0:0:0:
448,192,3655,1,0,0:0:0:0:
320,192,3804,1,0,0:0:0:0:
64,192,3804,1,0,0:0:0:0:
192,192,3953,1,0,0:0:0:0:
320,192,4102,1,0,0:0:0:0:
448,192,4252,1,0,0:0:0:0:
64,192,4252,1,0,0:0:0:0:
320,192,4550,1,0,0:0:0:0:
64,192,4849,1,0,0:0:0:0:
192,192,4998,1,0,0:0:0:0:
320,192,5147,1,0,0:0:0:0:
448,192,5147,1,0,0:0:0:0:
448,192,5446,1,0,0:0:0:0:
64,192,5744,1,0,0:0:0:0:
192,192,6043,1,0,0:0:0:0:
64,192,6043,1,0,0:0:0:0:
192,192,6341,1,0,0:0:0:0:
320,192,6640,1,0,0:0:0:0:
64,192,6789,1,0,0:0:0:0:
448,192,6938,1,0,0:0:0:0:
320,192,6938,1,0,0:0:0:0:
448,192,7237,1,0,0:0:0:0:
192,192,7535,1,0,0:0:0:0:
64,192,7834,1,0,0:0:0:0:
448,192,7834,1,0,0:0:0:0:
320,192,8132,1,0,0:0:0:0:
64,192,8431,1,0,0:0:0:0:
448,192,8580,1,0,0:0:0:0:
192,192,8729,1,0,0:0:0:0:
320,192,8729,1,0,0:0:0:0:
64,192,9028,1,0,0:0:0:0:
448,192,9326,1,0,0:0:0:0:
192,192,9625,1,0,0:0:0:0:
64,192,9625,1,0,0:0:0:0:
320,192,9923,1,0,0:0:0:0:
64,192,10222,1,0,0:0:0:0:
192,192,10371,1,0,0:0:0:0:
320,192,10520,1,0,0:0:0:0:
448,192,10520,1,0,0:0:0:0:
192,192,10819,1,0,0:0:0:0:
448,192,11117,1,0,0:0:0:0:
320,192,11416,1,0,0:0:0:0:
64,192,11416,1,0,0:0:0:0:
192,192,11714,1,0,0:0:0:0:
64,192,12013,1,0,0:0:0:0:
448,192,12162,1,0,0:0:0:0:
192,192,12311,1,0,0:0:0:0:
320,192,12311,1,0,0:0:0:0:
64,192,12610,1,0,0:0:0:0:
320,192,12908,1,0,0:0:0:0:
192,192,13207,1,0,0:0:0:0:
448,192,13207,1,0,0:0:0:0:
64,192,13505,1,0,0:0:0:0:
320,192,13804,1,0,0:0:0:0:
192,192,13953,1,0,0:0:0:0:
64,192,14102,1,0,0:0:0:0:
448,192,14102,1,0,0:0:0:0:
320,192,14401,1,0,0:0:0:0:
448,192,14699,1,0,0:0:0:0:
192,192,14998,1,0,0:0:0:0:
64,192,14998,1,0,0:0:0:0:
320,192,15296,1,0,0:0:0:0:
64,192,15595,1,0,0:0:0:0:
320,192,15744,1,0,0:0:0:0:
192,192,15893,1,0,0:0:0:0:
448,192,15893,1,0,0:0:0:0:
64,192,16192,1,0,0:0:0:0:
320,192,16490,1,0,0:0:0:0:
192,192,16789,1,0,0:0:0:0:
448,192,16789,1,0,0:0:0:0:
64,192,17087,1,0,0:0:0:0:
192,192,17386,1,0,0:0:0:0:
320,192,17535,1,0,0:0:0:0:
64,192,17684,1,0,0:0:0:0:
448,192,17684,1,0,0:0:0:0:
448,192,17983,1,0,0:0:0:0:
192,192,18281,1,0,0:0:0:0:
320,192,18580,1,0,0:0:0:0:
64,192,18580,1,0,0:0:0:0:
448,192,18878,1,0,0:0:0:0:
192,192,19177,1,0,0:0:0:0:
320,192,19326,1,0,0:0:0:0:
192,192,19475,1,0,0:0:0:0:
64,192,19475,1,0,0:0:0:0:
448,192,19774,1,0,0:0:0:0:
64,192,20072,1,0,0:0:0:0:
320,192,20371,1,0,0:0:0:0:
448,192,20371,1,0,0:0:0:0:
192,192,20669,1,0,0:0:0:0:
64,192,20968,1,0,0:0:0:0:
320,192,21117,1,0,0:0:0:0:
192,192,21267,1,0,0:0:0:0:
448,192,21267,1,0,0:0:0:0:
320,192,21565,1,0,0:0:0:0:
64,192,21864,1,0,0:0:0:0:
320,192,22162,1,0,0:0:0:0:
448,192,22162,1,0,0:0:0:0:
192,192,22461,1,0,0:0:0:0:
448,192,22759,1,0,0:0:0:0:
320,192,23058,1,0,0:0:0:0:
64,192,23058,1,0,0:0:0:0:
192,192,23356,1,0,0:0:0:0:
320,192,23655,1,0,0:0:0:0:
448,192,23953,1,0,0:0:0:0:
64,192,23953,1,0,0:0:0:0:
320,192,24252,1,0,0:0:0:0:
64,192,24550,1,0,0:0:0:0:
192,192,24849,1,0,0:0:0:0:
448,192,24849,1,0,0:0:0:0:
320,192,25147,1,0,0:0:0:0:
448,192,25446,1,0,0:0:0:0:
192,192,25744,1,0,0:0:0:0:
64,192,25744,1,0,0:0:0:0:
320,192,26043,1,0,0:0:0:0:
64,192,26341,1,0,0:0:0:0:
192,192,26640,1,0,0:0:0:0:
448,192,26640,1,0,0:0:0:0:
320,192,26938,1,0,0:0:0:0:
64,192,27237,1,0,0:0:0:0:
320,192,27535,1,0,0:0:0:0:
448,192,27535,1,0,0:0:0:0:
192,192,27834,1,0,0:0:0:0:
64,192,28132,1,0,0:0:0:0:
192,192,28431,1,0,0:0:0:0:
448,192,28431,1,0,0:0:0:0:
320,192,28580,1,0,0:0:0:0:
448,192,28729,1,0,0:0:0:0:
320,192,28878,1,0,0:0:0:0:
192,192,29028,1,0,0:0:0:0:
320,192,29177,1,0,0:0:0:0:
64,192,29326,1,0,0:0:0:0:
448,192,29326,1,0,0:0:0:0:
192,192,29475,1,0,0:0:0:0:
320,192,29625,1,0,0:0:0:0:
448,192,29774,1,0,0:0:0:0:
320,192,29923,1,0,0:0:0:0:
192,192,30072,1,0,0:0:0:0:
64,192,30222,1,0,0:0:0:0:
448,192,30371,1,0,0:0:0:0:
320,192,30520,1,0,0:0:0:0:
192,192,30669,1,0,0:0:0:0:
320,192,30819,1,0,0:0:0:0:
448,192,30968,1,0,0:0:0:0:
64,192,31117,1,0,0:0:0:0:
192,192,31267,1,0,0:0:0:0:
320,192,31416,1,0,0:0:0:0:
192,192,31565,1,0,0:0:0:0:
64,192,31714,1,0,0:0:0:0:
448,192,31864,1,0,0:0:0:0:
320,192,32013,1,0,0:0:0:0:
192,192,32162,1,0,0:0:0:0:
64,192,32311,1,0,0:0:0:0:
192,192,32461,1,0,0:0:0:0:
320,192,32610,1,0,0:0:0:0:
448,192,32759,1,0,0:0:0:0:
64,192,32908,1,0,0:0:0:0:
320,192,33058,1,0,0:0:0:0:
192,192,33207,1,0,0:0:0:0:
64,192,33356,1,0,0:0:0:0:
192,192,33505,1,0,0:0:0:0:
320,192,33655,1,0,0:0:0:0:
448,192,33804,1,0,0:0:0:0:
192,192,33953,1,0,0:0:0:0:
320,192,34102,1,0,0:0:0:0:
448,192,34252,1,0,0:0:0:0:
320,192,34401,1,0,0:0:0:0:
192,192,34550,1,0,0:0:0:0:
64,192,34699,1,0,0:0:0:0:
448,192,34849,1,0,0:0:0:0:
320,192,34998,1,0,0:0:0:0:
192,192,35147,1,0,0:0:0:0:
64,192,35296,1,0,0:0:0:0:
448,192,35446,1,0,0:0:0:0:
320,192,35595,1,0,0:0:0:0:
192,192,35744,1,0,0:0:0:0:
64,192,35893,1,0,0:0:0:0:
192,192,36043,1,0,0:0:0:0:
448,192,36192,1,0,0:0:0:0:
320,192,36341,1,0,0:0:0:0:
192,192,36490,1,0,0:0:0:0:
64,192,36490,1,0,0:0:0:0:
192,192,37087,1,0,0:0:0:0:
320,192,37386,1,0,0:0:0:0:
448,192,37684,1,0,0:0:0:0:
64,192,37983,1,0,0:0:0:0:
320,192,38878,1,0,0:0:0:0:
192,192,39177,1,0,0:0:0:0:
448,192,39177,1,0,0:0:0:0:
64,192,39475,1,0,0:0:0:0:
192,192,39774,1,0,0:0:0:0:
448,192,40072,1,0,0:0:0:0:
320,192,40072,1,0,0:0:0:0:
192,192,40968,1,0,0:0:0:0:
64,192,41267,1,0,0:0:0:0:
320,192,41864,1,0,0:0:0:0:
448,192,42162,1,0,0:0:0:0:
320,192,42461,1,0,0:0:0:0:
192,192,42759,1,0,0:0:0:0:
64,192,43058,1,0,0:0:0:0:
320,192,43356,1,0,0:0:0:0:
64,192,43655,1,0,0:0:0:0:
448,192,43655,1,0,0:0:0:0:
320,192,44252,1,0,0:0:0:0:
192,192,44550,1,0,0:0:0:0:
448,192,44849,1,0,0:0:0:0:
64,192,45147,1,0,0:0:0:0:
320,192,45446,1,0,0:0:0:0:
192,192,46043,1,0,0:0:0:0:
448,192,46341,1,0,0:0:0:0:
320,192,46640,1,0,0:0:0:0:
192,192,46938,1,0,0:0:0:0:
320,192,47237,1,0,0:0:0:0:
64,192,47237,1,0,0:0:0:0:
192,192,47535,1,0,0:0:0:0:
448,192,47535,1,0,0:0:0:0:
320,192,47834,1,0,0:0:0:0:
64,192,47834,1,0,0:0:0:0:
448,192,48132,1,0,0:0:0:0:
192,192,48132,1,0,0:0:0:0:
320,192,48431,1,0,0:0:0:0:
64,192,48431,1,0,0:0:0:0:
192,192,48729,1,0,0:0:0:0:
448,192,48729,1,0,0:0:0:0:
320,192,48878,1,0,0:0:0:0:
64,192,48878,1,0,0:0:0:0:
192,192,49028,1,0,0:0:0:0:
448,192,49028,1,0,0:0:0:0:
64,192,49326,1,0,0:0:0:0:
320,192,49625,1,0,0:0:0:0:
448,192,49923,1,0,0:0:0:0:
192,192,50222,1,0,0:0:0:0:
64,192,50520,1,0,0:0:0:0:
448,192,50819,1,0,0:0:0:0:
320,192,50893,1,0,0:0:0:0:
192,192,50968,1,0,0:0:0:0:
64,192,51043,1,0,0:0:0:0:
448,192,51117,1,0,0:0:0:0:
320,192,51192,1,0,0:0:0:0:
192,192,51267,1,0,0:0:0:0:
64,192,51341,1,0,0:0:0:0:
448,192,51416,1,0,0:0:0:0:
320,192,51490,1,0,0:0:0:0:
192,192,51565,1,0,0:0:0:0:
64,192,51640,1,0,0:0:0:0:
320,192,51714,1,0,0:0:0:0:
448,192,51789,1,0,0:0:0:0:
64,192,51864,1,0,0:0:0:0:
192,192,51938,1,0,0:0:0:0:
320,192,52013,1,0,0:0:0:0:
448,192,52087,1,0,0:0:0:0:
64,192,52162,1,0,0:0:0:0:
192,192,52237,1,0,0:0:0:0:
320,192,52311,1,0,0:0:0:0:
448,192,52386,1,0,0:0:0:0:
64,192,52461,1,0,0:0:0:0:
192,192,52535,1,0,0:0:0:0:
448,192,52610,1,0,0:0:0:0:
320,192,52684,1,0,0:0:0:0:
64,192,52759,1,0,0:0:0:0:
192,192,52834,1,0,0:0:0:0:
448,192,52908,1,0,0:0:0:0:
320,192,52983,1,0,0:0:0:0:
64,192,53058,1,0,0:0:0:0:
192,192,53132,1,0,0:0:0:0:
448,192,53207,1,0,0:0:0:0:
320,192,53281,1,0,0:0:0:0:
64,192,53356,1,0,0:0:0:0:
192,192,53431,1,0,0:0:0:0:
448,192,53505,1,0,0:0:0:0:
320,192,53580,1,0,0:0:0:0:
64,192,53655,1,0,0:0:0:0:
192,192,53729,1,0,0:0:0:0:
448,192,53804,1,0,0:0:0:0:
320,192,53878,1,0,0:0:0:0:
64,192,53953,1,0,0:0:0:0:
192,192,54028,1,0,0:0:0:0:
448,192,54102,1,0,0:0:0:0:
320,192,54177,1,0,0:0:0:0:
64,192,54252,1,0,0:0:0:0:
192,192,54326,1,0,0:0:0:0:
320,192,54401,1,0,0:0:0:0:
448,192,54475,1,0,0:0:0:0:
64,192,54550,1,0,0:0:0:0:
192,192,54625,1,0,0:0:0:0:
320,192,54699,1,0,0:0:0:0:
448,192,54774,1,0,0:0:0:0:
64,192,54849,1,0,0:0:0:0:
192,192,54923,1,0,0:0:0:0:
320,192,54998,1,0,0:0:0:0:
448,192,55072,1,0,0:0:0:0:
64,192,55147,1,0,0:0:0:0:
192,192,55222,1,0,0:0:0:0:
448,192,55296,1,0,0:0:0:0:
320,192,55371,1,0,0:0:0:0:
192,192,55446,1,0,0:0:0:0:
64,192,55520,1,0,0:0:0:0:
448,192,55595,1,0,0:0:0:0:
320,192,55669,1,0,0:0:0:0:
192,192,55744,1,0,0:0:0:0:
64,192,55819,1,0,0:0:0:0:
448,192,55893,1,0,0:0:0:0:
320,192,55968,1,0,0:0:0:0:
64,192,56043,1,0,0:0:0:0:
192,192,56117,1,0,0:0:0:0:
320,192,56192,1,0,0:0:0:0:
448,192,56267,1,0,0:0:0:0:
192,192,56341,1,0,0:0:0:0:
64,192,56416,1,0,0:0:0:0:
320,192,56490,1,0,0:0:0:0:
448,192,56565,1,0,0:0:0:0:
192,192,56640,1,0,0:0:0:0:
64,192,56714,1,0,0:0:0:0:
320,192,56789,1,0,0:0:0:0:
448,192,56864,1,0,0:0:0:0:
64,192,56938,1,0,0:0:0:0:
192,192,57013,1,0,0:0:0:0:
320,192,57087,1,0,0:0:0:0:
448,192,57087,1,0,0:0:0:0:
64,192,57087,1,0,0:0:0:0:
192,192,57983,1,0,0:0:0:0:
64,192,58058,1,0,0:0:0:0:
320,192,58132,1,0,0:0:0:0:
448,192,58207,1,0,0:0:0:0:
192,192,58281,1,0,0:0:0:0:
64,192,58356,1,0,0:0:0:0:
320,192,58431,1,0,0:0:0:0:
448,192,58505,1,0,0:0:0:0:
192,192,58580,1,0,0:0:0:0:
64,192,58655,1,0,0:0:0:0:
320,192,58729,1,0,0:0:0:0:
448,192,58804,1,0,0:0:0:0:
64,192,58878,1,0,0:0:0:0:
192,192,58953,1,0,0:0:0:0:
320,192,59028,1,0,0:0:0:0:
448,192,59102,1,0,0:0:0:0:
64,192,59177,1,0,0:0:0:0:
192,192,59252,1,0,0:0:0:0:
320,192,59326,1,0,0:0:0:0:
448,192,59401,1,0,0:0:0:0:
64,192,59475,1,0,0:0:0:0:
192,192,59550,1,0,0:0:0:0:
320,192,59625,1,0,0:0:0:0:
448,192,59699,1,0,0:0:0:0:
192,192,59774,1,0,0:0:0:0:
64,192,59849,1,0,0:0:0:0:
448,192,59923,1,0,0:0:0:0:
320,192,59998,1,0,0:0:0:0:
192,192,60072,1,0,0:0:0:0:
64,192,60147,1,0,0:0:0:0:
448,192,60222,1,0,0:0:0:0:
320,192,60296,1,0,0:0:0:0:
192,192,60371,1,0,0:0:0:0:
64,192,60446,1,0,0:0:0:0:
448,192,60520,1,0,0:0:0:0:
320,192,60595,1,0,0:0:0:0:
192,192,60669,1,0,0:0:0:0:
64,192,60744,1,0,0:0:0:0:
448,192,60819,1,0,0:0:0:0:
320,192,60893,1,0,0:0:0:0:
192,192,60968,1,0,0:0:0:0:
64,192,61043,1,0,0:0:0:0:
448,192,61117,1,0,0:0:0:0:
320,192,61192,1,0,0:0:0:0:
192,192,61267,1,0,0:0:0:0:
64,192,61341,1,0,0:0:0:0:
448,192,61416,1,0,0:0:0:0:
320,192,61490,1,0,0:0:0:0:
64,192,61565,1,0,0:0:0:0:
192,192,61640,1,0,0:0:0:0:
320,192,61714,1,0,0:0:0:0:
448,192,61789,1,0,0:0:0:0:
64,192,61864,1,0,0:0:0:0:
192,192,61938,1,0,0:0:0:0:
320,192,62013,1,0,0:0:0:0:
448,192,62087,1,0,0:0:0:0:
64,192,62162,1,0,0:0:0:0:
192,192,62237,1,0,0:0:0:0:
320,192,62311,1,0,0:0:0:0:
448,192,62386,1,0,0:0:0:0:
64,192,62461,1,0,0:0:0:0:
192,192,62535,1,0,0:0:0:0:
448,192,62610,1,0,0:0:0:0:
320,192,62684,1,0,0:0:0:0:
64,192,62759,1,0,0:0:0:0:
192,192,62834,1,0,0:0:0:0:
448,192,62908,1,0,0:0:0:0:
320,192,62983,1,0,0:0:0:0:
192,192,63058,1,0,0:0:0:0:
64,192,63132,1,0,0:0:0:0:
320,192,63207,1,0,0:0:0:0:
448,192,63281,1,0,0:0:0:0:
192,192,63356,1,0,0:0:0:0:
64,192,63431,1,0,0:0:0:0:
448,192,63505,1,0,0:0:0:0:
320,192,63580,1,0,0:0:0:0:
192,192,63655,1,0,0:0:0:0:
64,192,63729,1,0,0:0:0:0:
448,192,63804,1,0,0:0:0:0:
320,192,63878,1,0,0:0:0:0:
192,192,63953,1,0,0:0:0:0:
64,192,64028,1,0,0:0:0:0:
448,192,64102,1,0,0:0:0:0:
320,192,64177,1,0,0:0:0:0:
192,192,64252,1,0,0:0:0:0:
64,192,64326,1,0,0:0:0:0:
448,192,64401,1,0,0:0:0:0:
320,192,64475,1,0,0:0:0:0:
192,192,64550,1,0,0:0:0:0:
64,192,64625,1,0,0:0:0:0:
448,192,64699,1,0,0:0:0:0:
320,192,64774,1,0,0:0:0:0:
192,192,64849,1,0,0:0:0:0:
64,192,64923,1,0,0:0:0:0:
448,192,64998,1,0,0:0:0:0:
320,192,65072,1,0,0:0:0:0:
192,192,65147,1,0,0:0:0:0:
192,192,65744,1,0,0:0:0:0:
320,192,66043,1,0,0:0:0:0:
64,192,66043,1,0,0:0:0:0:
448,192,66341,1,0,0:0:0:0:
64,192,66640,1,0,0:0:0:0:
320,192,66938,1,0,0:0:0:0:
192,192,67535,1,0,0:0:0:0:
448,192,67834,1,0,0:0:0:0:
320,192,67834,1,0,0:0:0:0:
64,192,68132,1,0,0:0:0:0:
320,192,68431,1,0,0:0:0:0:
192,192,68729,1,0,0:0:0:0:
448,192,68729,1,0,0:0:0:0:
64,192,69625,1,0,0:0:0:0:
320,192,69625,1,0,0:0:0:0:
192,192,69923,1,0,0:0:0:0:
448,192,69923,1,0,0:0:0:0:
64,192,70520,1,0,0:0:0:0:
320,192,70819,1,0,0:0:0:0:
192,192,71117,1,0,0:0:0:0:
320,192,71416,1,0,0:0:0:0:
448,192,71416,1,0,0:0:0:0:
64,192,71714,1,0,0:0:0:0:
192,192,72013,1,0,0:0:0:0:
448,192,72311,1,0,0:0:0:0:
64,192,72311,1,0,0:0:0:0:
320,192,72908,1,0,0:0:0:0:
64,192,73207,1,0,0:0:0:0:
192,192,73207,1,0,0:0:0:0:
448,192,73505,1,0,0:0:0:0:
192,192,73804,1,0,0:0:0:0:
320,192,74102,1,0,0:0:0:0:
64,192,74699,1,0,0:0:0:0:
320,192,74998,1,0,0:0:0:0:
448,192,74998,1,0,0:0:0:0:
192,192,75296,1,0,0:0:0:0:
448,192,75595,1,0,0:0:0:0:
320,192,75893,1,0,0:0:0:0:
64,192,76490,1,0,0:0:0:0:
192,192,76789,1,0,0:0:0:0:
320,192,76789,1,0,0:0:0:0:
448,192,77237,1,0,0:0:0:0:
64,192,77237,1,0,0:0:0:0:
192,192,77684,1,0,0:0:0:0:
320,192,77983,1,0,0:0:0:0:
64,192,78281,1,0,0:0:0:0:
320,192,78580,1,0,0:0:0:0:
192,192,78878,1,0,0:0:0:0:
448,192,79177,1,0,0:0:0:0:
64,192,79475,1,0,0:0:0:0:
448,192,79475,1,0,0:0:0:0:
320,192,79625,1,0,0:0:0:0:
192,192,79774,1,0,0:0:0:0:
64,192,79923,1,0,0:0:0:0:
320,192,79923,1,0,0:0:0:0:
448,192,80072,1,0,0:0:0:0:
64,192,80222,1,0,0:0:0:0:
192,192,80371,1,0,0:0:0:0:
448,192,80371,1,0,0:0:0:0:
64,192,80520,1,0,0:0:0:0:
192,192,80669,1,0,0:0:0:0:
320,192,80819,1,0,0:0:0:0:
448,192,80819,1,0,0:0:0:0:
64,192,80968,1,0,0:0:0:0:
320,192,81117,1,0,0:0:0:0:
448,192,81267,1,0,0:0:0:0:
64,192,81267,1,0,0:0:0:0:
320,192,81416,1,0,0:0:0:0:
448,192,81565,1,0,0:0:0:0:
192,192,81714,1,0,0:0:0:0:
64,192,81714,1,0,0:0:0:0:
448,192,81864,1,0,0:0:0:0:
192,192,82013,1,0,0:0:0:0:
320,192,82162,1,0,0:0:0:0:
64,192,82162,1,0,0:0:0:0:
192,192,82311,1,0,0:0:0:0:
64,192,82461,1,0,0:0:0:0:
448,192,82610,1,0,0:0:0:0:
192,192,82610,1,0,0:0:0:0:
320,192,82759,1,0,0:0:0:0:
192,192,82908,1,0,0:0:0:0:
64,192,83058,1,0,0:0:0:0:
448,192,83058,1,0,0:0:0:0:
192,192,83356,1,0,0:0:0:0:
320,192,83356,1,0,0:0:0:0:
64,192,83655,1,0,0:0:0:0:
448,192,83655,1,0,0:0:0:0:
320,192,83953,1,0,0:0:0:0:
64,192,83953,1,0,0:0:0:0:
192,192,84252,1,0,0:0:0:0:
448,192,84252,1,0,0:0:0:0:
64,192,84550,1,0,0:0:0:0:
320,192,84550,1,0,0:0:0:0:
192,192,84849,1,0,0:0:0:0:
448,192,84849,1,0,0:0:0:0:
320,192,85147,1,0,0:0:0:0:
64,192,85147,1,0,0:0:0:0:
448,192,85446,1,0,0:0:0:0:
320,192,85446,1,0,0:0:0:0:
192,192,85744,1,0,0:0:0:0:
64,192,85744,1,0,0:0:0:0:
320,192,86043,1,0,0:0:0:0:
448,192,86043,1,0,0:0:0:0:
192,192,86341,1,0,0:0:0:0:
64,192,86341,1,0,0:0:0:0:
448,192,86640,1,0,0:0:0:0:
320,192,86789,1,0,0:0:0:0:
192,192,86938,1,0,0:0:0:0:
64,192,87087,1,0,0:0:0:0:
320,192,87237,1,0,0:0:0:0:
448,192,87386,1,0,0:0:0:0:
192,192,87535,1,0,0:0:0:0:
64,192,87684,1,0,0:0:0:0:
320,192,87834,1,0,0:0:0:0:
448,192,87983,1,0,0:0:0:0:
320,192,88132,1,0,0:0:0:0:
192,192,88281,1,0,0:0:0:0:
64,192,88431,1,0,0:0:0:0:
