osu file format v14

[General]
AudioFilename: audio.mp3
AudioLeadIn: 0
PreviewTime: 48088
Countdown: 0
SampleSet: Normal
StackLeniency: 0.7
Mode: 0
LetterboxInBreaks: 0
WidescreenStoryboard: 0

[Editor]
Bookmarks: 31406,51108,172347,183093,184884,186675
DistanceSpacing: 3.2
BeatDivisor: 6
GridSize: 4
TimelineZoom: 1.3

[Metadata]
Title:History Maker
TitleUnicode:History Maker
Artist:Dean Fujioka
ArtistUnicode:Dean Fujioka
Creator:R3K3M
Version:Yuri
Source:Yuri!!! on Ice Opening
Tags:Yuri!!! Opening TV size R3K3M History
BeatmapID:1169840
BeatmapSetID:552372

[Difficulty]
HPDrainRate:6
CircleSize:4
OverallDifficulty:9
ApproachRate:9.5
SliderMultiplier:3.1
SliderTickRate:1

[Events]
//Background and Video events
0,0,"749153.jpg",0,0
Video,490,"Yuri!!! on Ice Opening.mp4"
//Break Periods
//Storyboard Layer 0 (Background)
//Storyboard Layer 1 (Fail)
//Storyboard Layer 2 (Pass)
//Storyboard Layer 3 (Foreground)
//Storyboard Sound Samples

[TimingPoints]
959,895.522388059701,4,1,1,10,1,0
1854,-90.9090909090909,4,1,1,20,0,0
2750,-83.3333333333333,4,1,1,30,0,0
3645,-76.9230769230769,4,1,1,40,0,0
4541,-100,4,1,1,30,0,0
28720,-90.9090909090909,4,1,1,30,0,0
35436,-90.9090909090909,4,1,1,40,0,0
35884,-90.9090909090909,4,1,1,50,0,0
36332,-90.9090909090909,4,1,1,60,0,0
36779,-116.279069767442,4,1,2,25,0,0
36929,-116.279069767442,4,1,1,25,0,0
39466,-116.279069767442,4,1,2,45,0,0
39615,-116.279069767442,4,1,1,25,0,0
51108,-66.6666666666667,4,1,1,50,0,1
52899,-100,4,1,1,50,0,1
53197,-66.6666666666667,4,1,1,50,0,1
57376,-200,4,1,1,35,0,0
58272,-66.6666666666667,4,1,1,50,0,1
64541,-66.6666666666667,4,1,1,50,0,0
64988,-66.6666666666667,4,1,1,55,0,0
65436,-66.6666666666667,4,1,1,50,0,1
66332,-62.5,4,1,1,50,0,1
71705,-66.6666666666667,4,1,1,50,0,0
72600,-66.6666666666667,4,1,1,50,0,1
79764,-66.6666666666667,4,1,1,20,0,0
80361,-66.6666666666667,4,1,1,25,0,0
80809,-66.6666666666667,4,1,1,30,0,0
81257,-66.6666666666667,4,1,1,35,0,0
81705,-66.6666666666667,4,1,1,40,0,0
82153,-66.6666666666667,4,1,1,45,0,0
82600,-66.6666666666667,4,1,1,50,0,0
83048,-66.6666666666667,4,1,1,55,0,0
83347,-66.6666666666667,4,1,1,55,0,1
83496,-66.6666666666667,4,1,1,40,0,0
83944,-66.6666666666667,4,1,1,45,0,0
84391,-66.6666666666667,4,1,1,50,0,0
84839,-66.6666666666667,4,1,1,55,0,0
85287,-66.6666666666667,4,1,1,60,0,0
85735,-66.6666666666667,4,1,1,65,0,0
86033,-66.6666666666667,4,1,1,65,0,1
86182,-66.6666666666667,4,1,1,70,0,0
86630,-66.6666666666667,4,1,1,75,0,0
87227,-66.6666666666667,4,1,1,55,0,0
87526,-66.6666666666667,4,1,1,60,0,0
87824,-66.6666666666667,4,1,1,65,0,0
88123,-66.6666666666667,4,1,1,70,0,0
88421,-66.6666666666667,4,1,1,75,0,0
88720,-66.6666666666667,4,1,1,80,0,0

[Colours]
Combo1 : 255,255,255
Combo2 : 0,255,255
Combo3 : 0,0,255

[HitObjects]
77,55,959,6,0,L|103:145,1,51.6666666666667,2|0,0:0|0:0,0:0:0:0:
136,241,1257,1,0,0:0:0:0:
199,117,1406,1,0,0:0:0:0:
41,184,1556,1,0,0:0:0:0:
231,226,1705,1,0,0:0:0:0:
144,89,1854,6,0,L|173:185,1,56.8333350677491,2|0,0:0|0:0,0:0:0:0:
193,253,2153,1,0,0:0:0:0:
3,211,2302,1,0,0:0:0:0:
161,144,2452,1,0,0:0:0:0:
98,268,2601,1,0,0:0:0:0:
161,144,2750,6,0,L|195:245,1,61.9999981079102,2|0,0:0|0:0,0:0:0:0:
222,312,3048,1,0,0:0:0:0:
285,188,3197,1,0,0:0:0:0:
127,255,3347,1,0,0:0:0:0:
317,297,3496,1,0,0:0:0:0:
205,102,3645,6,0,L|229:170,1,67.1666635920208,2|0,0:0|0:0,0:0:0:0:
268,272,3944,1,0,0:0:0:0:
42,222,4093,1,0,0:0:0:0:
227,165,4243,1,0,0:0:0:0:
137,326,4392,1,0,0:0:0:0:
42,222,4541,6,0,L|18:186,4,25.8333333333333,2|0|0|0|0,0:0|0:0|0:0|0:0|0:0,0:0:0:0:
93,37,4988,1,0,0:0:0:0:
42,222,5137,1,0,0:0:0:0:
93,37,5287,1,0,0:0:0:0:
114,317,5436,6,0,P|165:281|189:247,1,103.333333333333,8|0,0:0|0:0,0:0:0:0:
268,80,6033,1,0,0:0:0:0:
398,317,6332,6,0,P|354:288|323:248,1,103.333333333333,2|0,0:0|0:0,0:0:0:0:
231,74,6929,1,0,0:0:0:0:
158,180,7078,1,0,0:0:0:0:
286,178,7227,2,0,B|272:232|225:261,1,103.333333333333,8|0,0:0|0:0,0:0:0:0:
120,324,7824,1,0,0:0:0:0:
124,120,8123,6,0,P|155:160|198:188,1,103.333333333333,2|0,0:0|0:0,0:0:0:0:
298,216,8570,1,0,0:0:0:0:
252,105,8720,1,0,0:0:0:0:
186,196,8869,1,0,0:0:0:0:
298,216,9018,2,0,P|315:264|316:315,1,103.333333333333,8|0,0:0|0:0,0:0:0:0:
203,336,9466,1,0,0:0:0:0:
108,207,9615,1,0,0:0:0:0:
259,157,9764,1,0,0:0:0:0:
203,336,9914,6,0,P|204:284|221:236,1,103.333333333333,2|0,0:0|0:0,0:0:0:0:
294,93,10361,1,0,0:0:0:0:
380,166,10511,1,0,0:0:0:0:
274,192,10660,1,0,0:0:0:0:
294,93,10809,2,0,P|292:144|275:192,1,103.333333333333,8|0,0:0|0:0,0:0:0:0:
240,296,11257,1,0,0:0:0:0:
182,146,11406,1,0,0:0:0:0:
338,183,11556,1,0,0:0:0:0:
182,249,11705,6,0,L|182:145,1,103.333333333333,2|0,0:0|0:0,0:0:0:0:
200,8,12153,1,0,0:0:0:0:
328,116,12302,1,0,0:0:0:0:
182,145,12451,1,0,0:0:0:0:
200,8,12600,2,0,P|235:45|257:91,1,103.333333333333,8|0,0:0|0:0,0:0:0:0:
269,264,13048,1,0,0:0:0:0:
144,224,13197,1,0,0:0:0:0:
288,156,13347,1,0,0:0:0:0:
269,264,13496,6,0,P|231:228|207:183,1,103.333333333333
177,61,13944,1,0,0:0:0:0:
51,90,14092,1,0,0:0:0:0:
82,213,14243,1,0,0:0:0:0:
207,183,14391,1,12,0:0:0:0:
356,84,14690,5,8,0:0:0:0:
460,200,14839,1,0,0:0:0:0:
356,84,14988,1,0,0:0:0:0:
460,200,15138,1,0,0:0:0:0:
321,323,15287,2,0,P|252:304|202:247,1,103.333333333333,2|0,0:0|0:0,0:0:0:0:
228,286,15735,1,0,0:0:0:0:
136,204,15884,1,0,0:0:0:0:
96,320,16033,1,0,0:0:0:0:
228,286,16182,2,0,P|220:215|289:94,1,206.666666666667,8|0,0:0|0:0,0:0:0:0:
410,35,16929,5,0,0:0:0:0:
282,99,17078,2,0,P|266:143|312:208,1,103.333333333333,2|0,0:0|0:0,0:0:0:0:
466,269,17526,1,0,0:0:0:0:
393,126,17675,1,0,0:0:0:0:
296,272,17824,1,0,0:0:0:0:
466,269,17973,6,0,P|422:249|366:253,1,103.333333333333,8|0,0:0|0:0,0:0:0:0:
292,284,18421,1,0,0:0:0:0:
173,328,18569,1,0,0:0:0:0:
122,212,18720,1,0,0:0:0:0:
240,161,18868,1,2,0:0:0:0:
436,320,19167,5,0,0:0:0:0:
420,174,19317,1,0,0:0:0:0:
300,253,19466,1,0,0:0:0:0:
436,320,19615,1,0,0:0:0:0:
420,174,19764,2,0,P|370:162|332:127,1,103.333333333333,8|0,0:0|0:0,0:0:0:0:
223,21,20212,1,0,0:0:0:0:
396,40,20361,1,0,0:0:0:0:
260,160,20511,1,0,0:0:0:0:
179,87,20660,6,0,P|159:131|221:268,1,206.666666666667,2|0,0:0|0:0,0:0:0:0:
306,157,21407,1,0,0:0:0:0:
179,87,21556,1,8,0:0:0:0:
311,37,21854,1,0,0:0:0:0:
311,37,22153,1,0,0:0:0:0:
311,37,22451,6,0,P|352:82|377:195,1,155,2|0,0:0|0:0,0:0:0:0:
366,298,23048,1,0,0:0:0:0:
257,213,23197,1,0,0:0:0:0:
378,170,23347,2,0,P|427:158|501:80,1,155,8|0,0:0|0:0,0:0:0:0:
395,16,23944,1,0,0:0:0:0:
498,85,24094,1,0,0:0:0:0:
395,16,24242,2,0,P|387:92|420:160,1,155,2|0,0:0|0:0,0:0:0:0:
491,221,24839,5,0,0:0:0:0:
491,221,25138,1,8,0:0:0:0:
491,221,25436,1,0,0:0:0:0:
491,221,25735,1,0,0:0:0:0:
266,307,26033,6,0,L|251:144,1,155,2|0,0:0|0:0,0:0:0:0:
240,28,26630,1,2,0:0:0:0:
356,76,26779,1,0,0:0:0:0:
252,153,26929,1,8,0:0:0:0:
287,14,27078,1,0,0:0:0:0:
345,125,27227,1,0,0:0:0:0:
215,117,27377,1,2,0:0:0:0:
332,33,27526,1,0,0:0:0:0:
304,156,27675,1,0,0:0:0:0:
184,81,27824,6,0,P|172:251|172:251,1,155,6|0,0:0|0:0,0:0:0:0:
173,235,28421,1,2,0:0:0:0:
392,175,28720,2,0,L|436:180,7,42.6250013008118,8|0|0|0|0|0|0|0,0:0|0:0|0:0|0:0|0:0|0:0|0:0|0:0,0:0:0:0:
431,180,29615,6,0,P|427:248|343:312,1,170.500005203247,2|0,0:0|0:0,0:0:0:0:
218,328,30212,1,0,0:0:0:0:
263,210,30361,1,0,0:0:0:0:
352,310,30511,2,0,L|329:169,1,113.666670135498,8|0,0:0|0:0,0:0:0:0:
312,48,30958,1,0,0:0:0:0:
380,192,31107,1,0,0:0:0:0:
204,160,31257,1,0,0:0:0:0:
312,48,31406,6,0,L|294:160,1,113.666670135498
358,327,31854,1,0,0:0:0:0:
223,303,32003,1,0,0:0:0:0:
335,215,32153,1,0,0:0:0:0:
358,327,32302,6,0,L|327:172,1,113.666670135498,8|0,0:0|0:0,0:0:0:0:
316,101,32750,1,0,0:0:0:0:
420,220,32899,1,0,0:0:0:0:
265,254,33048,1,0,0:0:0:0:
486,153,33197,6,0,B|506:192|506:192|493:339,1,170.500005203247,2|0,0:0|0:0,0:0:0:0:
379,340,33794,1,0,0:0:0:0:
432,220,33944,1,0,0:0:0:0:
379,340,34093,2,0,B|360:352|360:352|352:262,1,113.666670135498,8|0,0:0|0:0,0:0:0:0:
342,148,34541,2,0,L|353:269,1,113.666670135498
240,140,34988,5,2,0:0:0:0:
408,73,35137,1,0,0:0:0:0:
392,253,35286,1,0,0:0:0:0:
274,74,35435,5,2,0:0:0:0:
447,131,35584,1,0,0:0:0:0:
318,258,35735,1,0,0:0:0:0:
344,35,35884,5,8,0:0:0:0:
448,204,36033,1,0,0:0:0:0:
251,223,36182,1,0,0:0:0:0:
438,43,36332,5,10,0:0:0:0:
402,295,36481,1,0,0:0:0:0:
199,149,36630,1,0,0:0:0:0:
438,43,36779,6,0,B|380:104|528:180|382:207|424:288|424:288|350:294|375:141|310:50|239:175|264:193|333:202,1,533.200008135987,6|2,0:0|0:0,0:0:0:0:
264,257,38869,5,0,0:0:0:0:
184,296,39167,1,0,0:0:0:0:
104,336,39466,2,0,B|93:262|50:220|50:220|69:128,1,222.166670056661,8|0,0:0|0:0,0:0:0:0:
68,130,40361,6,0,B|83:71|160:156|160:156|156:76|216:12|400:24|392:208|268:272|200:204,1,533.200008135987
240,144,42451,1,0,0:0:0:0:
328,120,42750,1,0,0:0:0:0:
396,176,43048,1,8,0:0:0:0:
368,260,43347,1,0,0:0:0:0:
292,308,43645,1,0,0:0:0:0:
204,320,43944,6,0,B|148:240|68:172|192:40|313:52|364:277|209:328|112:252|104:88|116:56|174:45,1,533.200008135987
225,28,46033,5,0,0:0:0:0:
302,71,46332,1,0,0:0:0:0:
351,144,46630,1,12,0:0:0:0:
373,230,46929,1,0,0:0:0:0:
362,318,47227,1,0,0:0:0:0:
93,118,47526,5,2,0:0:0:0:
352,85,47824,1,2,0:0:0:0:
91,52,48123,5,2,0:0:0:0:
346,157,48421,1,2,0:0:0:0:
83,119,48720,5,2,0:0:0:0:
232,76,48869,1,2,0:0:0:0:
180,224,49018,1,2,0:0:0:0:
148,72,49167,1,2,0:0:0:0:
296,224,49317,1,2,0:0:0:0:
256,192,49466,12,0,50958,0:0:0:0:
116,129,51108,6,0,P|106:215|172:296,1,155.000005912781,2|0,0:0|0:0,0:0:0:0:
305,346,51556,1,0,0:0:0:0:
380,133,51705,1,0,0:0:0:0:
176,196,51854,1,0,0:0:0:0:
305,346,52003,6,0,B|322:300|322:300|317:243|317:243|356:143,1,155.000005912781,8|0,0:0|0:0,0:0:0:0:
407,17,52451,1,0,0:0:0:0:
260,124,52600,1,0,0:0:0:0:
448,180,52750,1,0,0:0:0:0:
407,17,52899,6,0,L|336:70,2,51.6666666666667,2|0|0,0:0|0:0|0:0,0:0:0:0:
434,252,53347,1,0,0:0:0:0:
227,180,53496,1,0,0:0:0:0:
432,105,53645,1,0,0:0:0:0:
277,235,53794,5,8,0:0:0:0:
253,35,53944,1,0,0:0:0:0:
432,105,54093,1,0,0:0:0:0:
227,180,54242,1,0,0:0:0:0:
356,11,54392,1,0,0:0:0:0:
414,183,54541,1,2,0:0:0:0:
414,183,54615,1,0,0:0:0:0:
414,183,54690,6,0,P|385:252|316:284,1,155.000005912781,2|0,0:0|0:0,0:0:0:0:
113,293,55138,1,0,0:0:0:0:
168,99,55287,1,0,0:0:0:0:
327,197,55436,1,0,0:0:0:0:
83,218,55585,6,0,P|106:145|167:98,1,155.000005912781,8|0,0:0|0:0,0:0:0:0:
284,59,56033,1,0,0:0:0:0:
327,201,56182,1,0,0:0:0:0:
190,176,56332,1,0,0:0:0:0:
284,59,56481,6,0,P|246:133|174:183,1,155.000005912781,2|0,0:0|0:0,0:0:0:0:
61,196,56929,1,0,0:0:0:0:
183,100,57078,1,0,0:0:0:0:
229,240,57227,1,0,0:0:0:0:
89,125,57376,6,0,B|74:147|74:147|60:202,1,77.5,10|0,0:0|0:0,0:0:0:0:
47,45,58272,6,0,P|44:122|62:197,1,155.000005912781,2|0,0:0|0:0,0:0:0:0:
203,318,58720,1,0,0:0:0:0:
232,131,58869,1,0,0:0:0:0:
62,197,59018,1,0,0:0:0:0:
203,318,59167,6,0,P|264:260|313:161,1,155.000005912781,8|0,0:0|0:0,0:0:0:0:
363,35,59615,1,0,0:0:0:0:
196,65,59764,1,0,0:0:0:0:
301,201,59914,1,0,0:0:0:0:
363,35,60063,6,0,P|322:101|221:141,1,155.000005912781,2|0,0:0|0:0,0:0:0:0:
110,194,60511,1,0,0:0:0:0:
200,32,60660,1,0,0:0:0:0:
301,201,60809,1,0,0:0:0:0:
301,201,60958,6,0,P|259:260|175:288,1,155.000005912781,8|0,0:0|0:0,0:0:0:0:
72,300,61406,1,0,0:0:0:0:
196,160,61556,1,0,0:0:0:0:
288,336,61705,1,0,0:0:0:0:
72,300,61854,6,0,P|68:223|96:152,1,155.000005912781,2|0,0:0|0:0,0:0:0:0:
148,93,62302,1,0,0:0:0:0:
391,139,62451,1,0,0:0:0:0:
217,316,62600,1,0,0:0:0:0:
215,56,62750,1,12,0:0:0:0:
440,208,63048,6,8,P|485:257|424:286,2,155.000005912781,0|0|2,0:0|0:0|0:0,0:0:0:0:
322,135,63794,1,0,0:0:0:0:
204,235,63944,1,0,0:0:0:0:
177,82,64093,1,2,0:0:0:0:
347,162,64242,5,0,0:0:0:0:
169,239,64391,1,0,0:0:0:0:
193,46,64541,1,10,0:0:0:0:
346,200,64690,5,0,0:0:0:0:
141,240,64839,1,0,0:0:0:0:
209,42,64988,1,10,0:0:0:0:
347,229,65138,5,0,0:0:0:0:
104,231,65287,1,0,0:0:0:0:
241,32,65436,2,0,B|263:94|263:94|247:184,1,155.000005912781,6|0,0:0|0:0,0:0:0:0:
155,20,65884,1,0,0:0:0:0:
359,144,66033,1,0,0:0:0:0:
148,266,66182,1,0,0:0:0:0:
155,20,66332,6,0,B|226:77|226:77|289:88,1,155.000005912781,8|0,0:0|0:0,0:0:0:0:
502,86,66779,1,0,0:0:0:0:
401,272,66928,1,0,0:0:0:0:
288,88,67077,1,0,0:0:0:0:
502,86,67227,6,0,B|468:169|468:169|412:246,1,165.333333333333,2|0,0:0|0:0,0:0:0:0:
289,354,67675,1,0,0:0:0:0:
340,179,67824,1,0,0:0:0:0:
478,296,67973,1,0,0:0:0:0:
289,354,68123,6,0,B|176:290|176:290|231:264,1,165.333333333333,8|0,0:0|0:0,0:0:0:0:
391,200,68570,1,0,0:0:0:0:
483,376,68720,1,0,0:0:0:0:
289,354,68869,1,2,0:0:0:0:
391,200,69018,6,0,P|435:131|433:50,1,165.333333333333,2|0,0:0|0:0,0:0:0:0:
290,84,69466,1,0,0:0:0:0:
391,200,69615,1,0,0:0:0:0:
433,50,69764,1,0,0:0:0:0:
304,181,69914,2,0,P|243:141|290:84,1,165.333333333333,8|0,0:0|0:0,0:0:0:0:
463,87,70361,1,0,0:0:0:0:
290,83,70511,1,0,0:0:0:0:
332,250,70660,1,0,0:0:0:0:
443,163,70809,6,0,B|404:176|404:176|248:148,1,165.333333333333,2|0,0:0|0:0,0:0:0:0:
148,124,71257,1,0,0:0:0:0:
344,156,71406,1,0,0:0:0:0:
172,326,71556,1,0,0:0:0:0:
267,81,71705,5,8,0:0:0:0:
414,296,71854,1,0,0:0:0:0:
172,326,72003,1,0,0:0:0:0:
408,66,72153,5,8,0:0:0:0:
344,352,72302,1,0,0:0:0:0:
136,144,72451,1,2,0:0:0:0:
408,66,72600,2,0,L|422:221,1,155.000005912781,4|0,0:0|0:0,0:0:0:0:
153,62,73048,5,0,0:0:0:0:
309,0,73197,1,0,0:0:0:0:
319,189,73347,1,0,0:0:0:0:
153,62,73496,6,0,B|241:79|241:79|323:113,1,155.000005912781,8|0,0:0|0:0,0:0:0:0:
431,173,73944,1,0,0:0:0:0:
225,238,74093,1,0,0:0:0:0:
281,15,74243,1,0,0:0:0:0:
225,238,74391,6,0,B|228:190|228:190|218:134|218:134|223:72,1,155.000005912781,2|0,0:0|0:0,0:0:0:0:
305,118,74839,2,0,B|318:178|318:178|312:272,1,155.000005912781,2|0,0:0|0:0,0:0:0:0:
148,189,75287,2,0,B|138:127|138:127|145:34,1,155.000005912781,10|0,0:0|0:0,0:0:0:0:
145,34,75735,1,0,0:0:0:0:
331,144,75884,1,0,0:0:0:0:
151,265,76033,1,0,0:0:0:0:
145,34,76182,6,0,B|186:90|227:77|263:139,1,155.000005912781,2|0,0:0|0:0,0:0:0:0:
384,266,76630,1,0,0:0:0:0:
318,68,76779,1,0,0:0:0:0:
182,176,76929,1,0,0:0:0:0:
384,266,77078,2,0,P|404:180|368:112,1,155.000005912781,8|0,0:0|0:0,0:0:0:0:
303,30,77526,2,0,B|261:56|269:109|269:109|234:162,1,155.000005912781,10|2,0:0|0:0,0:0:0:0:
214,286,77973,5,2,0:0:0:0:
358,181,78123,1,0,0:0:0:0:
195,108,78272,1,2,0:0:0:0:
272,329,78421,5,0,0:0:0:0:
366,108,78570,1,2,0:0:0:0:
128,137,78720,1,0,0:0:0:0:
341,301,78869,5,10,0:0:0:0:
307,63,79018,1,0,0:0:0:0:
118,211,79168,1,2,0:0:0:0:
408,240,79317,5,8,0:0:0:0:
228,24,79466,1,2,0:0:0:0:
120,288,79616,1,0,0:0:0:0:
407,239,79764,1,2,0:0:0:0:
305,162,79914,5,0,0:0:0:0:
252,248,80063,1,0,0:0:0:0:
205,159,80212,1,0,0:0:0:0:
337,200,80361,5,0,0:0:0:0:
212,263,80511,1,0,0:0:0:0:
222,124,80660,1,10,0:0:0:0:
344,239,80809,5,0,0:0:0:0:
166,242,80958,1,0,0:0:0:0:
252,86,81108,1,0,0:0:0:0:
327,290,81257,5,0,0:0:0:0:
130,202,81406,1,0,0:0:0:0:
305,75,81556,1,2,0:0:0:0:
294,331,81705,5,0,0:0:0:0:
111,153,81854,1,0,0:0:0:0:
356,83,82003,1,0,0:0:0:0:
231,336,82153,5,0,0:0:0:0:
139,96,82302,1,0,0:0:0:0:
391,137,82451,1,10,0:0:0:0:
171,311,82600,5,0,0:0:0:0:
189,57,82749,1,0,0:0:0:0:
401,200,82898,1,0,0:0:0:0:
127,264,83048,5,0,0:0:0:0:
250,42,83197,1,0,0:0:0:0:
382,261,83346,1,2,0:0:0:0:
299,230,83496,5,0,0:0:0:0:
268,134,83645,1,2,0:0:0:0:
201,209,83794,1,0,0:0:0:0:
339,201,83943,5,2,0:0:0:0:
233,110,84093,1,0,0:0:0:0:
209,247,84242,1,10,0:0:0:0:
355,165,84391,5,0,0:0:0:0:
183,119,84540,1,2,0:0:0:0:
229,291,84690,1,0,0:0:0:0:
351,111,84839,5,2,0:0:0:0:
138,149,84988,1,0,0:0:0:0:
277,315,85138,1,2,0:0:0:0:
329,64,85287,5,0,0:0:0:0:
108,192,85436,1,2,0:0:0:0:
329,319,85585,1,0,0:0:0:0:
304,24,85735,5,2,0:0:0:0:
92,232,85884,1,0,0:0:0:0:
372,316,86033,1,10,0:0:0:0:
229,19,86182,5,0,0:0:0:0:
124,297,86331,1,2,0:0:0:0:
414,255,86480,1,0,0:0:0:0:
156,48,86630,5,2,0:0:0:0:
181,342,86779,1,0,0:0:0:0:
426,182,86928,1,2,0:0:0:0:
192,212,87078,1,2,0:0:0:0:
412,128,87227,5,2,0:0:0:0:
192,168,87376,1,2,0:0:0:0:
416,80,87526,5,2,0:0:0:0:
164,124,87675,1,2,0:0:0:0:
440,40,87824,5,2,0:0:0:0:
132,76,87973,1,2,0:0:0:0:
472,12,88123,5,2,0:0:0:0:
100,36,88272,1,2,0:0:0:0:
512,0,88421,5,2,0:0:0:0:
64,0,88570,1,2,0:0:0:0:
276,0,88720,5,2,0:0:0:0:
