osu file format v14

[General]
AudioFilename: audio.mp3
AudioLeadIn: 0
PreviewTime: 153887
Countdown: 0
SampleSet: Normal
StackLeniency: 0.7
Mode: 3
LetterboxInBreaks: 0
SpecialStyle: 0
WidescreenStoryboard: 0

[Editor]
DistanceSpacing: 3.4
BeatDivisor: 4
GridSize: 8
TimelineZoom: 2.6

[Metadata]
Title:Canary Yellow
TitleUnicode:Canary Yellow
Artist:Deafheaven
ArtistUnicode:Deafheaven
Creator:mijkolsmith
Version:On and on and on
Source:
Tags:
BeatmapID:2257078
BeatmapSetID:889920

[Difficulty]
HPDrainRate:8
CircleSize:4
OverallDifficulty:8
ApproachRate:5
SliderMultiplier:1.4
SliderTickRate:1

[Events]
//Background and Video events
0,0,"canaryyellow.jpg",0,0
//Break Periods
//Storyboard Layer 0 (Background)
//Storyboard Layer 1 (Fail)
//Storyboard Layer 2 (Pass)
//Storyboard Layer 3 (Foreground)
//Storyboard Layer 4 (Overlay)
//Storyboard Sound Samples

[TimingPoints]
2881,659.340659340659,4,1,0,20,1,0
3540,652.173913043478,4,1,0,20,1,0
3866,631.578947368421,4,1,0,20,1,0
4497,689.655172413793,4,1,0,20,1,0
4841,659.340659340659,4,1,0,20,1,0
5500,648.648648648649,4,1,0,20,1,0
5824,641.711229946524,4,1,0,20,1,0
6144,625,4,1,0,20,1,0
6300,618.556701030928,4,1,0,20,1,0
6454,638.297872340426,4,1,0,20,1,0
7092,606.060606060606,4,1,0,20,1,0
7243,638.297872340426,4,1,0,20,1,0
7402,631.578947368421,4,1,0,20,1,0
7875,645.161290322581,4,1,0,20,1,0
8036,638.297872340426,4,1,0,20,1,0
8674,666.666666666667,4,1,0,20,1,0
9007,631.578947368421,4,1,0,20,1,0
9638,638.297872340426,4,1,0,20,1,0
9957,631.578947368421,4,1,0,20,1,0
10588,645.161290322581,4,1,0,20,1,0
10910,612.244897959184,4,1,0,20,1,0
11219,600,4,1,0,20,1,0
11370,612.244897959184,4,1,0,20,1,0
11523,628.272251308901,4,1,0,20,1,0
12151,588.235294117647,4,1,0,20,1,0
12298,612.244897959184,4,1,0,20,1,0
12451,645.161290322581,4,1,0,20,1,0
12934,652.173913043478,4,1,0,20,1,0
13097,625,4,1,0,20,1,0
13409,628.272251308901,4,1,0,20,1,0
13723,588.235294117647,4,1,0,20,1,0
13870,606.060606060606,4,1,0,20,1,0
14021,625,4,1,0,20,1,0
14646,606.060606060606,4,1,0,20,1,0
14797,612.244897959184,4,1,0,20,1,0
14950,625,4,1,0,20,1,0
15418,645.161290322581,4,1,0,20,1,0
15579,638.297872340426,4,1,0,20,1,0
16217,645.161290322581,4,1,0,20,1,0
16539,631.578947368421,4,1,0,20,1,0
17170,645.161290322581,4,1,0,20,1,0
17492,659.340659340659,4,1,0,20,1,0
18151,625,4,1,0,20,1,0
18776,645.161290322581,4,1,0,20,1,0
19098,659.340659340659,4,1,0,20,1,0
20087,645.161290322581,4,1,0,20,1,0
20732,638.297872340426,4,1,0,20,1,0
21051,631.578947368421,4,1,0,20,1,0
21366,618.556701030928,4,1,0,20,1,0
21675,652.173913043478,4,1,0,20,1,0
22327,638.297872340426,4,1,0,20,1,0
22646,645.161290322581,4,1,0,20,1,0
23291,655.737704918033,4,1,0,20,1,0
24274,621.761658031088,4,1,0,20,1,0
24895,638.297872340426,4,1,0,20,1,0
25214,628.272251308901,4,1,0,20,1,0
25842,621.761658031088,4,1,0,20,1,0
26152,618.556701030928,4,1,0,20,1,0
26461,615.384615384615,4,1,0,20,1,0
26768,638.297872340426,4,1,0,20,1,0
27406,625,4,1,0,20,1,0
27718,645.161290322581,4,1,0,20,1,0
28201,631.578947368421,4,1,0,20,1,0
28358,618.556701030928,4,1,0,20,1,0
28667,615.384615384615,4,1,0,20,1,0
28974,609.137055837563,4,1,0,20,1,0
29278,638.297872340426,4,1,0,20,1,0
29916,631.578947368421,4,1,0,20,1,0
30073,625,4,1,0,20,1,0
30698,638.297872340426,4,1,0,20,1,0
30857,628.272251308901,4,1,0,20,1,0
31799,655.737704918033,4,1,0,20,1,0
32454,645.161290322581,4,1,0,20,1,0
32776,631.578947368421,4,1,0,20,1,0
33302,652.173913043478,4,1,0,20,1,0
33410,666.666666666667,4,1,0,20,1,0
34076,631.578947368421,4,1,0,20,1,0
34391,625,4,1,0,20,1,0
35016,631.578947368421,4,1,0,20,1,0
35331,645.161290322581,4,1,0,20,1,0
35976,659.340659340659,4,1,0,20,1,0
36305,638.297872340426,4,1,0,20,1,0
36624,625,4,1,0,20,1,0
36780,645.161290322581,4,1,0,20,1,0
36941,638.297872340426,4,1,0,20,1,0
37579,631.578947368421,4,1,0,20,1,0
38368,652.173913043478,4,1,0,20,1,0
38531,659.340659340659,4,1,0,20,1,0
39520,648.648648648649,4,1,0,20,1,0
40168,638.297872340426,4,1,0,20,1,0
40487,631.578947368421,4,1,0,20,1,0
41750,625,4,1,0,20,1,0
41906,638.297872340426,4,1,0,20,1,0
42065,631.578947368421,4,1,0,20,1,0
42696,612.244897959184,4,1,0,20,1,0
42849,618.556701030928,4,1,0,20,1,0
43003,638.297872340426,4,1,0,20,1,0
43481,652.173913043478,4,1,0,20,1,0
43644,638.297872340426,4,1,0,20,1,0
43963,625,4,1,0,20,1,0
44588,631.578947368421,4,1,0,20,1,0
45219,625,4,1,0,20,1,0
45375,618.556701030928,4,1,0,20,1,0
45529,648.648648648649,4,1,0,20,1,0
46015,638.297872340426,4,1,0,20,1,0
46174,631.578947368421,4,1,0,20,1,0
46805,638.297872340426,4,1,0,20,1,0
49358,645.161290322581,4,1,0,20,1,0
49680,666.666666666667,4,1,0,20,1,0
51346,638.297872340426,4,1,0,20,1,0
51665,631.578947368421,4,1,0,20,1,0
51980,625,4,1,0,20,1,0
52292,618.556701030928,4,1,0,20,1,0
53219,645.161290322581,4,1,0,20,1,0
53702,652.173913043478,4,1,0,20,1,0
53865,659.340659340659,4,1,0,20,1,0
54854,652.173913043478,4,1,0,20,1,0
55832,645.161290322581,4,1,0,20,1,0
56477,631.578947368421,4,1,0,20,1,0
56792,625,4,1,0,20,1,0
57104,618.556701030928,4,1,0,20,1,0
57413,631.578947368421,4,1,0,20,1,0
58047,625,4,1,0,20,1,0
58203,618.556701030928,4,1,0,20,1,0
58357,638.297872340426,4,1,0,20,1,0
58835,631.578947368421,4,1,0,20,1,0
59308,625,4,1,0,20,1,0
59620,618.556701030928,4,1,0,20,1,0
59929,638.297872340426,4,1,0,20,1,0
60567,618.556701030928,4,1,0,20,1,0
60876,638.297872340426,4,1,0,20,1,0
61514,618.556701030928,4,1,0,20,1,0
61720,606.060606060606,4,1,0,20,1,0
61822,588.235294117647,4,1,0,20,1,0
61920,571.428571428571,4,1,0,20,1,0
62015,618.556701030928,4,1,0,20,1,0
62118,606.060606060606,4,1,0,20,1,0
62320,600,4,1,0,20,1,0
62420,582.52427184466,4,1,0,20,1,0
62517,566.037735849057,4,1,0,20,1,0
62611,576.923076923077,4,1,0,20,1,0
62707,600,4,1,0,20,1,0
62907,582.52427184466,4,1,0,20,1,0
63004,560.747663551402,4,1,0,20,1,0
63097,550.45871559633,4,1,0,20,1,0
63188,576.923076923077,4,1,0,20,1,0
63284,566.037735849057,4,1,0,20,1,0
63378,560.747663551402,4,1,0,20,1,0
63564,600,4,1,0,20,1,0
63664,638.297872340426,4,1,0,20,1,0
63770,674.157303370787,4,1,0,20,1,0
63882,631.578947368421,4,1,0,20,1,0
66408,638.297872340426,4,1,0,20,1,0
70237,652.173913043478,4,1,0,20,1,0
72845,645.161290322581,4,1,0,20,1,0
73006,631.578947368421,4,1,0,20,1,0
73163,618.556701030928,4,1,0,20,1,0
73317,600,4,1,0,20,1,0
73767,594.059405940594,4,1,0,20,1,0
74064,652.173913043478,4,1,0,20,1,0
74716,645.161290322581,4,1,0,20,1,0
74877,631.578947368421,4,1,0,20,1,0
75034,625,4,1,0,20,1,0
75190,618.556701030928,4,1,0,20,1,0
75344,612.244897959184,4,1,0,20,1,0
75650,638.297872340426,4,1,0,20,1,0
76607,631.578947368421,4,1,0,20,1,0
77238,625,4,1,0,20,1,0
77863,631.578947368421,4,1,0,20,1,0
78178,625,4,1,0,20,1,0
78803,618.556701030928,4,1,0,20,1,0
78957,681.818181818182,4,1,0,20,1,0
79127,638.297872340426,4,1,0,20,1,0
79765,625,4,1,0,20,1,0
80077,612.244897959184,4,1,0,20,1,0
80230,600,4,1,0,20,1,0
80380,652.173913043478,4,1,0,20,1,0
80706,618.556701030928,4,1,0,20,1,0
81015,606.060606060606,4,1,0,20,1,0
81621,638.297872340426,4,1,0,20,1,0
82259,631.578947368421,4,1,0,20,1,0
82574,612.244897959184,4,1,0,20,1,0
82880,606.060606060606,4,1,0,20,1,0
83334,600,4,1,0,20,1,0
83784,625,4,1,0,20,1,0
83940,638.297872340426,4,1,0,20,1,0
84099,631.578947368421,4,1,0,20,1,0
84730,625,4,1,0,20,1,0
85198,618.556701030928,4,1,0,20,1,0
85352,612.244897959184,4,1,0,20,1,0
85658,638.297872340426,4,1,0,20,1,0
85977,606.060606060606,4,1,0,20,1,0
86583,638.297872340426,4,1,0,20,1,0
87221,625,4,1,0,20,1,0
87377,612.244897959184,4,1,0,20,1,0
87530,606.060606060606,4,1,0,20,1,0
87681,606.060606060606,4,1,0,20,1,0
87832,618.556701030928,4,1,0,20,1,0
88450,612.244897959184,4,1,0,20,1,0
88756,625,4,1,0,20,1,0
88912,628.272251308901,4,1,0,20,1,0
89069,625,4,1,0,20,1,0
89694,634.920634920635,4,1,0,20,1,0
90170,618.556701030928,4,1,0,20,1,0
90324,625,4,1,0,20,1,0
90636,621.761658031088,4,1,0,20,1,0
91568,618.556701030928,4,1,0,20,1,0
92186,612.244897959184,4,1,0,20,1,0
92339,606.060606060606,4,1,0,20,1,0
92642,612.244897959184,4,1,0,20,1,0
92795,606.060606060606,4,1,0,20,1,0
93249,625,4,1,0,20,1,0
93717,618.556701030928,4,1,0,20,1,0
93871,652.173913043478,4,1,0,20,1,0
94034,638.297872340426,4,1,0,20,1,0
94672,625,4,1,0,20,1,0
94828,618.556701030928,4,1,0,20,1,0
95137,612.244897959184,4,1,0,20,1,0
95290,606.060606060606,4,1,0,20,1,0
95896,631.578947368421,4,1,0,20,1,0
97159,618.556701030928,4,1,0,20,1,0
97622,612.244897959184,4,1,0,20,1,0
97775,618.556701030928,4,1,0,20,1,0
98084,625,4,1,0,20,1,0
98943,681.818181818182,4,1,0,20,1,0
99028,631.578947368421,4,1,0,20,1,0
99659,625,4,1,0,20,1,0
100127,618.556701030928,4,1,0,20,1,0
100281,638.297872340426,4,1,0,20,1,0
100600,625,4,1,0,20,1,0
100912,631.578947368421,4,1,0,20,1,0
102333,618.556701030928,4,1,0,20,1,0
102487,588.235294117647,4,1,0,20,1,0
102634,618.556701030928,4,1,0,20,1,0
102788,625,4,1,0,20,1,0
103256,631.578947368421,4,1,0,20,1,0
103729,625,4,1,0,20,1,0
104041,618.556701030928,4,1,0,20,1,0
104659,625,4,1,0,20,1,0
104971,631.578947368421,4,1,0,20,1,0
105128,652.173913043478,4,1,0,20,1,0
105291,618.556701030928,4,1,0,20,1,0
105597,638.297872340426,4,1,0,20,1,0
105916,652.173913043478,4,1,0,20,1,0
106242,625,4,1,0,20,1,0
106554,638.297872340426,4,1,0,20,1,0
107192,618.556701030928,4,1,0,20,1,0
107346,606.060606060606,4,1,0,20,1,0
107497,594.059405940594,4,1,0,20,1,0
107645,652.173913043478,4,1,0,20,1,0
107808,638.297872340426,4,1,0,20,1,0
108127,576.923076923077,4,1,0,20,1,0
108703,571.428571428571,4,1,0,20,1,0
108917,810.810810810811,4,1,0,20,1,0
109018,659.340659340659,4,1,0,20,1,0
109842,571.428571428571,4,1,0,20,1,0
109984,582.52427184466,4,1,0,20,1,0
110275,638.297872340426,4,1,0,20,1,0
110594,631.578947368421,4,1,0,20,1,0
111225,625,4,1,0,20,1,0
111537,606.060606060606,4,1,0,20,1,0
112143,600,4,1,0,20,1,0
112593,666.666666666667,4,1,0,20,1,0
112759,689.655172413793,4,1,0,20,1,0
113276,625,4,1,0,20,1,0
113432,594.059405940594,4,1,0,20,1,0
113580,606.060606060606,4,1,0,20,1,0
113731,618.556701030928,4,1,0,20,1,0
113885,652.173913043478,4,1,0,20,1,0
114048,631.578947368421,4,1,0,20,1,0
115311,628.272251308901,4,1,0,20,1,0
115939,638.297872340426,4,1,0,20,1,0
117215,674.157303370787,4,1,0,20,1,0
117889,666.666666666667,4,1,0,20,1,0
119222,631.578947368421,4,1,0,20,1,0
119853,645.161290322581,4,1,0,20,1,0
120498,631.578947368421,4,1,0,20,1,0
121129,638.297872340426,4,1,0,20,1,0
123043,631.578947368421,4,1,0,20,1,0
123674,638.297872340426,4,1,0,20,1,0
124312,652.173913043478,4,1,0,20,1,0
125616,645.161290322581,4,1,0,20,1,0
126261,631.578947368421,4,1,0,20,1,0
128155,625,4,1,0,20,1,0
129405,631.578947368421,4,1,0,20,1,0
130668,638.297872340426,4,1,0,20,1,0
131306,645.161290322581,4,1,0,20,1,0
131951,625,4,1,0,20,1,0
132576,638.297872340426,4,1,0,20,1,0
133214,645.161290322581,4,1,0,20,1,0
133859,612.244897959184,4,1,0,20,1,0
134471,631.578947368421,4,1,0,20,1,0
138260,625,4,1,0,20,1,0
140760,618.556701030928,4,1,0,20,1,0
141997,625,4,1,0,20,1,0
143247,631.578947368421,4,1,0,20,1,0
145457,625,4,1,0,20,1,0
145769,612.244897959184,4,1,0,20,1,0
146381,606.060606060606,4,1,0,20,1,0
146987,600,4,1,0,20,1,0
147587,594.059405940594,4,1,0,20,1,0
148181,588.235294117647,4,1,0,20,1,0
148769,594.059405940594,4,1,0,20,1,0
149363,600,4,1,0,20,1,0
149963,588.235294117647,4,1,0,20,1,0
150257,582.52427184466,4,1,0,20,1,0
150548,576.923076923077,4,1,0,20,1,0
151124,571.428571428571,4,1,0,20,1,0
151409,566.037735849057,4,1,0,20,1,0
151692,560.747663551402,4,1,0,20,1,0
151972,555.555555555556,4,1,0,20,1,0
152249,550.45871559633,4,1,0,20,1,0
152524,545.454545454546,4,1,0,20,1,0
153887,500,4,1,0,20,1,0
154137,481.927710843374,4,1,0,20,1,0
154377,476.190476190476,4,1,0,20,1,0
154615,357.142857142857,4,1,0,20,1,0
155329,342.857142857143,4,1,0,20,1,0
156186,361.44578313253,4,1,0,20,1,0
156366,400,4,1,0,20,1,0
156566,428.571428571429,4,1,0,20,1,0
156780,405.405405405405,4,1,0,20,1,0
156982,394.736842105263,4,1,0,20,1,0
157179,384.615384615385,4,1,0,20,1,0
157371,416.666666666667,4,1,0,20,1,0
157579,405.405405405405,4,1,0,20,1,0
157781,400,4,1,0,20,1,0
157981,394.736842105263,4,1,0,20,1,0
158178,384.615384615385,4,1,0,20,1,0
158562,379.746835443038,4,1,0,20,1,0
158751,375,4,1,0,20,1,0
159126,370.37037037037,4,1,0,20,1,0
159496,379.746835443038,4,1,0,20,1,0
159685,389.61038961039,4,1,0,20,1,0
160269,384.615384615385,4,1,0,20,1,0
160461,379.746835443038,4,1,0,20,1,0
160840,384.615384615385,4,1,0,20,1,0
161032,389.61038961039,4,1,0,20,1,0
161616,384.615384615385,4,1,0,20,1,0
162000,379.746835443038,4,1,0,20,1,0
162379,375,4,1,0,20,1,0
162754,370.37037037037,4,1,0,20,1,0
163124,365.853658536585,4,1,0,20,1,0
163306,384.615384615385,4,1,0,20,1,0
163498,375,4,1,0,20,1,0
164060,389.61038961039,4,1,0,20,1,0
164254,394.736842105263,4,1,0,20,1,0
164648,428.571428571429,4,1,0,20,1,0
164755,394.736842105263,4,1,0,20,1,0
164853,384.615384615385,4,1,0,20,1,0
164949,370.37037037037,4,1,0,20,1,0
165041,365.853658536585,4,1,0,20,1,0
165223,361.44578313253,4,1,0,20,1,0
165403,379.746835443038,4,1,0,20,1,0
165592,394.736842105263,4,1,0,20,1,0
166184,365.853658536585,4,1,0,20,1,0
166366,357.142857142857,4,1,0,20,1,0
166544,375,4,1,0,20,1,0
166731,379.746835443038,4,1,0,20,1,0
166920,394.736842105263,4,1,0,20,1,0
167117,389.61038961039,4,1,0,20,1,0
167701,384.615384615385,4,1,0,20,1,0
168085,379.746835443038,4,1,0,20,1,0
168654,370.37037037037,4,1,0,20,1,0
169394,389.61038961039,4,1,0,20,1,0
169491,410.958904109589,4,1,0,20,1,0
169593,389.61038961039,4,1,0,20,1,0
169787,379.746835443038,4,1,0,20,1,0
169976,375,4,1,0,20,1,0
170351,379.746835443038,4,1,0,20,1,0
170730,375,4,1,0,20,1,0
170917,365.853658536585,4,1,0,20,1,0
171099,370.37037037037,4,1,0,20,1,0
171654,365.853658536585,4,1,0,20,1,0
171836,365.853658536585,4,1,0,20,1,0
172384,357.142857142857,4,1,0,20,1,0
172473,365.853658536585,4,1,0,20,1,0
172564,375,4,1,0,20,1,0
172939,370.37037037037,4,1,0,20,1,0
174420,365.853658536585,4,1,0,20,1,0
174785,384.615384615385,4,1,0,20,1,0
174977,365.853658536585,4,1,0,20,1,0
175068,361.44578313253,4,1,0,20,1,0
175158,357.142857142857,4,1,0,20,1,0
175515,352.941176470588,4,1,0,20,1,0
175691,361.44578313253,4,1,0,20,1,0
175871,375,4,1,0,20,1,0
176433,370.37037037037,4,1,0,20,1,0
176803,375,4,1,0,20,1,0
177365,370.37037037037,4,1,0,20,1,0
178105,375,4,1,0,20,1,0
178292,365.853658536585,4,1,0,20,1,0
178840,361.44578313253,4,1,0,20,1,0
179020,400,4,1,0,20,1,0
179620,422.535211267606,4,1,0,20,1,0
180465,379.746835443038,4,1,0,20,1,0
180654,384.615384615385,4,1,0,20,1,0
180846,379.746835443038,4,1,0,20,1,0
181225,375,4,1,0,20,1,0
181600,394.736842105263,4,1,0,20,1,0
181797,400,4,1,0,20,1,0
181997,394.736842105263,4,1,0,20,1,0
182194,389.61038961039,4,1,0,20,1,0
182388,379.746835443038,4,1,0,20,1,0
183337,370.37037037037,4,1,0,20,1,0
183522,365.853658536585,4,1,0,20,1,0
183887,379.746835443038,4,1,0,20,1,0
184266,370.37037037037,4,1,0,20,1,0
184451,365.853658536585,4,1,0,20,1,0
184999,384.615384615385,4,1,0,20,1,0
185768,379.746835443038,4,1,0,20,1,0
186147,370.37037037037,4,1,0,20,1,0
186887,352.941176470588,4,1,0,20,1,0
187239,375,4,1,0,20,1,0
187426,379.746835443038,4,1,0,20,1,0
187489,384.615384615385,4,1,0,20,1,0
187553,434.782608695652,4,1,0,20,1,0
187625,422.535211267606,4,1,0,20,1,0
187836,405.405405405405,4,1,0,20,1,0
188038,384.615384615385,4,1,0,20,1,0
188422,379.746835443038,4,1,0,20,1,0
188801,400,4,1,0,20,1,0
188901,365.853658536585,4,1,0,20,1,0
188992,361.44578313253,4,1,0,20,1,0
189172,379.746835443038,4,1,0,20,1,0
189361,370.37037037037,4,1,0,20,1,0
189731,394.736842105263,4,1,0,20,1,0
189928,389.61038961039,4,1,0,20,1,0
190317,370.37037037037,4,1,0,20,1,0
190502,365.853658536585,4,1,0,20,1,0
190684,361.44578313253,4,1,0,20,1,0
190864,357.142857142857,4,1,0,20,1,0
191221,389.61038961039,4,1,0,20,1,0
191805,394.736842105263,4,1,0,20,1,0
192002,384.615384615385,4,1,0,20,1,0
192194,375,4,1,0,20,1,0
192381,370.37037037037,4,1,0,20,1,0
192566,365.853658536585,4,1,0,20,1,0
192748,361.44578313253,4,1,0,20,1,0
192928,365.853658536585,4,1,0,20,1,0
193293,361.44578313253,4,1,0,20,1,0
193473,410.958904109589,4,1,0,20,1,0
193541,416.666666666667,4,1,0,20,1,0
193610,508.474576271186,4,1,0,20,1,0
193694,405.405405405405,4,1,0,20,1,0
193896,375,4,1,0,20,1,0
194083,365.853658536585,4,1,0,20,1,0
194265,400,4,1,0,20,1,0
194465,370.37037037037,4,1,0,20,1,0
194835,379.746835443038,4,1,0,20,1,0
195024,375,4,1,0,20,1,0
195117,370.37037037037,4,1,0,20,1,0
195209,384.615384615385,4,1,0,20,1,0
195401,375,4,1,0,20,1,0
195588,365.853658536585,4,1,0,20,1,0
195953,379.746835443038,4,1,0,20,1,0
196142,375,4,1,0,20,1,0
196329,365.853658536585,4,1,0,20,1,0
196420,357.142857142857,4,1,0,20,1,0
196509,348.837209302326,4,1,0,20,1,0
196596,389.61038961039,4,1,0,20,1,0
196693,394.736842105263,4,1,0,20,1,0
196890,365.853658536585,4,1,0,20,1,0
197072,352.941176470588,4,1,0,20,1,0
197248,361.44578313253,4,1,0,20,1,0
197428,375,4,1,0,20,1,0
197615,370.37037037037,4,1,0,20,1,0
197800,361.44578313253,4,1,0,20,1,0
198161,370.37037037037,4,1,0,20,1,0
198346,365.853658536585,4,1,0,20,1,0
199169,361.44578313253,4,1,0,20,1,0
199349,352.941176470588,4,1,0,20,1,0
199525,361.44578313253,4,1,0,20,1,0
199615,389.61038961039,4,1,0,20,1,0
199809,384.615384615385,4,1,0,20,1,0
200001,375,4,1,0,20,1,0
200376,365.853658536585,4,1,0,20,1,0
200558,361.44578313253,4,1,0,20,1,0
200919,370.37037037037,4,1,0,20,1,0
201104,389.61038961039,4,1,0,20,1,0
201298,379.746835443038,4,1,0,20,1,0
201487,365.853658536585,4,1,0,20,1,0
201669,361.44578313253,4,1,0,20,1,0
201849,352.941176470588,4,1,0,20,1,0
202201,375,4,1,0,20,1,0
202388,365.853658536585,4,1,0,20,1,0
202570,384.615384615385,4,1,0,20,1,0
202762,370.37037037037,4,1,0,20,1,0
202947,357.142857142857,4,1,0,20,1,0
203125,400,4,1,0,20,1,0
203725,394.736842105263,4,1,0,20,1,0
204514,392.156862745098,4,1,0,20,1,0
205690,375,4,1,0,20,1,0
205877,361.44578313253,4,1,0,20,1,0
206057,357.142857142857,4,1,0,20,1,0
206235,352.941176470588,4,1,0,20,1,0
206411,344.827586206897,4,1,0,20,1,0
206583,340.909090909091,4,1,0,20,1,0
206753,333.333333333333,4,1,0,20,1,0
206919,329.67032967033,4,1,0,20,1,0
207083,340.909090909091,4,1,0,20,1,0
207253,337.078651685393,4,1,0,20,1,0
207421,344.827586206897,4,1,0,20,1,0
207593,365.853658536585,4,1,0,20,1,0
208141,348.837209302326,4,1,0,20,1,0
208315,337.078651685393,4,1,0,20,1,0
208399,344.827586206897,4,1,0,20,1,0
208485,365.853658536585,4,1,0,20,1,0
209216,370.37037037037,4,1,0,20,1,0
209586,348.837209302326,4,1,0,20,1,0
209760,326.086956521739,4,1,0,20,1,0
209841,319.148936170213,4,1,0,20,1,0
209920,344.827586206897,4,1,0,20,1,0
210437,352.941176470588,4,1,0,20,1,0
210613,340.909090909091,4,1,0,20,1,0
210783,337.078651685393,4,1,0,20,1,0
210951,340.909090909091,4,1,0,20,1,0
211121,384.615384615385,4,1,0,20,1,0
211313,361.44578313253,4,1,0,20,1,0
211493,348.837209302326,4,1,0,20,1,0
211667,352.941176470588,4,1,0,20,1,0
211843,340.909090909091,4,1,0,20,1,0
212013,337.078651685393,4,1,0,20,1,0
212181,333.333333333333,4,1,0,20,1,0
212514,340.909090909091,4,1,0,20,1,0
212854,348.837209302326,4,1,0,20,1,0
213028,344.827586206897,4,1,0,20,1,0
213545,340.909090909091,4,1,0,20,1,0
213715,337.078651685393,4,1,0,20,1,0
214052,370.37037037037,4,1,0,20,1,0
214422,361.44578313253,4,1,0,20,1,0
214602,370.37037037037,4,1,0,20,1,0
214787,361.44578313253,4,1,0,20,1,0
215329,357.142857142857,4,1,0,20,1,0
215507,352.941176470588,4,1,0,20,1,0
215683,348.837209302326,4,1,0,20,1,0
217776,344.827586206897,4,1,0,20,1,0
218810,352.941176470588,4,1,0,20,1,0
219339,348.837209302326,4,1,0,20,1,0
219600,344.827586206897,4,1,0,20,1,0
219686,361.44578313253,4,1,0,20,1,0
220047,375,4,1,0,20,1,0
220234,370.37037037037,4,1,0,20,1,0
220419,365.853658536585,4,1,0,20,1,0
220967,348.837209302326,4,1,0,20,1,0
221054,329.67032967033,4,1,0,20,1,0
221136,322.58064516129,4,1,0,20,1,0
221297,326.086956521739,4,1,0,20,1,0
221460,348.837209302326,4,1,0,20,1,0
221634,352.941176470588,4,1,0,20,1,0
221810,344.827586206897,4,1,0,20,1,0
222154,348.837209302326,4,1,0,20,1,0
222328,375,4,1,0,20,1,0
222515,340.909090909091,4,1,0,20,1,0
222855,344.827586206897,4,1,0,20,1,0
223027,357.142857142857,4,1,0,20,1,0
223562,352.941176470588,4,1,0,20,1,0
223914,348.837209302326,4,1,0,20,1,0
224262,340.909090909091,4,1,0,20,1,0
224432,333.333333333333,4,1,0,20,1,0
224598,326.086956521739,4,1,0,20,1,0
224679,322.58064516129,4,1,0,20,1,0
224759,319.148936170213,4,1,0,20,1,0
224918,315.789473684211,4,1,0,20,1,0
225628,375,4,1,0,20,1,0
225721,300,4,1,0,20,1,0
226171,291.26213592233,4,1,0,20,1,0
226316,312.5,4,1,0,20,1,0
226472,344.827586206897,4,1,0,20,1,0
226644,357.142857142857,4,1,0,20,1,0
227179,344.827586206897,4,1,0,20,1,0
227351,337.078651685393,4,1,0,20,1,0
227772,329.67032967033,4,1,0,20,1,0
227854,333.333333333333,4,1,0,20,1,0
227937,389.61038961039,4,1,0,20,1,0
228229,357.142857142857,4,1,0,20,1,0
228764,361.44578313253,4,1,0,20,1,0
228944,370.37037037037,4,1,0,20,1,0
229129,379.746835443038,4,1,0,20,1,0
229318,375,4,1,0,20,1,0
229880,370.37037037037,4,1,0,20,1,0
230250,447.761194029851,4,1,0,20,1,0
230473,416.666666666667,4,1,0,20,1,0
230577,348.837209302326,4,1,0,20,1,0
230664,337.078651685393,4,1,0,20,1,0
230748,322.58064516129,4,1,0,20,1,0
230828,319.148936170213,4,1,0,20,1,0
230907,312.5,4,1,0,20,1,0
230985,315.789473684211,4,1,0,20,1,0
231142,322.58064516129,4,1,0,20,1,0
231228,319.148936170213,4,1,0,20,1,0
231307,285.714285714286,4,1,0,20,1,0
231449,348.837209302326,4,1,0,20,1,0
232146,370.37037037037,4,1,0,20,1,0
232331,361.44578313253,4,1,0,20,1,0
232511,357.142857142857,4,1,0,20,1,0
232868,352.941176470588,4,1,0,20,1,0
233044,348.837209302326,4,1,0,20,1,0
233218,344.827586206897,4,1,0,20,1,0
233390,340.909090909091,4,1,0,20,1,0
233645,400,4,1,0,20,1,0
233745,379.746835443038,4,1,0,20,1,0
233934,361.44578313253,4,1,0,20,1,0
234295,357.142857142857,4,1,0,20,1,0
234473,352.941176470588,4,1,0,20,1,0
235355,361.44578313253,4,1,0,20,1,0
235716,357.142857142857,4,1,0,20,1,0
235894,348.837209302326,4,1,0,20,1,0
236242,340.909090909091,4,1,0,20,1,0
236327,329.67032967033,4,1,0,20,1,0
236409,326.086956521739,4,1,0,20,1,0
236490,322.58064516129,4,1,0,20,1,0
236570,312.5,4,1,0,20,1,0
236726,340.909090909091,4,1,0,20,1,0
237066,384.615384615385,4,1,0,20,1,0
237450,379.746835443038,4,1,0,20,1,0
237639,365.853658536585,4,1,0,20,1,0
237821,352.941176470588,4,1,0,20,1,0
237997,348.837209302326,4,1,0,20,1,0
238171,344.827586206897,4,1,0,20,1,0
238515,340.909090909091,4,1,0,20,1,0
238600,333.333333333333,4,1,0,20,1,0
238683,326.086956521739,4,1,0,20,1,0
238764,319.148936170213,4,1,0,20,1,0
238843,315.789473684211,4,1,0,20,1,0
239079,322.58064516129,4,1,0,20,1,0
239240,375,4,1,0,20,1,0
239333,370.37037037037,4,1,0,20,1,0
239518,365.853658536585,4,1,0,20,1,0
239700,361.44578313253,4,1,0,20,1,0
240061,375,4,1,0,20,1,0
240248,370.37037037037,4,1,0,20,1,0
240433,352.941176470588,4,1,0,20,1,0
240785,370.37037037037,4,1,0,20,1,0
240970,361.44578313253,4,1,0,20,1,0
241150,352.941176470588,4,1,0,20,1,0
241502,357.142857142857,4,1,0,20,1,0
241680,352.941176470588,4,1,0,20,1,0
241768,348.837209302326,4,1,0,20,1,0
241855,344.827586206897,4,1,0,20,1,0
241941,340.909090909091,4,1,0,20,1,0
242026,337.078651685393,4,1,0,20,1,0
242110,375,4,1,0,20,1,0
242203,361.44578313253,4,1,0,20,1,0
242383,365.853658536585,4,1,0,20,1,0
243297,361.44578313253,4,1,0,20,1,0
244019,357.142857142857,4,1,0,20,1,0
244197,365.853658536585,4,1,0,20,1,0
244745,357.142857142857,4,1,0,20,1,0
244834,352.941176470588,4,1,0,20,1,0
245010,348.837209302326,4,1,0,20,1,0
245097,352.941176470588,4,1,0,20,1,0
245449,357.142857142857,4,1,0,20,1,0
245627,400,4,1,0,20,1,0
245827,361.44578313253,4,1,0,20,1,0
246188,357.142857142857,4,1,0,20,1,0
246723,352.941176470588,4,1,0,20,1,0
246899,348.837209302326,4,1,0,20,1,0
247073,344.827586206897,4,1,0,20,1,0
247245,340.909090909091,4,1,0,20,1,0
247415,337.078651685393,4,1,0,20,1,0
247583,333.333333333333,4,1,0,20,1,0
247833,400,4,1,0,20,1,0
247933,379.746835443038,4,1,0,20,1,0
248122,375,4,1,0,20,1,0
248497,370.37037037037,4,1,0,20,1,0
248682,361.44578313253,4,1,0,20,1,0
249043,348.837209302326,4,1,0,20,1,0
249217,337.078651685393,4,1,0,20,1,0
249385,333.333333333333,4,1,0,20,1,0
249551,329.67032967033,4,1,0,20,1,0
249715,340.909090909091,4,1,0,20,1,0
249885,375,4,1,0,20,1,0
250072,357.142857142857,4,1,0,20,1,0
250429,352.941176470588,4,1,0,20,1,0
250781,348.837209302326,4,1,0,20,1,0
251478,340.909090909091,4,1,0,20,1,0
251989,344.827586206897,4,1,0,20,1,0
253023,340.909090909091,4,1,0,20,1,0
253193,337.078651685393,4,1,0,20,1,0
253445,400,4,1,0,20,1,0
253545,394.736842105263,4,1,0,20,1,0
253742,361.44578313253,4,1,0,20,1,0
253922,357.142857142857,4,1,0,20,1,0
254100,352.941176470588,4,1,0,20,1,0
254805,344.827586206897,4,1,0,20,1,0
256184,340.909090909091,4,1,0,20,1,0
256354,365.853658536585,4,1,0,20,1,0
256536,361.44578313253,4,1,0,20,1,0
257078,375,4,1,0,20,1,0
257640,337.078651685393,4,1,0,20,1,0
257724,326.086956521739,4,1,0,20,1,0
257805,322.58064516129,4,1,0,20,1,0
258450,348.837209302326,4,1,0,20,1,0
258537,337.078651685393,4,1,0,20,1,0
258621,333.333333333333,4,1,0,20,1,0
258704,329.67032967033,4,1,0,20,1,0
258786,326.086956521739,4,1,0,20,1,0
258867,333.333333333333,4,1,0,20,1,0
259033,434.782608695652,4,1,0,20,1,0
259141,405.405405405405,4,1,0,20,1,0
259343,379.746835443038,4,1,0,20,1,0
259532,357.142857142857,4,1,0,20,1,0
259710,352.941176470588,4,1,0,20,1,0
260592,348.837209302326,4,1,0,20,1,0
261115,344.827586206897,4,1,0,20,1,0
261459,340.909090909091,4,1,0,20,1,0
262140,352.941176470588,4,1,0,20,1,0
263728,348.837209302326,4,1,0,20,1,0
263902,344.827586206897,4,1,0,20,1,0
264074,340.909090909091,4,1,0,20,1,0
264585,337.078651685393,4,1,0,20,1,0
264753,365.853658536585,4,1,0,20,1,0
264935,357.142857142857,4,1,0,20,1,0
265113,352.941176470588,4,1,0,20,1,0
265995,348.837209302326,4,1,0,20,1,0
266082,344.827586206897,4,1,0,20,1,0
266168,340.909090909091,4,1,0,20,1,0
266338,344.827586206897,4,1,0,20,1,0
267372,340.909090909091,4,1,0,20,1,0
267457,344.827586206897,4,1,0,20,1,0
267543,365.853658536585,4,1,0,20,1,0
267908,375,4,1,0,20,1,0
268283,379.746835443038,4,1,0,20,1,0
268852,329.67032967033,4,1,0,20,1,0
268934,309.278350515464,4,1,0,20,1,0
269011,461.538461538462,4,1,0,20,1,0
269126,400,4,1,0,20,1,0
269226,370.37037037037,4,1,0,20,1,0
269318,357.142857142857,4,1,0,20,1,0
269496,344.827586206897,4,1,0,20,1,0
269582,337.078651685393,4,1,0,20,1,0
269666,329.67032967033,4,1,0,20,1,0
269748,326.086956521739,4,1,0,20,1,0
269829,322.58064516129,4,1,0,20,1,0
270232,400,4,1,0,20,1,0
270332,394.736842105263,4,1,0,20,1,0
270529,370.37037037037,4,1,0,20,1,0
270714,340.909090909091,4,1,0,20,1,0
270884,361.44578313253,4,1,0,20,1,0
271064,348.837209302326,4,1,0,20,1,0
271587,344.827586206897,4,1,0,20,1,0
271673,340.909090909091,4,1,0,20,1,0
271758,337.078651685393,4,1,0,20,1,0
272263,352.941176470588,4,1,0,20,1,0
272439,340.909090909091,4,1,0,20,1,0
272779,361.44578313253,4,1,0,20,1,0
273140,352.941176470588,4,1,0,20,1,0
273845,344.827586206897,4,1,0,20,1,0
274189,340.909090909091,4,1,0,20,1,0
274359,337.078651685393,4,1,0,20,1,0
274527,333.333333333333,4,1,0,20,1,0
275027,340.909090909091,4,1,0,20,1,0
275367,329.67032967033,4,1,0,20,1,0
275449,352.941176470588,4,1,0,20,1,0
275801,348.837209302326,4,1,0,20,1,0
275888,400,4,1,0,20,1,0
276088,384.615384615385,4,1,0,20,1,0
276280,348.837209302326,4,1,0,20,1,0
276628,352.941176470588,4,1,0,20,1,0
277157,344.827586206897,4,1,0,20,1,0
277243,337.078651685393,4,1,0,20,1,0
277327,344.827586206897,4,1,0,20,1,0
277844,348.837209302326,4,1,0,20,1,0
278367,357.142857142857,4,1,0,20,1,0
278545,361.44578313253,4,1,0,20,1,0
278725,370.37037037037,4,1,0,20,1,0
278910,375,4,1,0,20,1,0
279097,370.37037037037,4,1,0,20,1,0
279282,365.853658536585,4,1,0,20,1,0
279464,348.837209302326,4,1,0,20,1,0
279987,340.909090909091,4,1,0,20,1,0
280072,315.789473684211,4,1,0,20,1,0
280150,400,4,1,0,20,1,0
280250,389.61038961039,4,1,0,20,1,0
280347,375,4,1,0,20,1,0
280440,352.941176470588,4,1,0,20,1,0
280528,344.827586206897,4,1,0,20,1,0
280614,337.078651685393,4,1,0,20,1,0
280698,333.333333333333,4,1,0,20,1,0
281281,361.44578313253,4,1,0,20,1,0
281461,357.142857142857,4,1,0,20,1,0
281818,352.941176470588,4,1,0,20,1,0
282523,344.827586206897,4,1,0,20,1,0
282695,337.078651685393,4,1,0,20,1,0
282779,333.333333333333,4,1,0,20,1,0
282862,329.67032967033,4,1,0,20,1,0
283026,370.37037037037,4,1,0,20,1,0
283211,361.44578313253,4,1,0,20,1,0
283391,348.837209302326,4,1,0,20,1,0
283739,357.142857142857,4,1,0,20,1,0
283917,365.853658536585,4,1,0,20,1,0
284099,344.827586206897,4,1,0,20,1,0
284185,361.44578313253,4,1,0,20,1,0
284275,352.941176470588,4,1,0,20,1,0
284804,361.44578313253,4,1,0,20,1,0
284984,357.142857142857,4,1,0,20,1,0
285519,348.837209302326,4,1,0,20,1,0
285606,344.827586206897,4,1,0,20,1,0
285692,337.078651685393,4,1,0,20,1,0
285860,344.827586206897,4,1,0,20,1,0
286204,348.837209302326,4,1,0,20,1,0
286552,340.909090909091,4,1,0,20,1,0
286722,337.078651685393,4,1,0,20,1,0
286890,375,4,1,0,20,1,0
287265,370.37037037037,4,1,0,20,1,0
287450,329.67032967033,4,1,0,20,1,0
287614,348.837209302326,4,1,0,20,1,0
287788,357.142857142857,4,1,0,20,1,0
288145,348.837209302326,4,1,0,20,1,0
288319,340.909090909091,4,1,0,20,1,0
288489,344.827586206897,4,1,0,20,1,0
288833,337.078651685393,4,1,0,20,1,0
289001,344.827586206897,4,1,0,20,1,0
289173,340.909090909091,4,1,0,20,1,0
289343,344.827586206897,4,1,0,20,1,0
289515,348.837209302326,4,1,0,20,1,0
289689,352.941176470588,4,1,0,20,1,0
289777,375,4,1,0,20,1,0
289870,357.142857142857,4,1,0,20,1,0
290048,352.941176470588,4,1,0,20,1,0
290224,348.837209302326,4,1,0,20,1,0
290572,379.746835443038,4,1,0,20,1,0
291141,348.837209302326,4,1,0,20,1,0
291228,322.58064516129,4,1,0,20,1,0
291308,297.029702970297,4,1,0,20,1,0
291456,333.333333333333,4,1,0,20,1,0
291622,344.827586206897,4,1,0,20,1,0
291794,352.941176470588,4,1,0,20,1,0
291970,348.837209302326,4,1,0,20,1,0
292144,344.827586206897,4,1,0,20,1,0
292488,352.941176470588,4,1,0,20,1,0
292664,361.44578313253,4,1,0,20,1,0
293025,357.142857142857,4,1,0,20,1,0
293382,348.837209302326,4,1,0,20,1,0
293730,337.078651685393,4,1,0,20,1,0
294404,357.142857142857,4,1,0,20,1,0
294761,348.837209302326,4,1,0,20,1,0
294935,344.827586206897,4,1,0,20,1,0
295107,348.837209302326,4,1,0,20,1,0
295804,344.827586206897,4,1,0,20,1,0
296148,333.333333333333,4,1,0,20,1,0
296481,326.086956521739,4,1,0,20,1,0
297133,333.333333333333,4,1,0,20,1,0
297466,329.67032967033,4,1,0,20,1,0
297713,333.333333333333,4,1,0,20,1,0
297796,337.078651685393,4,1,0,20,1,0
297964,340.909090909091,4,1,0,20,1,0
298134,344.827586206897,4,1,0,20,1,0
298823,352.941176470588,4,1,0,20,1,0
299175,337.078651685393,4,1,0,20,1,0
299343,333.333333333333,4,1,0,20,1,0
299509,344.827586206897,4,1,0,20,1,0
300198,340.909090909091,4,1,0,20,1,0
300538,333.333333333333,4,1,0,20,1,0
300704,326.086956521739,4,1,0,20,1,0
301030,322.58064516129,4,1,0,20,1,0
301191,326.086956521739,4,1,0,20,1,0
301354,333.333333333333,4,1,0,20,1,0
301520,337.078651685393,4,1,0,20,1,0
301857,329.67032967033,4,1,0,20,1,0
302186,326.086956521739,4,1,0,20,1,0
302349,337.078651685393,4,1,0,20,1,0
302517,329.67032967033,4,1,0,20,1,0
302846,326.086956521739,4,1,0,20,1,0
303009,322.58064516129,4,1,0,20,1,0
303170,326.086956521739,4,1,0,20,1,0
303251,315.789473684211,4,1,0,20,1,0
303329,309.278350515464,4,1,0,20,1,0
303406,357.142857142857,4,1,0,20,1,0
303495,337.078651685393,4,1,0,20,1,0
304506,333.333333333333,4,1,0,20,1,0
305172,340.909090909091,4,1,0,20,1,0
305342,375,4,1,0,20,1,0
305404,361.44578313253,4,1,0,20,1,0
305464,344.827586206897,4,1,0,20,1,0
305521,322.58064516129,4,1,0,20,1,0
305682,315.789473684211,4,1,0,20,1,0
305839,340.909090909091,4,1,0,20,1,0
306179,337.078651685393,4,1,0,20,1,0
306516,333.333333333333,4,1,0,20,1,0
306849,337.078651685393,4,1,0,20,1,0
307523,340.909090909091,4,1,0,20,1,0
307863,333.333333333333,4,1,0,20,1,0
308196,335.195530726257,4,1,0,20,1,0
308866,337.078651685393,4,1,0,20,1,0
309877,329.67032967033,4,1,0,20,1,0
310206,333.333333333333,4,1,0,20,1,0
311372,326.086956521739,4,1,0,20,1,0
311535,322.58064516129,4,1,0,20,1,0
311696,319.148936170213,4,1,0,20,1,0
311855,322.58064516129,4,1,0,20,1,0
312177,337.078651685393,4,1,0,20,1,0
313188,322.58064516129,4,1,0,20,1,0
313510,319.148936170213,4,1,0,20,1,0
314148,329.67032967033,4,1,0,20,1,0
315466,340.909090909091,4,1,0,20,1,0
315806,352.941176470588,4,1,0,20,1,0
316158,340.909090909091,4,1,0,20,1,0
316328,348.837209302326,4,1,0,20,1,0
316502,357.142857142857,4,1,0,20,1,0
316859,333.333333333333,4,1,0,20,1,0
317525,329.67032967033,4,1,0,20,1,0
318184,326.086956521739,4,1,0,20,1,0
318510,329.67032967033,4,1,0,20,1,0
318839,333.333333333333,4,1,0,20,1,0
319005,329.67032967033,4,1,0,20,1,0
319169,340.909090909091,4,1,0,20,1,0
319339,333.333333333333,4,1,0,20,1,0
319505,340.909090909091,4,1,0,20,1,0
319845,348.837209302326,4,1,0,20,1,0
320542,333.333333333333,4,1,0,20,1,0
320708,326.086956521739,4,1,0,20,1,0
321523,322.58064516129,4,1,0,20,1,0
322168,329.67032967033,4,1,0,20,1,0
322662,333.333333333333,4,1,0,20,1,0
322828,337.078651685393,4,1,0,20,1,0
323165,333.333333333333,4,1,0,20,1,0
323998,329.67032967033,4,1,0,20,1,0
324162,326.086956521739,4,1,0,20,1,0
324406,322.58064516129,4,1,0,20,1,0
324486,319.148936170213,4,1,0,20,1,0
324725,326.086956521739,4,1,0,20,1,0
324806,333.333333333333,4,1,0,20,1,0
325472,329.67032967033,4,1,0,20,1,0
325966,348.837209302326,4,1,0,20,1,0
326140,340.909090909091,4,1,0,20,1,0
326651,352.941176470588,4,1,0,20,1,0
326827,322.58064516129,4,1,0,20,1,0
327149,319.148936170213,4,1,0,20,1,0
327468,357.142857142857,4,1,0,20,1,0
327825,348.837209302326,4,1,0,20,1,0
328173,340.909090909091,4,1,0,20,1,0
328513,337.078651685393,4,1,0,20,1,0
329018,333.333333333333,4,1,0,20,1,0
329184,329.67032967033,4,1,0,20,1,0
329678,322.58064516129,4,1,0,20,1,0
330161,340.909090909091,4,1,0,20,1,0
332717,337.078651685393,4,1,0,20,1,0
333054,329.67032967033,4,1,0,20,1,0
333218,322.58064516129,4,1,0,20,1,0
333379,326.086956521739,4,1,0,20,1,0
333868,329.67032967033,4,1,0,20,1,0
334032,344.827586206897,4,1,0,20,1,0
334721,329.67032967033,4,1,0,20,1,0
335380,340.909090909091,4,1,0,20,1,0
335550,357.142857142857,4,1,0,20,1,0
335907,337.078651685393,4,1,0,20,1,0
336244,315.789473684211,4,1,0,20,1,0
336401,322.58064516129,4,1,0,20,1,0
336562,326.086956521739,4,1,0,20,1,0
337540,322.58064516129,4,1,0,20,1,0
337862,319.148936170213,4,1,0,20,1,0
338181,322.58064516129,4,1,0,20,1,0
338503,329.67032967033,4,1,0,20,1,0
339162,340.909090909091,4,1,0,20,1,0
339843,333.333333333333,4,1,0,20,1,0
340009,326.086956521739,4,1,0,20,1,0
340090,319.148936170213,4,1,0,20,1,0
340169,315.789473684211,4,1,0,20,1,0
340247,312.5,4,1,0,20,1,0
340325,309.278350515464,4,1,0,20,1,0
340402,303.030303030303,4,1,0,20,1,0
340477,300,4,1,0,20,1,0
340702,352.941176470588,4,1,0,20,1,0
340790,365.853658536585,4,1,0,20,1,0
341155,322.58064516129,4,1,0,20,1,0
341477,312.5,4,1,0,20,1,0
341789,319.148936170213,4,1,0,20,1,0
342427,326.086956521739,4,1,0,20,1,0
342753,319.148936170213,4,1,0,20,1,0
343072,309.278350515464,4,1,0,20,1,0
343226,312.5,4,1,0,20,1,0
343382,322.58064516129,4,1,0,20,1,0
343704,319.148936170213,4,1,0,20,1,0
344023,326.086956521739,4,1,0,20,1,0
344349,329.67032967033,4,1,0,20,1,0
344678,344.827586206897,4,1,0,20,1,0
345022,361.44578313253,4,1,0,20,1,0
345202,326.086956521739,4,1,0,20,1,0
345283,312.5,4,1,0,20,1,0
345361,300,4,1,0,20,1,0
345511,306.122448979592,4,1,0,20,1,0
345664,312.5,4,1,0,20,1,0
345820,340.909090909091,4,1,0,20,1,0
346672,315.789473684211,4,1,0,20,1,0
347303,322.58064516129,4,1,0,20,1,0
347625,329.67032967033,4,1,0,20,1,0
347954,337.078651685393,4,1,0,20,1,0
348965,333.333333333333,4,1,0,20,1,0
349298,315.789473684211,4,1,0,20,1,0
349613,329.67032967033,4,1,0,20,1,0
349942,322.58064516129,4,1,0,20,1,0
350587,319.148936170213,4,1,0,20,1,0
350666,315.789473684211,4,1,0,20,1,0
350744,306.122448979592,4,1,0,20,1,0
350897,303.030303030303,4,1,0,20,1,0
351200,326.086956521739,4,1,0,20,1,0
351526,333.333333333333,4,1,0,20,1,0
351859,315.789473684211,4,1,0,20,1,0
352174,326.086956521739,4,1,0,20,1,0
353152,322.58064516129,4,1,0,20,1,0
353474,344.827586206897,4,1,0,20,1,0
353646,340.909090909091,4,1,0,20,1,0
353816,333.333333333333,4,1,0,20,1,0
354149,326.086956521739,4,1,0,20,1,0
355453,322.58064516129,4,1,0,20,1,0
355533,319.148936170213,4,1,0,20,1,0
355692,312.5,4,1,0,20,1,0
355770,309.278350515464,4,1,0,20,1,0
355924,303.030303030303,4,1,0,20,1,0
356227,309.278350515464,4,1,0,20,1,0
356304,340.909090909091,4,1,0,20,1,0
356389,365.853658536585,4,1,0,20,1,0
356480,357.142857142857,4,1,0,20,1,0
356658,348.837209302326,4,1,0,20,1,0
356745,333.333333333333,4,1,0,20,1,0
356911,315.789473684211,4,1,0,20,1,0
357700,322.58064516129,4,1,0,20,1,0
357780,329.67032967033,4,1,0,20,1,0
358192,337.078651685393,4,1,0,20,1,0
358529,340.909090909091,4,1,0,20,1,0
358699,329.67032967033,4,1,0,20,1,0
358863,326.086956521739,4,1,0,20,1,0
359352,333.333333333333,4,1,0,20,1,0
359518,340.909090909091,4,1,0,20,1,0
360029,333.333333333333,4,1,0,20,1,0
360362,326.086956521739,4,1,0,20,1,0
360688,329.67032967033,4,1,0,20,1,0
361017,322.58064516129,4,1,0,20,1,0
361339,326.086956521739,4,1,0,20,1,0
361665,319.148936170213,4,1,0,20,1,0
361984,326.086956521739,4,1,0,20,1,0
362310,333.333333333333,4,1,0,20,1,0
362393,337.078651685393,4,1,0,20,1,0
362477,340.909090909091,4,1,0,20,1,0
362562,344.827586206897,4,1,0,20,1,0
362648,340.909090909091,4,1,0,20,1,0
362988,344.827586206897,4,1,0,20,1,0
364022,348.837209302326,4,1,0,20,1,0
364370,329.67032967033,4,1,0,20,1,0
364699,322.58064516129,4,1,0,20,1,0
365344,340.909090909091,4,1,0,20,1,0
366025,322.58064516129,4,1,0,20,1,0
366347,315.789473684211,4,1,0,20,1,0
366662,303.030303030303,4,1,0,20,1,0
366965,333.333333333333,4,1,0,20,1,0
367964,326.086956521739,4,1,0,20,1,0
368290,337.078651685393,4,1,0,20,1,0
368964,326.086956521739,4,1,0,20,1,0
369616,319.148936170213,4,1,0,20,1,0
369770,333.333333333333,4,1,0,20,1,0
369936,326.086956521739,4,1,0,20,1,0
370099,319.148936170213,4,1,0,20,1,0
370178,315.789473684211,4,1,0,20,1,0
370256,312.5,4,1,0,20,1,0
370724,319.148936170213,4,1,0,20,1,0
370883,326.086956521739,4,1,0,20,1,0
371046,340.909090909091,4,1,0,20,1,0
371216,326.086956521739,4,1,0,20,1,0
371542,337.078651685393,4,1,0,20,1,0
372047,329.67032967033,4,1,0,20,1,0
372211,352.941176470588,4,1,0,20,1,0
372387,344.827586206897,4,1,0,20,1,0
372559,333.333333333333,4,1,0,20,1,0
372725,329.67032967033,4,1,0,20,1,0
372889,326.086956521739,4,1,0,20,1,0
373215,319.148936170213,4,1,0,20,1,0
373374,315.789473684211,4,1,0,20,1,0
373847,326.086956521739,4,1,0,20,1,0
374010,333.333333333333,4,1,0,20,1,0
374093,340.909090909091,4,1,0,20,1,0
374178,333.333333333333,4,1,0,20,1,0
374511,337.078651685393,4,1,0,20,1,0
374679,329.67032967033,4,1,0,20,1,0
374843,340.909090909091,4,1,0,20,1,0
375013,337.078651685393,4,1,0,20,1,0
375181,322.58064516129,4,1,0,20,1,0
375342,319.148936170213,4,1,0,20,1,0
375820,315.789473684211,4,1,0,20,1,0
376293,322.58064516129,4,1,0,20,1,0
376615,319.148936170213,4,1,0,20,1,0
377253,315.789473684211,4,1,0,20,1,0
377331,340.909090909091,4,1,0,20,1,0
377416,344.827586206897,4,1,0,20,1,0
377760,333.333333333333,4,1,0,20,1,0
378093,326.086956521739,4,1,0,20,1,0
378419,322.58064516129,4,1,0,20,1,0
378741,326.086956521739,4,1,0,20,1,0
379067,333.333333333333,4,1,0,20,1,0
379400,326.086956521739,4,1,0,20,1,0
379726,322.58064516129,4,1,0,20,1,0
380048,326.086956521739,4,1,0,20,1,0
380374,329.67032967033,4,1,0,20,1,0
382352,326.086956521739,4,1,0,20,1,0
382678,315.789473684211,4,1,0,20,1,0
382993,319.148936170213,4,1,0,20,1,0
383312,333.333333333333,4,1,0,20,1,0
383645,337.078651685393,4,1,0,20,1,0
384319,344.827586206897,4,1,0,20,1,0
385353,333.333333333333,4,1,0,20,1,0
385686,319.148936170213,4,1,0,20,1,0
386324,329.67032967033,4,1,0,20,1,0
386983,326.086956521739,4,1,0,20,1,0
387309,322.58064516129,4,1,0,20,1,0
387631,319.148936170213,4,1,0,20,1,0
387790,309.278350515464,4,1,0,20,1,0
387944,303.030303030303,4,1,0,20,1,0
388095,300,4,1,0,20,1,0
388245,297.029702970297,4,1,0,20,1,0
388393,303.030303030303,4,1,0,20,1,0
388544,312.5,4,1,0,20,1,0
388856,319.148936170213,4,1,0,20,1,0
389015,329.67032967033,4,1,0,20,1,0
389179,337.078651685393,4,1,0,20,1,0
389853,329.67032967033,4,1,0,20,1,0
390182,322.58064516129,4,1,0,20,1,0
390827,319.148936170213,4,1,0,20,1,0
391465,329.67032967033,4,1,0,20,1,0
391629,337.078651685393,4,1,0,20,1,0
391797,329.67032967033,4,1,0,20,1,0
391961,319.148936170213,4,1,0,20,1,0
392120,306.122448979592,4,1,0,20,1,0
392273,291.26213592233,4,1,0,20,1,0
392418,294.117647058824,4,1,0,20,1,0
392712,315.789473684211,4,1,0,20,1,0
392869,333.333333333333,4,1,0,20,1,0
393035,357.142857142857,4,1,0,20,1,0
393392,344.827586206897,4,1,0,20,1,0
393564,333.333333333333,4,1,0,20,1,0
393730,326.086956521739,4,1,0,20,1,0
393893,322.58064516129,4,1,0,20,1,0
394054,319.148936170213,4,1,0,20,1,0
394213,315.789473684211,4,1,0,20,1,0
394528,319.148936170213,4,1,0,20,1,0
394687,322.58064516129,4,1,0,20,1,0
395009,344.827586206897,4,1,0,20,1,0
395353,340.909090909091,4,1,0,20,1,0
395523,337.078651685393,4,1,0,20,1,0
395691,333.333333333333,4,1,0,20,1,0
396024,329.67032967033,4,1,0,20,1,0
396188,322.58064516129,4,1,0,20,1,0
396349,319.148936170213,4,1,0,20,1,0
396508,315.789473684211,4,1,0,20,1,0
396665,309.278350515464,4,1,0,20,1,0
397206,326.086956521739,4,1,0,20,1,0
397287,309.278350515464,4,1,0,20,1,0
397518,333.333333333333,4,1,0,20,1,0
397768,315.789473684211,4,1,0,20,1,0
397925,312.5,4,1,0,20,1,0
398081,309.278350515464,4,1,0,20,1,0
398235,312.5,4,1,0,20,1,0
398860,315.789473684211,4,1,0,20,1,0
399175,322.58064516129,4,1,0,20,1,0
400304,315.789473684211,4,1,0,20,1,0
400619,309.278350515464,4,1,0,20,1,0
402474,306.122448979592,4,1,0,20,1,0
402627,303.030303030303,4,1,0,20,1,0
402778,300,4,1,0,20,1,0
402928,297.029702970297,4,1,0,20,1,0
403670,306.122448979592,4,1,0,20,1,0
403823,309.278350515464,4,1,0,20,1,0
403977,312.5,4,1,0,20,1,0
405227,309.278350515464,4,1,0,20,1,0
405381,306.122448979592,4,1,0,20,1,0
406299,303.030303030303,4,1,0,20,1,0
406450,285.714285714286,4,1,0,20,1,0
407450,291.26213592233,4,1,0,20,1,0
407595,297.029702970297,4,1,0,20,1,0
407669,326.086956521739,4,1,0,20,1,0
407913,319.148936170213,4,1,0,20,1,0
408232,312.5,4,1,0,20,1,0
408700,306.122448979592,4,1,0,20,1,0
409771,319.148936170213,4,1,0,20,1,0
409930,315.789473684211,4,1,0,20,1,0
410561,312.5,4,1,0,20,1,0
411186,306.122448979592,4,1,0,20,1,0
411798,303.030303030303,4,1,0,20,1,0
412101,285.714285714286,4,1,0,20,1,0
412601,294.117647058824,4,1,0,20,1,0
412821,312.5,4,1,0,20,1,0
412899,326.086956521739,4,1,0,20,1,0
413632,319.148936170213,4,1,0,20,1,0
413951,312.5,4,1,0,20,1,0
414263,306.122448979592,4,1,0,20,1,0
414875,300,4,1,0,20,1,0
416375,294.117647058824,4,1,0,20,1,0
416522,361.44578313253,4,1,0,20,1,0
416793,348.837209302326,4,1,0,20,1,0
416880,322.58064516129,4,1,0,20,1,0
416960,315.789473684211,4,1,0,20,1,0
417038,303.030303030303,4,1,0,20,1,0
417189,291.26213592233,4,1,0,20,1,0
417334,288.461538461538,4,1,0,20,1,0
417766,309.278350515464,4,1,0,20,1,0
417843,319.148936170213,4,1,0,20,1,0
417922,315.789473684211,4,1,0,20,1,0
418553,312.5,4,1,0,20,1,0
419178,309.278350515464,4,1,0,20,1,0
421033,306.122448979592,4,1,0,20,1,0
421492,303.030303030303,4,1,0,20,1,0
421643,365.853658536585,4,1,0,20,1,0
422008,416.666666666667,4,1,0,20,1,0
422424,326.086956521739,4,1,0,20,1,0
422505,288.461538461538,4,1,0,20,1,0
422577,400,4,1,0,20,1,0
422677,480,4,1,0,20,1,0
422797,400,4,1,0,20,1,0
422897,357.142857142857,4,1,0,20,1,0
422986,333.333333333333,4,1,0,20,1,0
423069,309.278350515464,4,1,0,20,1,0
423300,303.030303030303,4,1,0,20,1,0
424360,306.122448979592,4,1,0,20,1,0
424666,309.278350515464,4,1,0,20,1,0
425593,303.030303030303,4,1,0,20,1,0
426047,300,4,1,0,20,1,0
426197,288.461538461538,4,1,0,20,1,0
426485,285.714285714286,4,1,0,20,1,0
426627,280.373831775701,4,1,0,20,1,0
426767,275.229357798165,4,1,0,20,1,0
426904,270.27027027027,4,1,0,20,1,0
427174,285.714285714286,4,1,0,20,1,0
427245,333.333333333333,4,1,0,20,1,0
427495,303.030303030303,4,1,0,20,1,0
427646,291.26213592233,4,1,0,20,1,0
428228,294.117647058824,4,1,0,20,1,0
428522,300,4,1,0,20,1,0
428672,319.148936170213,4,1,0,20,1,0
429150,312.5,4,1,0,20,1,0
429306,309.278350515464,4,1,0,20,1,0
430079,312.5,4,1,0,20,1,0
430547,306.122448979592,4,1,0,20,1,0
430700,272.727272727273,4,1,0,20,1,0
430972,333.333333333333,4,1,0,20,1,0
431305,348.837209302326,4,1,0,20,1,0
431479,337.078651685393,4,1,0,20,1,0
431647,312.5,4,1,0,20,1,0
432037,283.018867924528,4,1,0,20,1,0
432178,250,4,1,0,20,1,0
432428,315.789473684211,4,1,0,20,1,0
432585,309.278350515464,4,1,0,20,1,0
432739,312.5,4,1,0,20,1,0
433207,309.278350515464,4,1,0,20,1,0
434444,306.122448979592,4,1,0,20,1,0
434597,303.030303030303,4,1,0,20,1,0
434900,300,4,1,0,20,1,0
435200,285.714285714286,4,1,0,20,1,0
435485,277.777777777778,4,1,0,20,1,0
435623,272.727272727273,4,1,0,20,1,0
435759,270.27027027027,4,1,0,20,1,0
435894,300,4,1,0,20,1,0
436044,309.278350515464,4,1,0,20,1,0
436198,322.58064516129,4,1,0,20,1,0
436359,312.5,4,1,0,20,1,0
436515,303.030303030303,4,1,0,20,1,0
436818,297.029702970297,4,1,0,20,1,0
436966,291.26213592233,4,1,0,20,1,0
437111,285.714285714286,4,1,0,20,1,0
437182,319.148936170213,4,1,0,20,1,0
437261,309.278350515464,4,1,0,20,1,0
438034,312.5,4,1,0,20,1,0
438502,309.278350515464,4,1,0,20,1,0
438811,306.122448979592,4,1,0,20,1,0
439117,303.030303030303,4,1,0,20,1,0
439420,300,4,1,0,20,1,0
440020,303.030303030303,4,1,0,20,1,0
441080,306.122448979592,4,1,0,20,1,0
441233,309.278350515464,4,1,0,20,1,0
441696,312.5,4,1,0,20,1,0
442789,309.278350515464,4,1,0,20,1,0
443098,315.789473684211,4,1,0,20,1,0
443729,303.030303030303,4,1,0,20,1,0
444032,297.029702970297,4,1,0,20,1,0
444180,294.117647058824,4,1,0,20,1,0
444915,303.030303030303,4,1,0,20,1,0
445066,315.789473684211,4,1,0,20,1,0
445223,309.278350515464,4,1,0,20,1,0
445532,306.122448979592,4,1,0,20,1,0
445838,303.030303030303,4,1,0,20,1,0
445989,297.029702970297,4,1,0,20,1,0
446434,291.26213592233,4,1,0,20,1,0
446725,303.030303030303,4,1,0,20,1,0
446876,319.148936170213,4,1,0,20,1,0
447195,315.789473684211,4,1,0,20,1,0
447352,312.5,4,1,0,20,1,0
448133,309.278350515464,4,1,0,20,1,0
448287,306.122448979592,4,1,0,20,1,0
448593,303.030303030303,4,1,0,20,1,0
448896,300,4,1,0,20,1,0
449196,303.030303030303,4,1,0,20,1,0
449499,300,4,1,0,20,1,0
449799,303.030303030303,4,1,0,20,1,0
451011,300,4,1,0,20,1,0

[HitObjects]
448,192,2881,5,0,0:0:0:0:
320,192,2881,1,0,0:0:0:0:
64,192,2881,1,0,0:0:0:0:
320,192,3210,1,0,0:0:0:0:
64,192,3210,1,0,0:0:0:0:
192,192,3375,1,0,0:0:0:0:
448,192,3375,1,0,0:0:0:0:
320,192,3540,1,0,0:0:0:0:
64,192,3540,1,0,0:0:0:0:
64,192,3866,1,0,0:0:0:0:
448,192,3866,1,0,0:0:0:0:
192,192,3866,1,0,0:0:0:0:
320,192,4181,1,0,0:0:0:0:
64,192,4181,1,0,0:0:0:0:
192,192,4339,1,0,0:0:0:0:
448,192,4339,1,0,0:0:0:0:
320,192,4497,1,0,0:0:0:0:
64,192,4497,1,0,0:0:0:0:
64,192,4841,1,0,0:0:0:0:
448,192,4841,1,0,0:0:0:0:
192,192,4841,1,0,0:0:0:0:
320,192,5170,1,0,0:0:0:0:
192,192,5170,1,0,0:0:0:0:
64,192,5335,1,0,0:0:0:0:
448,192,5335,1,0,0:0:0:0:
192,192,5500,1,0,0:0:0:0:
320,192,5500,1,0,0:0:0:0:
192,192,5824,1,0,0:0:0:0:
320,192,5824,1,0,0:0:0:0:
192,192,6144,1,0,0:0:0:0:
320,192,6144,1,0,0:0:0:0:
320,192,6300,1,0,0:0:0:0:
192,192,6300,1,0,0:0:0:0:
64,192,6454,1,0,0:0:0:0:
320,192,6454,1,0,0:0:0:0:
448,192,6454,1,0,0:0:0:0:
320,192,6773,1,0,0:0:0:0:
192,192,6773,1,0,0:0:0:0:
64,192,6932,1,0,0:0:0:0:
448,192,6932,1,0,0:0:0:0:
192,192,7092,1,0,0:0:0:0:
320,192,7092,1,0,0:0:0:0:
192,192,7243,1,0,0:0:0:0:
320,192,7243,1,0,0:0:0:0:
320,192,7402,1,0,0:0:0:0:
64,192,7402,1,0,0:0:0:0:
448,192,7402,1,0,0:0:0:0:
192,192,7559,1,0,0:0:0:0:
320,192,7717,1,0,0:0:0:0:
64,192,7875,1,0,0:0:0:0:
448,192,7875,1,0,0:0:0:0:
192,192,7875,1,0,0:0:0:0:
448,192,8036,1,0,0:0:0:0:
320,192,8036,1,0,0:0:0:0:
448,192,8355,1,0,0:0:0:0:
64,192,8355,1,0,0:0:0:0:
192,192,8514,1,0,0:0:0:0:
320,192,8514,1,0,0:0:0:0:
448,192,8674,1,0,0:0:0:0:
192,192,8674,1,0,0:0:0:0:
64,192,9007,1,0,0:0:0:0:
448,192,9007,1,0,0:0:0:0:
320,192,9007,1,0,0:0:0:0:
448,192,9322,1,0,0:0:0:0:
64,192,9401,1,0,0:0:0:0:
192,192,9480,1,0,0:0:0:0:
320,192,9559,1,0,0:0:0:0:
448,192,9638,1,0,0:0:0:0:
192,192,9638,1,0,0:0:0:0:
64,192,9957,1,0,0:0:0:0:
448,192,9957,1,0,0:0:0:0:
320,192,9957,1,0,0:0:0:0:
64,192,10272,1,0,0:0:0:0:
448,192,10351,1,0,0:0:0:0:
320,192,10430,1,0,0:0:0:0:
192,192,10509,1,0,0:0:0:0:
64,192,10588,1,0,0:0:0:0:
448,192,10588,1,0,0:0:0:0:
448,192,10910,1,0,0:0:0:0:
64,192,10910,1,0,0:0:0:0:
448,192,11216,1,0,0:0:0:0:
64,192,11216,1,0,0:0:0:0:
64,192,11369,1,0,0:0:0:0:
448,192,11369,1,0,0:0:0:0:
320,192,11523,1,0,0:0:0:0:
64,192,11523,1,0,0:0:0:0:
192,192,11523,1,0,0:0:0:0:
64,192,11837,1,0,0:0:0:0:
448,192,11915,1,0,0:0:0:0:
320,192,11994,1,0,0:0:0:0:
192,192,12072,1,0,0:0:0:0:
64,192,12151,1,0,0:0:0:0:
448,192,12151,1,0,0:0:0:0:
64,192,12298,1,0,0:0:0:0:
448,192,12298,1,0,0:0:0:0:
192,192,12451,1,0,0:0:0:0:
64,192,12451,1,0,0:0:0:0:
320,192,12451,1,0,0:0:0:0:
448,192,12612,1,0,0:0:0:0:
320,192,12773,1,0,0:0:0:0:
448,192,12934,1,0,0:0:0:0:
64,192,12934,1,0,0:0:0:0:
192,192,12934,1,0,0:0:0:0:
64,192,13097,1,0,0:0:0:0:
320,192,13097,1,0,0:0:0:0:
64,192,13409,1,0,0:0:0:0:
320,192,13409,1,0,0:0:0:0:
64,192,13723,1,0,0:0:0:0:
320,192,13723,1,0,0:0:0:0:
320,192,13870,1,0,0:0:0:0:
64,192,13870,1,0,0:0:0:0:
64,192,14021,1,0,0:0:0:0:
448,192,14021,1,0,0:0:0:0:
192,192,14021,1,0,0:0:0:0:
192,192,14333,1,0,0:0:0:0:
448,192,14411,1,0,0:0:0:0:
64,192,14489,1,0,0:0:0:0:
192,192,14567,1,0,0:0:0:0:
64,192,14646,1,0,0:0:0:0:
320,192,14646,1,0,0:0:0:0:
320,192,14797,1,0,0:0:0:0:
64,192,14797,1,0,0:0:0:0:
448,192,14950,1,0,0:0:0:0:
64,192,14950,1,0,0:0:0:0:
192,192,14950,1,0,0:0:0:0:
320,192,15106,1,0,0:0:0:0:
192,192,15262,1,0,0:0:0:0:
64,192,15418,1,0,0:0:0:0:
320,192,15418,1,0,0:0:0:0:
448,192,15418,1,0,0:0:0:0:
448,192,15579,1,0,0:0:0:0:
192,192,15579,1,0,0:0:0:0:
320,192,15898,1,0,0:0:0:0:
192,192,15977,1,0,0:0:0:0:
64,192,16057,1,0,0:0:0:0:
320,192,16137,1,0,0:0:0:0:
448,192,16217,1,0,0:0:0:0:
192,192,16217,1,0,0:0:0:0:
320,192,16539,1,0,0:0:0:0:
64,192,16539,1,0,0:0:0:0:
192,192,16539,1,0,0:0:0:0:
320,192,16854,1,0,0:0:0:0:
192,192,16933,1,0,0:0:0:0:
64,192,17012,1,0,0:0:0:0:
320,192,17091,1,0,0:0:0:0:
192,192,17170,1,0,0:0:0:0:
448,192,17170,1,0,0:0:0:0:
64,192,17492,1,0,0:0:0:0:
192,192,17492,1,0,0:0:0:0:
320,192,17492,1,0,0:0:0:0:
192,192,17711,1,0,0:0:0:0:
320,192,17711,1,0,0:0:0:0:
64,192,17821,1,0,0:0:0:0:
448,192,17821,1,0,0:0:0:0:
192,192,17931,1,0,0:0:0:0:
320,192,18041,1,0,0:0:0:0:
64,192,18151,1,0,0:0:0:0:
448,192,18151,1,0,0:0:0:0:
192,192,18151,1,0,0:0:0:0:
192,192,18463,1,0,0:0:0:0:
64,192,18541,1,0,0:0:0:0:
320,192,18619,1,0,0:0:0:0:
448,192,18697,1,0,0:0:0:0:
192,192,18776,1,0,0:0:0:0:
320,192,18776,1,0,0:0:0:0:
448,192,19098,1,0,0:0:0:0:
64,192,19098,1,0,0:0:0:0:
192,192,19098,1,0,0:0:0:0:
192,192,19427,1,0,0:0:0:0:
64,192,19510,1,0,0:0:0:0:
320,192,19592,1,0,0:0:0:0:
448,192,19674,1,0,0:0:0:0:
192,192,19757,1,0,0:0:0:0:
320,192,19757,1,0,0:0:0:0:
192,192,20087,1,0,0:0:0:0:
448,192,20087,1,0,0:0:0:0:
64,192,20087,1,0,0:0:0:0:
448,192,20409,1,0,0:0:0:0:
192,192,20490,1,0,0:0:0:0:
320,192,20570,1,0,0:0:0:0:
64,192,20651,1,0,0:0:0:0:
448,192,20732,1,0,0:0:0:0:
192,192,20732,1,0,0:0:0:0:
448,192,21051,1,0,0:0:0:0:
192,192,21051,1,0,0:0:0:0:
448,192,21366,1,0,0:0:0:0:
192,192,21366,1,0,0:0:0:0:
192,192,21520,1,0,0:0:0:0:
448,192,21520,1,0,0:0:0:0:
448,192,21675,1,0,0:0:0:0:
320,192,21675,1,0,0:0:0:0:
64,192,21675,1,0,0:0:0:0:
448,192,22001,1,0,0:0:0:0:
192,192,22082,1,0,0:0:0:0:
320,192,22164,1,0,0:0:0:0:
64,192,22245,1,0,0:0:0:0:
448,192,22327,1,0,0:0:0:0:
192,192,22327,1,0,0:0:0:0:
448,192,22486,1,0,0:0:0:0:
192,192,22486,1,0,0:0:0:0:
320,192,22646,1,0,0:0:0:0:
64,192,22646,1,0,0:0:0:0:
448,192,22646,1,0,0:0:0:0:
192,192,22807,1,0,0:0:0:0:
64,192,22968,1,0,0:0:0:0:
448,192,23129,1,0,0:0:0:0:
192,192,23129,1,0,0:0:0:0:
320,192,23129,1,0,0:0:0:0:
320,192,23291,1,0,0:0:0:0:
64,192,23291,1,0,0:0:0:0:
192,192,23618,1,0,0:0:0:0:
448,192,23700,1,0,0:0:0:0:
64,192,23782,1,0,0:0:0:0:
320,192,23864,1,0,0:0:0:0:
64,192,23946,1,0,0:0:0:0:
448,192,23946,1,0,0:0:0:0:
448,192,24274,1,0,0:0:0:0:
192,192,24274,1,0,0:0:0:0:
320,192,24274,1,0,0:0:0:0:
192,192,24584,1,0,0:0:0:0:
448,192,24662,1,0,0:0:0:0:
64,192,24740,1,0,0:0:0:0:
320,192,24818,1,0,0:0:0:0:
448,192,24895,1,0,0:0:0:0:
64,192,24895,1,0,0:0:0:0:
448,192,25214,1,0,0:0:0:0:
192,192,25214,1,0,0:0:0:0:
320,192,25214,1,0,0:0:0:0:
64,192,25528,1,0,0:0:0:0:
192,192,25606,1,0,0:0:0:0:
320,192,25685,1,0,0:0:0:0:
448,192,25763,1,0,0:0:0:0:
64,192,25842,1,0,0:0:0:0:
192,192,25842,1,0,0:0:0:0:
64,192,26152,1,0,0:0:0:0:
192,192,26152,1,0,0:0:0:0:
64,192,26461,1,0,0:0:0:0:
192,192,26461,1,0,0:0:0:0:
64,192,26614,1,0,0:0:0:0:
192,192,26614,1,0,0:0:0:0:
320,192,26768,1,0,0:0:0:0:
192,192,26768,1,0,0:0:0:0:
448,192,26768,1,0,0:0:0:0:
64,192,27087,1,0,0:0:0:0:
192,192,27166,1,0,0:0:0:0:
320,192,27246,1,0,0:0:0:0:
448,192,27326,1,0,0:0:0:0:
64,192,27406,1,0,0:0:0:0:
192,192,27406,1,0,0:0:0:0:
192,192,27562,1,0,0:0:0:0:
64,192,27562,1,0,0:0:0:0:
320,192,27718,1,0,0:0:0:0:
192,192,27718,1,0,0:0:0:0:
448,192,27718,1,0,0:0:0:0:
64,192,27879,1,0,0:0:0:0:
448,192,28040,1,0,0:0:0:0:
320,192,28201,1,0,0:0:0:0:
64,192,28201,1,0,0:0:0:0:
192,192,28201,1,0,0:0:0:0:
320,192,28358,1,0,0:0:0:0:
448,192,28358,1,0,0:0:0:0:
448,192,28667,1,0,0:0:0:0:
320,192,28667,1,0,0:0:0:0:
320,192,28974,1,0,0:0:0:0:
448,192,28974,1,0,0:0:0:0:
448,192,29126,1,0,0:0:0:0:
320,192,29126,1,0,0:0:0:0:
192,192,29278,1,0,0:0:0:0:
320,192,29278,1,0,0:0:0:0:
64,192,29278,1,0,0:0:0:0:
448,192,29597,1,0,0:0:0:0:
320,192,29676,1,0,0:0:0:0:
192,192,29756,1,0,0:0:0:0:
64,192,29836,1,0,0:0:0:0:
448,192,29916,1,0,0:0:0:0:
320,192,29916,1,0,0:0:0:0:
448,192,30073,1,0,0:0:0:0:
320,192,30073,1,0,0:0:0:0:
320,192,30229,1,0,0:0:0:0:
192,192,30229,1,0,0:0:0:0:
64,192,30229,1,0,0:0:0:0:
448,192,30385,1,0,0:0:0:0:
192,192,30541,1,0,0:0:0:0:
320,192,30698,1,0,0:0:0:0:
64,192,30698,1,0,0:0:0:0:
448,192,30698,1,0,0:0:0:0:
320,192,30857,1,0,0:0:0:0:
192,192,30857,1,0,0:0:0:0:
192,192,31171,1,0,0:0:0:0:
320,192,31249,1,0,0:0:0:0:
448,192,31328,1,0,0:0:0:0:
64,192,31406,1,0,0:0:0:0:
320,192,31485,1,0,0:0:0:0:
192,192,31485,1,0,0:0:0:0:
64,192,31799,1,0,0:0:0:0:
448,192,31799,1,0,0:0:0:0:
320,192,31799,1,0,0:0:0:0:
192,192,32126,1,0,0:0:0:0:
320,192,32208,1,0,0:0:0:0:
448,192,32290,1,0,0:0:0:0:
64,192,32372,1,0,0:0:0:0:
192,192,32454,1,0,0:0:0:0:
320,192,32454,1,0,0:0:0:0:
192,192,32776,1,0,0:0:0:0:
320,192,32776,1,0,0:0:0:0:
192,192,32986,1,0,0:0:0:0:
64,192,32986,1,0,0:0:0:0:
448,192,33091,1,0,0:0:0:0:
320,192,33091,1,0,0:0:0:0:
64,192,33197,1,0,0:0:0:0:
448,192,33302,1,0,0:0:0:0:
320,192,33410,1,0,0:0:0:0:
64,192,33410,1,0,0:0:0:0:
192,192,33410,1,0,0:0:0:0:
448,192,33743,1,0,0:0:0:0:
320,192,33826,1,0,0:0:0:0:
192,192,33910,1,0,0:0:0:0:
64,192,33993,1,0,0:0:0:0:
448,192,34076,1,0,0:0:0:0:
192,192,34076,1,0,0:0:0:0:
320,192,34391,1,0,0:0:0:0:
64,192,34391,1,0,0:0:0:0:
192,192,34391,1,0,0:0:0:0:
448,192,34703,1,0,0:0:0:0:
320,192,34781,1,0,0:0:0:0:
192,192,34859,1,0,0:0:0:0:
64,192,34937,1,0,0:0:0:0:
192,192,35016,1,0,0:0:0:0:
448,192,35016,1,0,0:0:0:0:
64,192,35331,1,0,0:0:0:0:
192,192,35331,1,0,0:0:0:0:
320,192,35331,1,0,0:0:0:0:
448,192,35653,1,0,0:0:0:0:
320,192,35734,1,0,0:0:0:0:
192,192,35814,1,0,0:0:0:0:
64,192,35895,1,0,0:0:0:0:
448,192,35976,1,0,0:0:0:0:
192,192,35976,1,0,0:0:0:0:
448,192,36305,1,0,0:0:0:0:
192,192,36305,1,0,0:0:0:0:
448,192,36624,1,0,0:0:0:0:
192,192,36624,1,0,0:0:0:0:
448,192,36780,1,0,0:0:0:0:
192,192,36780,1,0,0:0:0:0:
320,192,36941,1,0,0:0:0:0:
64,192,36941,1,0,0:0:0:0:
448,192,36941,1,0,0:0:0:0:
64,192,37260,1,0,0:0:0:0:
192,192,37339,1,0,0:0:0:0:
448,192,37419,1,0,0:0:0:0:
320,192,37499,1,0,0:0:0:0:
448,192,37579,1,0,0:0:0:0:
192,192,37579,1,0,0:0:0:0:
192,192,37736,1,0,0:0:0:0:
448,192,37736,1,0,0:0:0:0:
320,192,37894,1,0,0:0:0:0:
64,192,37894,1,0,0:0:0:0:
448,192,37894,1,0,0:0:0:0:
192,192,38052,1,0,0:0:0:0:
320,192,38210,1,0,0:0:0:0:
192,192,38368,1,0,0:0:0:0:
64,192,38368,1,0,0:0:0:0:
448,192,38368,1,0,0:0:0:0:
320,192,38531,1,0,0:0:0:0:
64,192,38531,1,0,0:0:0:0:
64,192,38860,1,0,0:0:0:0:
192,192,38943,1,0,0:0:0:0:
320,192,39025,1,0,0:0:0:0:
448,192,39107,1,0,0:0:0:0:
64,192,39190,1,0,0:0:0:0:
320,192,39190,1,0,0:0:0:0:
192,192,39520,1,0,0:0:0:0:
64,192,39520,1,0,0:0:0:0:
448,192,39520,1,0,0:0:0:0:
64,192,39844,1,0,0:0:0:0:
192,192,39925,1,0,0:0:0:0:
320,192,40006,1,0,0:0:0:0:
448,192,40087,1,0,0:0:0:0:
64,192,40168,1,0,0:0:0:0:
320,192,40168,1,0,0:0:0:0:
448,192,40487,1,0,0:0:0:0:
192,192,40487,1,0,0:0:0:0:
64,192,40487,1,0,0:0:0:0:
64,192,40802,1,0,0:0:0:0:
192,192,40881,1,0,0:0:0:0:
320,192,40960,1,0,0:0:0:0:
448,192,41039,1,0,0:0:0:0:
64,192,41118,1,0,0:0:0:0:
320,192,41118,1,0,0:0:0:0:
320,192,41434,1,0,0:0:0:0:
64,192,41434,1,0,0:0:0:0:
320,192,41750,1,0,0:0:0:0:
64,192,41750,1,0,0:0:0:0:
64,192,41906,1,0,0:0:0:0:
320,192,41906,1,0,0:0:0:0:
192,192,42065,1,0,0:0:0:0:
64,192,42065,1,0,0:0:0:0:
448,192,42065,1,0,0:0:0:0:
64,192,42380,1,0,0:0:0:0:
192,192,42459,1,0,0:0:0:0:
320,192,42538,1,0,0:0:0:0:
448,192,42617,1,0,0:0:0:0:
320,192,42696,1,0,0:0:0:0:
64,192,42696,1,0,0:0:0:0:
64,192,42849,1,0,0:0:0:0:
320,192,42849,1,0,0:0:0:0:
192,192,43003,1,0,0:0:0:0:
64,192,43003,1,0,0:0:0:0:
448,192,43003,1,0,0:0:0:0:
320,192,43162,1,0,0:0:0:0:
192,192,43322,1,0,0:0:0:0:
320,192,43481,1,0,0:0:0:0:
448,192,43481,1,0,0:0:0:0:
64,192,43481,1,0,0:0:0:0:
320,192,43644,1,0,0:0:0:0:
192,192,43644,1,0,0:0:0:0:
320,192,43963,1,0,0:0:0:0:
192,192,43963,1,0,0:0:0:0:
320,192,44275,1,0,0:0:0:0:
192,192,44275,1,0,0:0:0:0:
192,192,44431,1,0,0:0:0:0:
320,192,44431,1,0,0:0:0:0:
320,192,44588,1,0,0:0:0:0:
64,192,44588,1,0,0:0:0:0:
448,192,44588,1,0,0:0:0:0:
192,192,44903,1,0,0:0:0:0:
320,192,44982,1,0,0:0:0:0:
64,192,45061,1,0,0:0:0:0:
448,192,45140,1,0,0:0:0:0:
320,192,45219,1,0,0:0:0:0:
192,192,45219,1,0,0:0:0:0:
192,192,45375,1,0,0:0:0:0:
320,192,45375,1,0,0:0:0:0:
320,192,45529,1,0,0:0:0:0:
64,192,45529,1,0,0:0:0:0:
448,192,45529,1,0,0:0:0:0:
192,192,45691,1,0,0:0:0:0:
320,192,45853,1,0,0:0:0:0:
192,192,46015,1,0,0:0:0:0:
448,192,46015,1,0,0:0:0:0:
64,192,46015,1,0,0:0:0:0:
320,192,46174,1,0,0:0:0:0:
448,192,46174,1,0,0:0:0:0:
448,192,46489,1,0,0:0:0:0:
192,192,46568,1,0,0:0:0:0:
320,192,46647,1,0,0:0:0:0:
64,192,46726,1,0,0:0:0:0:
448,192,46805,1,0,0:0:0:0:
320,192,46805,1,0,0:0:0:0:
64,192,47124,1,0,0:0:0:0:
448,192,47124,1,0,0:0:0:0:
320,192,47124,1,0,0:0:0:0:
448,192,47443,1,0,0:0:0:0:
192,192,47523,1,0,0:0:0:0:
320,192,47602,1,0,0:0:0:0:
448,192,47682,1,0,0:0:0:0:
64,192,47762,1,0,0:0:0:0:
192,192,47762,1,0,0:0:0:0:
64,192,48081,1,0,0:0:0:0:
192,192,48081,1,0,0:0:0:0:
192,192,48294,1,0,0:0:0:0:
448,192,48294,1,0,0:0:0:0:
320,192,48400,1,0,0:0:0:0:
64,192,48400,1,0,0:0:0:0:
192,192,48507,1,0,0:0:0:0:
448,192,48613,1,0,0:0:0:0:
64,192,48719,1,0,0:0:0:0:
192,192,48719,1,0,0:0:0:0:
320,192,48719,1,0,0:0:0:0:
448,192,49039,1,0,0:0:0:0:
320,192,49118,1,0,0:0:0:0:
192,192,49198,1,0,0:0:0:0:
320,192,49278,1,0,0:0:0:0:
64,192,49358,1,0,0:0:0:0:
448,192,49358,1,0,0:0:0:0:
192,192,49680,1,0,0:0:0:0:
448,192,49680,1,0,0:0:0:0:
320,192,49680,1,0,0:0:0:0:
448,192,50013,1,0,0:0:0:0:
320,192,50096,1,0,0:0:0:0:
192,192,50180,1,0,0:0:0:0:
320,192,50263,1,0,0:0:0:0:
448,192,50346,1,0,0:0:0:0:
64,192,50346,1,0,0:0:0:0:
192,192,50680,1,0,0:0:0:0:
448,192,50680,1,0,0:0:0:0:
320,192,50680,1,0,0:0:0:0:
448,192,51013,1,0,0:0:0:0:
320,192,51096,1,0,0:0:0:0:
192,192,51180,1,0,0:0:0:0:
320,192,51263,1,0,0:0:0:0:
448,192,51346,1,0,0:0:0:0:
64,192,51346,1,0,0:0:0:0:
64,192,51665,1,0,0:0:0:0:
448,192,51665,1,0,0:0:0:0:
448,192,51980,1,0,0:0:0:0:
64,192,51980,1,0,0:0:0:0:
64,192,52136,1,0,0:0:0:0:
448,192,52136,1,0,0:0:0:0:
64,192,52292,1,0,0:0:0:0:
320,192,52292,1,0,0:0:0:0:
192,192,52292,1,0,0:0:0:0:
448,192,52601,1,0,0:0:0:0:
320,192,52678,1,0,0:0:0:0:
192,192,52755,1,0,0:0:0:0:
320,192,52833,1,0,0:0:0:0:
448,192,52910,1,0,0:0:0:0:
64,192,52910,1,0,0:0:0:0:
64,192,53065,1,0,0:0:0:0:
448,192,53065,1,0,0:0:0:0:
320,192,53219,1,0,0:0:0:0:
192,192,53219,1,0,0:0:0:0:
64,192,53219,1,0,0:0:0:0:
448,192,53380,1,0,0:0:0:0:
192,192,53541,1,0,0:0:0:0:
320,192,53702,1,0,0:0:0:0:
448,192,53702,1,0,0:0:0:0:
64,192,53702,1,0,0:0:0:0:
64,192,53865,1,0,0:0:0:0:
192,192,53865,1,0,0:0:0:0:
64,192,54194,1,0,0:0:0:0:
192,192,54277,1,0,0:0:0:0:
320,192,54359,1,0,0:0:0:0:
448,192,54441,1,0,0:0:0:0:
64,192,54524,1,0,0:0:0:0:
192,192,54524,1,0,0:0:0:0:
448,192,54854,1,0,0:0:0:0:
320,192,54854,1,0,0:0:0:0:
64,192,54854,1,0,0:0:0:0:
64,192,55180,1,0,0:0:0:0:
192,192,55261,1,0,0:0:0:0:
320,192,55343,1,0,0:0:0:0:
448,192,55424,1,0,0:0:0:0:
64,192,55506,1,0,0:0:0:0:
192,192,55506,1,0,0:0:0:0:
64,192,55832,1,0,0:0:0:0:
320,192,55832,1,0,0:0:0:0:
448,192,55832,1,0,0:0:0:0:
192,192,56154,1,0,0:0:0:0:
320,192,56235,1,0,0:0:0:0:
448,192,56315,1,0,0:0:0:0:
64,192,56396,1,0,0:0:0:0:
448,192,56477,1,0,0:0:0:0:
192,192,56477,1,0,0:0:0:0:
448,192,56792,1,0,0:0:0:0:
192,192,56792,1,0,0:0:0:0:
448,192,57104,1,0,0:0:0:0:
192,192,57104,1,0,0:0:0:0:
192,192,57258,1,0,0:0:0:0:
448,192,57258,1,0,0:0:0:0:
64,192,57413,1,0,0:0:0:0:
192,192,57413,1,0,0:0:0:0:
320,192,57413,1,0,0:0:0:0:
192,192,57728,1,0,0:0:0:0:
320,192,57807,1,0,0:0:0:0:
448,192,57886,1,0,0:0:0:0:
64,192,57965,1,0,0:0:0:0:
448,192,58044,1,0,0:0:0:0:
192,192,58044,1,0,0:0:0:0:
448,192,58203,1,0,0:0:0:0:
192,192,58203,1,0,0:0:0:0:
192,192,58357,1,0,0:0:0:0:
320,192,58357,1,0,0:0:0:0:
64,192,58357,1,0,0:0:0:0:
448,192,58516,1,0,0:0:0:0:
320,192,58676,1,0,0:0:0:0:
192,192,58835,1,0,0:0:0:0:
448,192,58835,1,0,0:0:0:0:
64,192,58835,1,0,0:0:0:0:
320,192,58992,1,0,0:0:0:0:
448,192,58992,1,0,0:0:0:0:
448,192,59308,1,0,0:0:0:0:
320,192,59308,1,0,0:0:0:0:
320,192,59620,1,0,0:0:0:0:
448,192,59620,1,0,0:0:0:0:
448,192,59774,1,0,0:0:0:0:
320,192,59774,1,0,0:0:0:0:
192,192,59929,1,0,0:0:0:0:
64,192,59929,1,0,0:0:0:0:
448,192,59929,1,0,0:0:0:0:
320,192,60248,1,0,0:0:0:0:
192,192,60327,1,0,0:0:0:0:
64,192,60407,1,0,0:0:0:0:
192,192,60487,1,0,0:0:0:0:
448,192,60567,1,0,0:0:0:0:
320,192,60567,1,0,0:0:0:0:
320,192,60721,1,0,0:0:0:0:
448,192,60721,1,0,0:0:0:0:
192,192,60876,1,0,0:0:0:0:
64,192,60876,1,0,0:0:0:0:
448,192,60876,1,0,0:0:0:0:
320,192,61035,1,0,0:0:0:0:
192,192,61195,1,0,0:0:0:0:
320,192,61274,1,0,0:0:0:0:
448,192,61354,1,0,0:0:0:0:
320,192,61434,1,0,0:0:0:0:
64,192,61514,1,0,0:0:0:0:
192,192,61514,1,0,0:0:0:0:
320,192,61720,1,0,0:0:0:0:
192,192,61822,1,0,0:0:0:0:
320,192,61920,1,0,0:0:0:0:
192,192,62015,1,0,0:0:0:0:
448,192,62118,1,0,0:0:0:0:
320,192,62118,1,0,0:0:0:0:
192,192,62320,1,0,0:0:0:0:
320,192,62420,1,0,0:0:0:0:
192,192,62517,1,0,0:0:0:0:
320,192,62611,1,0,0:0:0:0:
192,192,62707,1,0,0:0:0:0:
64,192,62707,1,0,0:0:0:0:
320,192,62907,1,0,0:0:0:0:
192,192,63004,1,0,0:0:0:0:
320,192,63097,1,0,0:0:0:0:
192,192,63188,1,0,0:0:0:0:
448,192,63284,1,0,0:0:0:0:
320,192,63284,1,0,0:0:0:0:
192,192,63378,1,0,0:0:0:0:
64,192,63378,1,0,0:0:0:0:
320,192,63471,1,0,0:0:0:0:
448,192,63471,1,0,0:0:0:0:
64,192,63564,1,0,0:0:0:0:
192,192,63564,1,0,0:0:0:0:
320,192,63664,1,0,0:0:0:0:
192,192,63770,1,0,0:0:0:0:
64,192,63882,1,0,0:0:0:0:
320,192,63882,128,0,66408:0:0:0:0:
448,192,63882,1,0,0:0:0:0:
64,192,66408,128,0,67684:0:0:0:0:
192,192,67684,128,0,68961:0:0:0:0:
448,192,68642,1,0,0:0:0:0:
320,192,68748,1,0,0:0:0:0:
448,192,68854,1,0,0:0:0:0:
64,192,68961,128,0,70237:0:0:0:0:
320,192,68961,1,0,0:0:0:0:
192,192,70237,128,0,70889:0:0:0:0:
320,192,70889,128,0,71541:0:0:0:0:
448,192,71541,128,0,72193:0:0:0:0:
320,192,72193,128,0,72519:0:0:0:0:
192,192,72519,1,0,0:0:0:0:
320,192,72682,1,0,0:0:0:0:
64,192,72845,1,0,0:0:0:0:
192,192,72845,1,0,0:0:0:0:
448,192,73006,1,0,0:0:0:0:
320,192,73006,1,0,0:0:0:0:
448,192,73163,1,0,0:0:0:0:
64,192,73163,1,0,0:0:0:0:
320,192,73317,1,0,0:0:0:0:
192,192,73317,1,0,0:0:0:0:
64,192,73467,1,0,0:0:0:0:
320,192,73467,1,0,0:0:0:0:
448,192,73617,1,0,0:0:0:0:
192,192,73617,1,0,0:0:0:0:
64,192,73767,1,0,0:0:0:0:
192,192,73767,1,0,0:0:0:0:
448,192,73915,1,0,0:0:0:0:
320,192,73915,1,0,0:0:0:0:
64,192,74064,1,0,0:0:0:0:
448,192,74064,1,0,0:0:0:0:
192,192,74064,1,0,0:0:0:0:
64,192,74553,1,0,0:0:0:0:
320,192,74716,1,0,0:0:0:0:
192,192,74877,1,0,0:0:0:0:
320,192,75034,1,0,0:0:0:0:
448,192,75034,1,0,0:0:0:0:
64,192,75190,1,0,0:0:0:0:
192,192,75190,1,0,0:0:0:0:
448,192,75344,1,0,0:0:0:0:
320,192,75344,1,0,0:0:0:0:
192,192,75344,1,0,0:0:0:0:
192,192,75650,1,0,0:0:0:0:
64,192,75650,1,0,0:0:0:0:
320,192,75969,1,0,0:0:0:0:
192,192,76288,1,0,0:0:0:0:
320,192,76368,1,0,0:0:0:0:
192,192,76447,1,0,0:0:0:0:
320,192,76527,1,0,0:0:0:0:
64,192,76607,1,0,0:0:0:0:
448,192,76607,1,0,0:0:0:0:
448,192,77080,1,0,0:0:0:0:
192,192,77238,1,0,0:0:0:0:
320,192,77394,1,0,0:0:0:0:
192,192,77550,1,0,0:0:0:0:
448,192,77550,1,0,0:0:0:0:
64,192,77706,1,0,0:0:0:0:
320,192,77706,1,0,0:0:0:0:
448,192,77863,1,0,0:0:0:0:
192,192,77863,1,0,0:0:0:0:
64,192,77863,1,0,0:0:0:0:
64,192,78178,1,0,0:0:0:0:
320,192,78178,1,0,0:0:0:0:
448,192,78490,1,0,0:0:0:0:
64,192,78803,1,0,0:0:0:0:
192,192,78803,1,0,0:0:0:0:
64,192,78957,1,0,0:0:0:0:
192,192,78957,1,0,0:0:0:0:
64,192,79127,1,0,0:0:0:0:
448,192,79127,1,0,0:0:0:0:
320,192,79127,1,0,0:0:0:0:
64,192,79605,1,0,0:0:0:0:
448,192,79765,1,0,0:0:0:0:
192,192,79921,1,0,0:0:0:0:
320,192,80077,1,0,0:0:0:0:
64,192,80077,1,0,0:0:0:0:
448,192,80230,1,0,0:0:0:0:
192,192,80230,1,0,0:0:0:0:
64,192,80380,1,0,0:0:0:0:
320,192,80380,1,0,0:0:0:0:
448,192,80380,1,0,0:0:0:0:
448,192,80706,1,0,0:0:0:0:
192,192,80706,1,0,0:0:0:0:
320,192,81015,1,0,0:0:0:0:
448,192,81318,1,0,0:0:0:0:
320,192,81393,1,0,0:0:0:0:
448,192,81469,1,0,0:0:0:0:
320,192,81545,1,0,0:0:0:0:
192,192,81621,1,0,0:0:0:0:
64,192,81621,1,0,0:0:0:0:
192,192,82099,1,0,0:0:0:0:
448,192,82259,1,0,0:0:0:0:
320,192,82416,1,0,0:0:0:0:
192,192,82574,1,0,0:0:0:0:
448,192,82574,1,0,0:0:0:0:
64,192,82727,1,0,0:0:0:0:
320,192,82727,1,0,0:0:0:0:
448,192,82880,1,0,0:0:0:0:
192,192,82880,1,0,0:0:0:0:
64,192,82880,1,0,0:0:0:0:
320,192,83334,1,0,0:0:0:0:
448,192,83334,1,0,0:0:0:0:
320,192,83634,1,0,0:0:0:0:
448,192,83634,1,0,0:0:0:0:
64,192,83784,1,0,0:0:0:0:
192,192,83784,1,0,0:0:0:0:
64,192,83940,1,0,0:0:0:0:
192,192,83940,1,0,0:0:0:0:
320,192,84099,1,0,0:0:0:0:
448,192,84099,1,0,0:0:0:0:
64,192,84099,1,0,0:0:0:0:
192,192,84572,1,0,0:0:0:0:
320,192,84730,1,0,0:0:0:0:
448,192,84886,1,0,0:0:0:0:
192,192,85042,1,0,0:0:0:0:
64,192,85042,1,0,0:0:0:0:
448,192,85198,1,0,0:0:0:0:
320,192,85198,1,0,0:0:0:0:
64,192,85352,1,0,0:0:0:0:
192,192,85352,1,0,0:0:0:0:
448,192,85352,1,0,0:0:0:0:
448,192,85658,1,0,0:0:0:0:
320,192,85658,1,0,0:0:0:0:
192,192,85977,1,0,0:0:0:0:
64,192,86280,1,0,0:0:0:0:
192,192,86355,1,0,0:0:0:0:
64,192,86431,1,0,0:0:0:0:
192,192,86507,1,0,0:0:0:0:
448,192,86583,1,0,0:0:0:0:
320,192,86583,1,0,0:0:0:0:
448,192,87061,1,0,0:0:0:0:
192,192,87221,1,0,0:0:0:0:
320,192,87377,1,0,0:0:0:0:
192,192,87530,1,0,0:0:0:0:
64,192,87530,1,0,0:0:0:0:
448,192,87681,1,0,0:0:0:0:
320,192,87681,1,0,0:0:0:0:
64,192,87832,1,0,0:0:0:0:
192,192,87832,1,0,0:0:0:0:
448,192,87832,1,0,0:0:0:0:
448,192,88141,1,0,0:0:0:0:
320,192,88141,1,0,0:0:0:0:
64,192,88450,1,0,0:0:0:0:
448,192,88756,1,0,0:0:0:0:
320,192,88756,1,0,0:0:0:0:
448,192,88912,1,0,0:0:0:0:
320,192,88912,1,0,0:0:0:0:
448,192,89069,1,0,0:0:0:0:
192,192,89069,1,0,0:0:0:0:
64,192,89069,1,0,0:0:0:0:
320,192,89537,1,0,0:0:0:0:
448,192,89694,1,0,0:0:0:0:
192,192,89852,1,0,0:0:0:0:
448,192,90011,1,0,0:0:0:0:
64,192,90011,1,0,0:0:0:0:
320,192,90170,1,0,0:0:0:0:
192,192,90170,1,0,0:0:0:0:
64,192,90324,1,0,0:0:0:0:
448,192,90324,1,0,0:0:0:0:
192,192,90324,1,0,0:0:0:0:
192,192,90636,1,0,0:0:0:0:
320,192,90636,1,0,0:0:0:0:
448,192,90946,1,0,0:0:0:0:
448,192,91257,1,0,0:0:0:0:
64,192,91335,1,0,0:0:0:0:
448,192,91413,1,0,0:0:0:0:
64,192,91490,1,0,0:0:0:0:
320,192,91568,1,0,0:0:0:0:
192,192,91568,1,0,0:0:0:0:
448,192,92031,1,0,0:0:0:0:
192,192,92186,1,0,0:0:0:0:
320,192,92339,1,0,0:0:0:0:
192,192,92490,1,0,0:0:0:0:
64,192,92490,1,0,0:0:0:0:
320,192,92642,1,0,0:0:0:0:
448,192,92642,1,0,0:0:0:0:
64,192,92795,1,0,0:0:0:0:
192,192,92795,1,0,0:0:0:0:
448,192,92795,1,0,0:0:0:0:
192,192,93249,1,0,0:0:0:0:
320,192,93327,1,0,0:0:0:0:
192,192,93405,1,0,0:0:0:0:
64,192,93405,1,0,0:0:0:0:
64,192,93561,1,0,0:0:0:0:
192,192,93561,1,0,0:0:0:0:
320,192,93717,1,0,0:0:0:0:
448,192,93717,1,0,0:0:0:0:
448,192,93871,1,0,0:0:0:0:
320,192,93871,1,0,0:0:0:0:
448,192,94034,1,0,0:0:0:0:
64,192,94034,1,0,0:0:0:0:
192,192,94034,1,0,0:0:0:0:
64,192,94512,1,0,0:0:0:0:
448,192,94672,1,0,0:0:0:0:
192,192,94828,1,0,0:0:0:0:
320,192,94982,1,0,0:0:0:0:
64,192,94982,1,0,0:0:0:0:
448,192,95137,1,0,0:0:0:0:
192,192,95137,1,0,0:0:0:0:
320,192,95290,1,0,0:0:0:0:
64,192,95290,1,0,0:0:0:0:
448,192,95290,1,0,0:0:0:0:
448,192,95593,1,0,0:0:0:0:
192,192,95593,1,0,0:0:0:0:
320,192,95896,1,0,0:0:0:0:
64,192,96211,1,0,0:0:0:0:
320,192,96290,1,0,0:0:0:0:
64,192,96369,1,0,0:0:0:0:
320,192,96448,1,0,0:0:0:0:
448,192,96527,1,0,0:0:0:0:
192,192,96527,1,0,0:0:0:0:
320,192,97001,1,0,0:0:0:0:
448,192,97159,1,0,0:0:0:0:
320,192,97313,1,0,0:0:0:0:
64,192,97468,1,0,0:0:0:0:
192,192,97468,1,0,0:0:0:0:
448,192,97622,1,0,0:0:0:0:
320,192,97622,1,0,0:0:0:0:
64,192,97775,1,0,0:0:0:0:
192,192,97775,1,0,0:0:0:0:
448,192,97775,1,0,0:0:0:0:
320,192,98084,1,0,0:0:0:0:
448,192,98084,1,0,0:0:0:0:
448,192,98709,1,0,0:0:0:0:
320,192,98709,1,0,0:0:0:0:
64,192,98787,1,0,0:0:0:0:
192,192,98787,1,0,0:0:0:0:
448,192,98865,1,0,0:0:0:0:
320,192,98865,1,0,0:0:0:0:
64,192,98943,1,0,0:0:0:0:
192,192,98943,1,0,0:0:0:0:
64,192,99028,1,0,0:0:0:0:
448,192,99028,1,0,0:0:0:0:
320,192,99028,1,0,0:0:0:0:
320,192,99501,1,0,0:0:0:0:
64,192,99659,1,0,0:0:0:0:
320,192,99815,1,0,0:0:0:0:
192,192,99971,1,0,0:0:0:0:
448,192,99971,1,0,0:0:0:0:
64,192,100127,1,0,0:0:0:0:
320,192,100127,1,0,0:0:0:0:
192,192,100281,1,0,0:0:0:0:
448,192,100281,1,0,0:0:0:0:
64,192,100281,1,0,0:0:0:0:
320,192,100600,1,0,0:0:0:0:
64,192,100600,1,0,0:0:0:0:
192,192,100912,1,0,0:0:0:0:
448,192,101227,1,0,0:0:0:0:
192,192,101306,1,0,0:0:0:0:
448,192,101385,1,0,0:0:0:0:
192,192,101464,1,0,0:0:0:0:
64,192,101543,1,0,0:0:0:0:
320,192,101543,1,0,0:0:0:0:
448,192,102017,1,0,0:0:0:0:
64,192,102175,1,0,0:0:0:0:
320,192,102333,1,0,0:0:0:0:
192,192,102487,1,0,0:0:0:0:
64,192,102487,1,0,0:0:0:0:
448,192,102634,1,0,0:0:0:0:
320,192,102634,1,0,0:0:0:0:
64,192,102788,1,0,0:0:0:0:
192,192,102788,1,0,0:0:0:0:
320,192,102788,1,0,0:0:0:0:
64,192,103256,1,0,0:0:0:0:
192,192,103256,1,0,0:0:0:0:
64,192,103571,1,0,0:0:0:0:
192,192,103571,1,0,0:0:0:0:
448,192,103729,1,0,0:0:0:0:
320,192,103729,1,0,0:0:0:0:
448,192,103885,1,0,0:0:0:0:
320,192,103885,1,0,0:0:0:0:
192,192,104041,1,0,0:0:0:0:
64,192,104041,1,0,0:0:0:0:
448,192,104041,1,0,0:0:0:0:
448,192,104504,1,0,0:0:0:0:
192,192,104659,1,0,0:0:0:0:
320,192,104815,1,0,0:0:0:0:
64,192,104971,1,0,0:0:0:0:
448,192,104971,1,0,0:0:0:0:
320,192,105128,1,0,0:0:0:0:
192,192,105128,1,0,0:0:0:0:
64,192,105291,1,0,0:0:0:0:
448,192,105291,1,0,0:0:0:0:
192,192,105291,1,0,0:0:0:0:
320,192,105597,1,0,0:0:0:0:
192,192,105597,1,0,0:0:0:0:
448,192,105916,1,0,0:0:0:0:
192,192,106242,1,0,0:0:0:0:
64,192,106320,1,0,0:0:0:0:
192,192,106398,1,0,0:0:0:0:
64,192,106476,1,0,0:0:0:0:
320,192,106554,1,0,0:0:0:0:
448,192,106554,1,0,0:0:0:0:
448,192,107032,1,0,0:0:0:0:
64,192,107192,1,0,0:0:0:0:
448,192,107346,1,0,0:0:0:0:
192,192,107497,1,0,0:0:0:0:
64,192,107497,1,0,0:0:0:0:
448,192,107645,1,0,0:0:0:0:
320,192,107645,1,0,0:0:0:0:
64,192,107808,1,0,0:0:0:0:
192,192,107808,1,0,0:0:0:0:
320,192,107808,1,0,0:0:0:0:
448,192,108127,1,0,0:0:0:0:
320,192,108127,1,0,0:0:0:0:
64,192,108703,1,0,0:0:0:0:
192,192,108703,1,0,0:0:0:0:
448,192,108774,1,0,0:0:0:0:
320,192,108774,1,0,0:0:0:0:
192,192,108845,1,0,0:0:0:0:
64,192,108845,1,0,0:0:0:0:
448,192,108917,1,0,0:0:0:0:
320,192,108917,1,0,0:0:0:0:
448,192,109018,1,0,0:0:0:0:
64,192,109018,1,0,0:0:0:0:
192,192,109018,1,0,0:0:0:0:
448,192,109512,1,0,0:0:0:0:
64,192,109677,1,0,0:0:0:0:
320,192,109842,1,0,0:0:0:0:
192,192,109984,1,0,0:0:0:0:
64,192,109984,1,0,0:0:0:0:
448,192,110129,1,0,0:0:0:0:
320,192,110129,1,0,0:0:0:0:
64,192,110275,1,0,0:0:0:0:
192,192,110275,1,0,0:0:0:0:
448,192,110275,1,0,0:0:0:0:
320,192,110594,1,0,0:0:0:0:
448,192,110594,1,0,0:0:0:0:
64,192,110909,1,0,0:0:0:0:
320,192,111225,1,0,0:0:0:0:
448,192,111303,1,0,0:0:0:0:
320,192,111381,1,0,0:0:0:0:
448,192,111459,1,0,0:0:0:0:
192,192,111537,1,0,0:0:0:0:
64,192,111537,1,0,0:0:0:0:
192,192,111991,1,0,0:0:0:0:
320,192,112143,1,0,0:0:0:0:
448,192,112293,1,0,0:0:0:0:
64,192,112443,1,0,0:0:0:0:
192,192,112443,1,0,0:0:0:0:
320,192,112593,1,0,0:0:0:0:
448,192,112593,1,0,0:0:0:0:
64,192,112759,1,0,0:0:0:0:
192,192,112759,1,0,0:0:0:0:
320,192,112759,1,0,0:0:0:0:
64,192,113276,1,0,0:0:0:0:
448,192,113354,1,0,0:0:0:0:
192,192,113432,1,0,0:0:0:0:
64,192,113432,1,0,0:0:0:0:
64,192,113580,1,0,0:0:0:0:
192,192,113580,1,0,0:0:0:0:
448,192,113731,1,0,0:0:0:0:
320,192,113731,1,0,0:0:0:0:
448,192,113885,1,0,0:0:0:0:
320,192,113885,1,0,0:0:0:0:
448,192,114048,1,0,0:0:0:0:
64,192,114048,1,0,0:0:0:0:
192,192,114048,1,0,0:0:0:0:
320,192,114679,1,0,0:0:0:0:
448,192,115311,1,0,0:0:0:0:
192,192,115939,1,0,0:0:0:0:
320,192,117215,1,0,0:0:0:0:
448,192,117889,1,0,0:0:0:0:
192,192,118555,1,0,0:0:0:0:
64,192,119222,128,0,119537:0:0:0:0:
320,192,119853,1,0,0:0:0:0:
448,192,120498,1,0,0:0:0:0:
64,192,121129,1,0,0:0:0:0:
192,192,121767,128,0,122086:0:0:0:0:
320,192,122405,1,0,0:0:0:0:
448,192,123043,1,0,0:0:0:0:
192,192,123674,1,0,0:0:0:0:
64,192,124312,128,0,124638:0:0:0:0:
192,192,124638,128,0,124964:0:0:0:0:
64,192,124964,128,0,125290:0:0:0:0:
320,192,124964,1,0,0:0:0:0:
448,192,125616,1,0,0:0:0:0:
192,192,126261,1,0,0:0:0:0:
320,192,127524,1,0,0:0:0:0:
448,192,128155,1,0,0:0:0:0:
320,192,128467,1,0,0:0:0:0:
192,192,128780,1,0,0:0:0:0:
64,192,129092,1,0,0:0:0:0:
192,192,129405,128,0,129720:0:0:0:0:
320,192,130036,1,0,0:0:0:0:
448,192,130668,1,0,0:0:0:0:
192,192,131306,1,0,0:0:0:0:
64,192,131951,128,0,132263:0:0:0:0:
320,192,132576,1,0,0:0:0:0:
448,192,133214,1,0,0:0:0:0:
320,192,133859,1,0,0:0:0:0:
192,192,133859,1,0,0:0:0:0:
320,192,134165,1,0,0:0:0:0:
64,192,134471,128,0,134786:0:0:0:0:
320,192,134471,1,0,0:0:0:0:
192,192,134786,128,0,135102:0:0:0:0:
64,192,135102,128,0,135418:0:0:0:0:
320,192,135102,1,0,0:0:0:0:
320,192,135418,1,0,0:0:0:0:
64,192,135734,1,0,0:0:0:0:
448,192,135734,1,0,0:0:0:0:
448,192,136049,1,0,0:0:0:0:
192,192,136365,1,0,0:0:0:0:
192,192,136681,1,0,0:0:0:0:
448,192,136997,1,0,0:0:0:0:
320,192,137628,1,0,0:0:0:0:
320,192,137944,1,0,0:0:0:0:
64,192,138260,1,0,0:0:0:0:
448,192,138260,1,0,0:0:0:0:
320,192,138572,1,0,0:0:0:0:
192,192,138885,1,0,0:0:0:0:
64,192,139197,1,0,0:0:0:0:
192,192,139510,128,0,139822:0:0:0:0:
448,192,139510,1,0,0:0:0:0:
320,192,140135,1,0,0:0:0:0:
320,192,140447,1,0,0:0:0:0:
64,192,140760,1,0,0:0:0:0:
448,192,140760,1,0,0:0:0:0:
64,192,141069,1,0,0:0:0:0:
192,192,141378,1,0,0:0:0:0:
192,192,141687,1,0,0:0:0:0:
64,192,141997,128,0,142309:0:0:0:0:
320,192,142622,1,0,0:0:0:0:
320,192,142934,1,0,0:0:0:0:
64,192,143247,1,0,0:0:0:0:
448,192,143247,1,0,0:0:0:0:
448,192,143562,1,0,0:0:0:0:
192,192,143878,1,0,0:0:0:0:
192,192,144194,1,0,0:0:0:0:
64,192,144510,1,0,0:0:0:0:
448,192,144510,1,0,0:0:0:0:
192,192,144825,1,0,0:0:0:0:
320,192,145141,1,0,0:0:0:0:
192,192,145457,1,0,0:0:0:0:
448,192,145769,1,0,0:0:0:0:
320,192,146075,1,0,0:0:0:0:
64,192,146381,1,0,0:0:0:0:
448,192,146684,1,0,0:0:0:0:
192,192,146987,1,0,0:0:0:0:
64,192,147287,1,0,0:0:0:0:
320,192,147587,1,0,0:0:0:0:
192,192,147884,1,0,0:0:0:0:
448,192,148181,1,0,0:0:0:0:
320,192,148475,1,0,0:0:0:0:
192,192,148769,1,0,0:0:0:0:
64,192,149066,1,0,0:0:0:0:
448,192,149363,1,0,0:0:0:0:
320,192,149363,1,0,0:0:0:0:
320,192,149663,1,0,0:0:0:0:
448,192,149663,1,0,0:0:0:0:
320,192,149963,1,0,0:0:0:0:
448,192,149963,1,0,0:0:0:0:
320,192,150257,1,0,0:0:0:0:
448,192,150257,1,0,0:0:0:0:
320,192,150548,1,0,0:0:0:0:
448,192,150548,1,0,0:0:0:0:
320,192,150836,1,0,0:0:0:0:
448,192,150836,1,0,0:0:0:0:
320,192,151124,1,0,0:0:0:0:
448,192,151124,1,0,0:0:0:0:
320,192,151409,1,0,0:0:0:0:
448,192,151409,1,0,0:0:0:0:
192,192,151692,1,0,0:0:0:0:
320,192,151692,1,0,0:0:0:0:
448,192,151692,1,0,0:0:0:0:
192,192,151972,1,0,0:0:0:0:
320,192,151972,1,0,0:0:0:0:
448,192,151972,1,0,0:0:0:0:
192,192,152249,1,0,0:0:0:0:
320,192,152249,1,0,0:0:0:0:
448,192,152249,1,0,0:0:0:0:
192,192,152524,1,0,0:0:0:0:
320,192,152524,1,0,0:0:0:0:
448,192,152524,1,0,0:0:0:0:
192,192,152796,1,0,0:0:0:0:
320,192,152796,1,0,0:0:0:0:
448,192,152796,1,0,0:0:0:0:
192,192,153069,1,0,0:0:0:0:
320,192,153069,1,0,0:0:0:0:
448,192,153069,1,0,0:0:0:0:
192,192,153342,1,0,0:0:0:0:
320,192,153342,1,0,0:0:0:0:
448,192,153342,1,0,0:0:0:0:
192,192,153614,1,0,0:0:0:0:
320,192,153614,1,0,0:0:0:0:
448,192,153614,1,0,0:0:0:0:
64,192,153887,1,0,0:0:0:0:
192,192,153887,1,0,0:0:0:0:
320,192,153887,1,0,0:0:0:0:
448,192,154137,1,0,0:0:0:0:
64,192,154137,1,0,0:0:0:0:
192,192,154137,1,0,0:0:0:0:
64,192,154377,1,0,0:0:0:0:
448,192,154377,1,0,0:0:0:0:
320,192,154377,1,0,0:0:0:0:
448,192,154615,128,0,155091:0:0:0:0:
192,192,154615,128,0,155091:0:0:0:0:
320,192,154615,128,0,155091:0:0:0:0:
320,192,155329,128,0,156043:0:0:0:0:
448,192,155329,128,0,156043:0:0:0:0:
64,192,155329,128,0,156043:0:0:0:0:
192,192,156186,128,0,156276:0:0:0:0:
64,192,156186,128,0,156276:0:0:0:0:
192,192,156366,128,0,156466:0:0:0:0:
64,192,156366,128,0,156466:0:0:0:0:
448,192,156566,128,0,156780:0:0:0:0:
320,192,156780,128,0,156982:0:0:0:0:
192,192,156982,128,0,157179:0:0:0:0:
64,192,157179,128,0,157371:0:0:0:0:
192,192,157371,1,0,0:0:0:0:
448,192,157371,1,0,0:0:0:0:
320,192,157371,1,0,0:0:0:0:
320,192,157579,1,0,0:0:0:0:
448,192,157579,1,0,0:0:0:0:
64,192,157781,1,0,0:0:0:0:
192,192,157781,1,0,0:0:0:0:
64,192,157981,1,0,0:0:0:0:
192,192,157981,1,0,0:0:0:0:
448,192,158178,128,0,158370:0:0:0:0:
320,192,158178,128,0,158370:0:0:0:0:
64,192,158178,128,0,158370:0:0:0:0:
320,192,158562,1,0,0:0:0:0:
64,192,158562,1,0,0:0:0:0:
448,192,158751,1,0,0:0:0:0:
320,192,158844,1,0,0:0:0:0:
448,192,158938,1,0,0:0:0:0:
64,192,158938,1,0,0:0:0:0:
192,192,158938,1,0,0:0:0:0:
64,192,159126,1,0,0:0:0:0:
192,192,159126,1,0,0:0:0:0:
448,192,159311,1,0,0:0:0:0:
320,192,159311,1,0,0:0:0:0:
448,192,159496,1,0,0:0:0:0:
320,192,159496,1,0,0:0:0:0:
320,192,159685,128,0,159879:0:0:0:0:
64,192,159685,128,0,159879:0:0:0:0:
192,192,159685,128,0,159879:0:0:0:0:
64,192,160074,1,0,0:0:0:0:
448,192,160074,1,0,0:0:0:0:
64,192,160269,1,0,0:0:0:0:
448,192,160269,1,0,0:0:0:0:
320,192,160461,1,0,0:0:0:0:
192,192,160461,1,0,0:0:0:0:
448,192,160461,1,0,0:0:0:0:
64,192,160650,1,0,0:0:0:0:
192,192,160650,1,0,0:0:0:0:
448,192,160650,1,0,0:0:0:0:
64,192,160840,1,0,0:0:0:0:
192,192,160840,1,0,0:0:0:0:
320,192,160840,1,0,0:0:0:0:
448,192,161032,128,0,161421:0:0:0:0:
320,192,161032,128,0,161421:0:0:0:0:
64,192,161032,128,0,161421:0:0:0:0:
64,192,161616,1,0,0:0:0:0:
448,192,161616,1,0,0:0:0:0:
320,192,161712,1,0,0:0:0:0:
192,192,161808,1,0,0:0:0:0:
64,192,161904,1,0,0:0:0:0:
448,192,162000,1,0,0:0:0:0:
320,192,162000,1,0,0:0:0:0:
192,192,162094,1,0,0:0:0:0:
64,192,162189,1,0,0:0:0:0:
448,192,162284,1,0,0:0:0:0:
192,192,162379,1,0,0:0:0:0:
320,192,162379,1,0,0:0:0:0:
64,192,162472,1,0,0:0:0:0:
448,192,162566,1,0,0:0:0:0:
320,192,162660,1,0,0:0:0:0:
64,192,162754,1,0,0:0:0:0:
192,192,162754,1,0,0:0:0:0:
320,192,162815,1,0,0:0:0:0:
448,192,162877,1,0,0:0:0:0:
64,192,162939,1,0,0:0:0:0:
192,192,163000,1,0,0:0:0:0:
320,192,163062,1,0,0:0:0:0:
64,192,163124,1,0,0:0:0:0:
448,192,163124,1,0,0:0:0:0:
320,192,163184,1,0,0:0:0:0:
192,192,163245,1,0,0:0:0:0:
64,192,163306,1,0,0:0:0:0:
448,192,163370,1,0,0:0:0:0:
320,192,163434,1,0,0:0:0:0:
448,192,163498,1,0,0:0:0:0:
64,192,163498,1,0,0:0:0:0:
192,192,163498,1,0,0:0:0:0:
64,192,163685,1,0,0:0:0:0:
192,192,163685,1,0,0:0:0:0:
448,192,163873,1,0,0:0:0:0:
320,192,163873,1,0,0:0:0:0:
448,192,164060,1,0,0:0:0:0:
320,192,164060,1,0,0:0:0:0:
448,192,164254,128,0,164451:0:0:0:0:
64,192,164254,128,0,164451:0:0:0:0:
192,192,164254,128,0,164451:0:0:0:0:
192,192,164648,1,0,0:0:0:0:
64,192,164648,1,0,0:0:0:0:
448,192,164755,1,0,0:0:0:0:
320,192,164853,1,0,0:0:0:0:
192,192,164949,1,0,0:0:0:0:
64,192,165041,1,0,0:0:0:0:
448,192,165041,1,0,0:0:0:0:
320,192,165041,1,0,0:0:0:0:
64,192,165223,1,0,0:0:0:0:
448,192,165223,1,0,0:0:0:0:
192,192,165403,1,0,0:0:0:0:
320,192,165403,1,0,0:0:0:0:
192,192,165592,1,0,0:0:0:0:
320,192,165592,1,0,0:0:0:0:
448,192,165789,128,0,165986:0:0:0:0:
64,192,165789,128,0,165986:0:0:0:0:
192,192,165789,128,0,165986:0:0:0:0:
320,192,166184,1,0,0:0:0:0:
64,192,166184,1,0,0:0:0:0:
320,192,166366,1,0,0:0:0:0:
64,192,166366,1,0,0:0:0:0:
448,192,166544,1,0,0:0:0:0:
64,192,166544,1,0,0:0:0:0:
192,192,166544,1,0,0:0:0:0:
320,192,166731,1,0,0:0:0:0:
64,192,166731,1,0,0:0:0:0:
192,192,166731,1,0,0:0:0:0:
448,192,166920,1,0,0:0:0:0:
320,192,166920,1,0,0:0:0:0:
192,192,166920,1,0,0:0:0:0:
448,192,167117,128,0,167506:0:0:0:0:
320,192,167117,128,0,167506:0:0:0:0:
64,192,167117,128,0,167506:0:0:0:0:
192,192,167701,1,0,0:0:0:0:
320,192,167701,1,0,0:0:0:0:
448,192,167701,1,0,0:0:0:0:
192,192,167893,1,0,0:0:0:0:
64,192,167893,1,0,0:0:0:0:
64,192,167989,1,0,0:0:0:0:
192,192,167989,1,0,0:0:0:0:
320,192,168085,1,0,0:0:0:0:
64,192,168274,1,0,0:0:0:0:
192,192,168274,1,0,0:0:0:0:
192,192,168369,1,0,0:0:0:0:
64,192,168369,1,0,0:0:0:0:
448,192,168464,1,0,0:0:0:0:
448,192,168654,1,0,0:0:0:0:
320,192,168654,1,0,0:0:0:0:
320,192,168746,1,0,0:0:0:0:
448,192,168746,1,0,0:0:0:0:
64,192,168839,1,0,0:0:0:0:
192,192,168839,1,0,0:0:0:0:
320,192,169024,1,0,0:0:0:0:
448,192,169024,1,0,0:0:0:0:
448,192,169116,1,0,0:0:0:0:
320,192,169116,1,0,0:0:0:0:
192,192,169209,1,0,0:0:0:0:
64,192,169209,1,0,0:0:0:0:
320,192,169302,1,0,0:0:0:0:
192,192,169394,1,0,0:0:0:0:
448,192,169394,1,0,0:0:0:0:
64,192,169491,1,0,0:0:0:0:
192,192,169593,1,0,0:0:0:0:
448,192,169593,1,0,0:0:0:0:
320,192,169593,1,0,0:0:0:0:
192,192,169787,1,0,0:0:0:0:
320,192,169787,1,0,0:0:0:0:
64,192,169976,1,0,0:0:0:0:
448,192,169976,1,0,0:0:0:0:
64,192,170163,1,0,0:0:0:0:
448,192,170163,1,0,0:0:0:0:
64,192,170351,128,0,170540:0:0:0:0:
192,192,170351,128,0,170540:0:0:0:0:
320,192,170351,128,0,170540:0:0:0:0:
448,192,170730,1,0,0:0:0:0:
192,192,170730,1,0,0:0:0:0:
64,192,170917,1,0,0:0:0:0:
192,192,170917,1,0,0:0:0:0:
64,192,171008,1,0,0:0:0:0:
192,192,171008,1,0,0:0:0:0:
448,192,171099,1,0,0:0:0:0:
320,192,171099,1,0,0:0:0:0:
320,192,171284,1,0,0:0:0:0:
448,192,171284,1,0,0:0:0:0:
64,192,171469,1,0,0:0:0:0:
192,192,171469,1,0,0:0:0:0:
64,192,171654,1,0,0:0:0:0:
192,192,171654,1,0,0:0:0:0:
64,192,171836,1,0,0:0:0:0:
448,192,171836,1,0,0:0:0:0:
320,192,171836,1,0,0:0:0:0:
64,192,172018,1,0,0:0:0:0:
192,192,172018,1,0,0:0:0:0:
448,192,172110,1,0,0:0:0:0:
320,192,172110,1,0,0:0:0:0:
64,192,172201,1,0,0:0:0:0:
192,192,172201,1,0,0:0:0:0:
448,192,172293,1,0,0:0:0:0:
320,192,172293,1,0,0:0:0:0:
64,192,172384,1,0,0:0:0:0:
192,192,172384,1,0,0:0:0:0:
320,192,172473,1,0,0:0:0:0:
448,192,172473,1,0,0:0:0:0:
192,192,172564,1,0,0:0:0:0:
64,192,172564,1,0,0:0:0:0:
320,192,172751,1,0,0:0:0:0:
192,192,172751,1,0,0:0:0:0:
448,192,172939,1,0,0:0:0:0:
64,192,172939,1,0,0:0:0:0:
64,192,173124,1,0,0:0:0:0:
320,192,173124,1,0,0:0:0:0:
64,192,173309,1,0,0:0:0:0:
192,192,173309,1,0,0:0:0:0:
448,192,173309,1,0,0:0:0:0:
448,192,173494,1,0,0:0:0:0:
320,192,173494,1,0,0:0:0:0:
192,192,173679,1,0,0:0:0:0:
64,192,173679,1,0,0:0:0:0:
448,192,173864,1,0,0:0:0:0:
64,192,173864,1,0,0:0:0:0:
448,192,174050,1,0,0:0:0:0:
192,192,174050,1,0,0:0:0:0:
192,192,174235,1,0,0:0:0:0:
320,192,174235,1,0,0:0:0:0:
64,192,174420,1,0,0:0:0:0:
320,192,174420,1,0,0:0:0:0:
64,192,174602,1,0,0:0:0:0:
192,192,174602,1,0,0:0:0:0:
448,192,174785,1,0,0:0:0:0:
320,192,174785,1,0,0:0:0:0:
192,192,174785,1,0,0:0:0:0:
64,192,174977,1,0,0:0:0:0:
320,192,175068,1,0,0:0:0:0:
192,192,175158,1,0,0:0:0:0:
64,192,175247,1,0,0:0:0:0:
448,192,175336,1,0,0:0:0:0:
320,192,175425,1,0,0:0:0:0:
64,192,175515,1,0,0:0:0:0:
192,192,175515,1,0,0:0:0:0:
320,192,175691,1,0,0:0:0:0:
448,192,175691,1,0,0:0:0:0:
320,192,175871,1,0,0:0:0:0:
192,192,175871,1,0,0:0:0:0:
64,192,176058,1,0,0:0:0:0:
192,192,176058,1,0,0:0:0:0:
448,192,176246,1,0,0:0:0:0:
64,192,176246,1,0,0:0:0:0:
320,192,176246,1,0,0:0:0:0:
192,192,176433,1,0,0:0:0:0:
320,192,176433,1,0,0:0:0:0:
64,192,176618,1,0,0:0:0:0:
448,192,176618,1,0,0:0:0:0:
448,192,176803,1,0,0:0:0:0:
320,192,176803,1,0,0:0:0:0:
64,192,176990,1,0,0:0:0:0:
192,192,176990,1,0,0:0:0:0:
320,192,176990,1,0,0:0:0:0:
64,192,177178,1,0,0:0:0:0:
448,192,177178,1,0,0:0:0:0:
192,192,177365,1,0,0:0:0:0:
320,192,177365,1,0,0:0:0:0:
64,192,177550,1,0,0:0:0:0:
320,192,177550,1,0,0:0:0:0:
448,192,177735,1,0,0:0:0:0:
320,192,177735,1,0,0:0:0:0:
192,192,177735,1,0,0:0:0:0:
64,192,177920,1,0,0:0:0:0:
192,192,177920,1,0,0:0:0:0:
448,192,178105,1,0,0:0:0:0:
320,192,178105,1,0,0:0:0:0:
64,192,178105,1,0,0:0:0:0:
192,192,178292,1,0,0:0:0:0:
448,192,178292,1,0,0:0:0:0:
64,192,178474,1,0,0:0:0:0:
192,192,178474,1,0,0:0:0:0:
320,192,178474,1,0,0:0:0:0:
64,192,178657,1,0,0:0:0:0:
320,192,178657,1,0,0:0:0:0:
448,192,178657,1,0,0:0:0:0:
448,192,178840,1,0,0:0:0:0:
64,192,178840,1,0,0:0:0:0:
192,192,178840,1,0,0:0:0:0:
448,192,179020,128,0,179420:0:0:0:0:
320,192,179020,128,0,179420:0:0:0:0:
192,192,179020,128,0,179420:0:0:0:0:
64,192,179620,128,0,180253:0:0:0:0:
320,192,179620,128,0,180253:0:0:0:0:
448,192,179620,128,0,180253:0:0:0:0:
64,192,180465,128,0,180559:0:0:0:0:
192,192,180465,128,0,180559:0:0:0:0:
192,192,180654,128,0,180750:0:0:0:0:
64,192,180654,128,0,180750:0:0:0:0:
448,192,180846,128,0,181035:0:0:0:0:
320,192,181035,128,0,181225:0:0:0:0:
192,192,181225,128,0,181412:0:0:0:0:
64,192,181412,128,0,181600:0:0:0:0:
192,192,181600,1,0,0:0:0:0:
320,192,181600,1,0,0:0:0:0:
448,192,181600,1,0,0:0:0:0:
192,192,181797,1,0,0:0:0:0:
448,192,181797,1,0,0:0:0:0:
64,192,181997,1,0,0:0:0:0:
320,192,181997,1,0,0:0:0:0:
64,192,182194,1,0,0:0:0:0:
320,192,182194,1,0,0:0:0:0:
64,192,182388,1,0,0:0:0:0:
192,192,182388,1,0,0:0:0:0:
448,192,182388,1,0,0:0:0:0:
192,192,182767,1,0,0:0:0:0:
320,192,182767,1,0,0:0:0:0:
64,192,182957,1,0,0:0:0:0:
192,192,183052,1,0,0:0:0:0:
448,192,183147,1,0,0:0:0:0:
320,192,183147,1,0,0:0:0:0:
64,192,183147,1,0,0:0:0:0:
64,192,183337,1,0,0:0:0:0:
448,192,183337,1,0,0:0:0:0:
192,192,183522,1,0,0:0:0:0:
320,192,183522,1,0,0:0:0:0:
192,192,183704,1,0,0:0:0:0:
320,192,183704,1,0,0:0:0:0:
448,192,183887,128,0,184076:0:0:0:0:
64,192,183887,128,0,184076:0:0:0:0:
192,192,183887,128,0,184076:0:0:0:0:
448,192,184266,1,0,0:0:0:0:
320,192,184266,1,0,0:0:0:0:
192,192,184451,1,0,0:0:0:0:
320,192,184451,1,0,0:0:0:0:
320,192,184633,1,0,0:0:0:0:
64,192,184633,1,0,0:0:0:0:
448,192,184633,1,0,0:0:0:0:
64,192,184816,1,0,0:0:0:0:
320,192,184816,1,0,0:0:0:0:
192,192,184816,1,0,0:0:0:0:
448,192,184999,1,0,0:0:0:0:
320,192,184999,1,0,0:0:0:0:
192,192,184999,1,0,0:0:0:0:
448,192,185191,128,0,185575:0:0:0:0:
192,192,185191,128,0,185575:0:0:0:0:
64,192,185191,128,0,185575:0:0:0:0:
320,192,185768,1,0,0:0:0:0:
64,192,185768,1,0,0:0:0:0:
448,192,185862,1,0,0:0:0:0:
64,192,185957,1,0,0:0:0:0:
192,192,186052,1,0,0:0:0:0:
448,192,186147,1,0,0:0:0:0:
320,192,186147,1,0,0:0:0:0:
64,192,186239,1,0,0:0:0:0:
192,192,186332,1,0,0:0:0:0:
320,192,186424,1,0,0:0:0:0:
64,192,186517,1,0,0:0:0:0:
448,192,186517,1,0,0:0:0:0:
192,192,186609,1,0,0:0:0:0:
320,192,186702,1,0,0:0:0:0:
448,192,186795,1,0,0:0:0:0:
64,192,186887,1,0,0:0:0:0:
192,192,186887,1,0,0:0:0:0:
320,192,186945,1,0,0:0:0:0:
448,192,187004,1,0,0:0:0:0:
64,192,187063,1,0,0:0:0:0:
192,192,187122,1,0,0:0:0:0:
320,192,187181,1,0,0:0:0:0:
448,192,187239,1,0,0:0:0:0:
64,192,187239,1,0,0:0:0:0:
320,192,187301,1,0,0:0:0:0:
192,192,187364,1,0,0:0:0:0:
64,192,187426,1,0,0:0:0:0:
448,192,187489,1,0,0:0:0:0:
320,192,187553,1,0,0:0:0:0:
64,192,187625,1,0,0:0:0:0:
192,192,187625,1,0,0:0:0:0:
448,192,187625,1,0,0:0:0:0:
448,192,187836,1,0,0:0:0:0:
64,192,187836,1,0,0:0:0:0:
192,192,188038,1,0,0:0:0:0:
320,192,188038,1,0,0:0:0:0:
192,192,188230,1,0,0:0:0:0:
320,192,188230,1,0,0:0:0:0:
448,192,188422,128,0,188611:0:0:0:0:
64,192,188422,128,0,188611:0:0:0:0:
192,192,188422,128,0,188611:0:0:0:0:
320,192,188801,1,0,0:0:0:0:
448,192,188801,1,0,0:0:0:0:
192,192,188901,1,0,0:0:0:0:
64,192,188992,1,0,0:0:0:0:
320,192,189082,1,0,0:0:0:0:
64,192,189172,1,0,0:0:0:0:
192,192,189172,1,0,0:0:0:0:
448,192,189172,1,0,0:0:0:0:
448,192,189361,1,0,0:0:0:0:
192,192,189361,1,0,0:0:0:0:
64,192,189546,1,0,0:0:0:0:
320,192,189546,1,0,0:0:0:0:
64,192,189731,1,0,0:0:0:0:
320,192,189731,1,0,0:0:0:0:
448,192,189928,128,0,190122:0:0:0:0:
320,192,189928,128,0,190122:0:0:0:0:
192,192,189928,128,0,190122:0:0:0:0:
64,192,190317,1,0,0:0:0:0:
192,192,190317,1,0,0:0:0:0:
64,192,190502,1,0,0:0:0:0:
192,192,190502,1,0,0:0:0:0:
448,192,190684,1,0,0:0:0:0:
320,192,190684,1,0,0:0:0:0:
192,192,190684,1,0,0:0:0:0:
64,192,190864,1,0,0:0:0:0:
192,192,190864,1,0,0:0:0:0:
448,192,190864,1,0,0:0:0:0:
64,192,191042,1,0,0:0:0:0:
448,192,191042,1,0,0:0:0:0:
320,192,191042,1,0,0:0:0:0:
64,192,191221,128,0,191578:0:0:0:0:
192,192,191221,128,0,191578:0:0:0:0:
320,192,191221,128,0,191578:0:0:0:0:
64,192,191805,1,0,0:0:0:0:
320,192,191805,1,0,0:0:0:0:
448,192,191805,1,0,0:0:0:0:
192,192,192002,1,0,0:0:0:0:
64,192,192002,1,0,0:0:0:0:
64,192,192098,1,0,0:0:0:0:
192,192,192098,1,0,0:0:0:0:
320,192,192194,1,0,0:0:0:0:
448,192,192381,1,0,0:0:0:0:
320,192,192381,1,0,0:0:0:0:
448,192,192473,1,0,0:0:0:0:
320,192,192473,1,0,0:0:0:0:
192,192,192566,1,0,0:0:0:0:
64,192,192748,1,0,0:0:0:0:
320,192,192748,1,0,0:0:0:0:
64,192,192838,1,0,0:0:0:0:
320,192,192838,1,0,0:0:0:0:
448,192,192928,1,0,0:0:0:0:
320,192,192988,1,0,0:0:0:0:
192,192,193049,1,0,0:0:0:0:
64,192,193110,1,0,0:0:0:0:
448,192,193171,1,0,0:0:0:0:
320,192,193232,1,0,0:0:0:0:
64,192,193293,1,0,0:0:0:0:
192,192,193293,1,0,0:0:0:0:
320,192,193353,1,0,0:0:0:0:
448,192,193413,1,0,0:0:0:0:
64,192,193473,1,0,0:0:0:0:
192,192,193541,1,0,0:0:0:0:
320,192,193610,1,0,0:0:0:0:
64,192,193694,1,0,0:0:0:0:
192,192,193694,1,0,0:0:0:0:
448,192,193694,1,0,0:0:0:0:
64,192,193896,1,0,0:0:0:0:
192,192,193896,1,0,0:0:0:0:
448,192,194083,1,0,0:0:0:0:
320,192,194083,1,0,0:0:0:0:
448,192,194265,1,0,0:0:0:0:
320,192,194265,1,0,0:0:0:0:
448,192,194465,128,0,194650:0:0:0:0:
64,192,194465,128,0,194650:0:0:0:0:
192,192,194465,128,0,194650:0:0:0:0:
320,192,194835,1,0,0:0:0:0:
448,192,194835,1,0,0:0:0:0:
64,192,195024,1,0,0:0:0:0:
192,192,195024,1,0,0:0:0:0:
64,192,195117,1,0,0:0:0:0:
192,192,195117,1,0,0:0:0:0:
448,192,195209,1,0,0:0:0:0:
320,192,195209,1,0,0:0:0:0:
448,192,195401,1,0,0:0:0:0:
320,192,195401,1,0,0:0:0:0:
64,192,195588,1,0,0:0:0:0:
192,192,195588,1,0,0:0:0:0:
192,192,195770,1,0,0:0:0:0:
64,192,195770,1,0,0:0:0:0:
448,192,195953,1,0,0:0:0:0:
320,192,195953,1,0,0:0:0:0:
64,192,195953,1,0,0:0:0:0:
64,192,196142,1,0,0:0:0:0:
192,192,196142,1,0,0:0:0:0:
448,192,196235,1,0,0:0:0:0:
320,192,196235,1,0,0:0:0:0:
64,192,196329,1,0,0:0:0:0:
192,192,196329,1,0,0:0:0:0:
448,192,196420,1,0,0:0:0:0:
320,192,196420,1,0,0:0:0:0:
64,192,196509,1,0,0:0:0:0:
192,192,196509,1,0,0:0:0:0:
448,192,196596,1,0,0:0:0:0:
320,192,196596,1,0,0:0:0:0:
64,192,196693,1,0,0:0:0:0:
192,192,196693,1,0,0:0:0:0:
64,192,196890,1,0,0:0:0:0:
448,192,196890,1,0,0:0:0:0:
192,192,197072,1,0,0:0:0:0:
320,192,197072,1,0,0:0:0:0:
448,192,197248,1,0,0:0:0:0:
320,192,197248,1,0,0:0:0:0:
448,192,197428,1,0,0:0:0:0:
64,192,197428,1,0,0:0:0:0:
192,192,197428,1,0,0:0:0:0:
192,192,197615,1,0,0:0:0:0:
320,192,197615,1,0,0:0:0:0:
64,192,197800,1,0,0:0:0:0:
448,192,197800,1,0,0:0:0:0:
192,192,197980,1,0,0:0:0:0:
64,192,197980,1,0,0:0:0:0:
192,192,198161,1,0,0:0:0:0:
320,192,198161,1,0,0:0:0:0:
448,192,198346,1,0,0:0:0:0:
320,192,198346,1,0,0:0:0:0:
64,192,198528,1,0,0:0:0:0:
192,192,198528,1,0,0:0:0:0:
64,192,198711,1,0,0:0:0:0:
448,192,198711,1,0,0:0:0:0:
320,192,198894,1,0,0:0:0:0:
448,192,198894,1,0,0:0:0:0:
192,192,198894,1,0,0:0:0:0:
64,192,199077,1,0,0:0:0:0:
320,192,199169,1,0,0:0:0:0:
192,192,199259,1,0,0:0:0:0:
448,192,199349,1,0,0:0:0:0:
64,192,199437,1,0,0:0:0:0:
192,192,199525,1,0,0:0:0:0:
448,192,199615,1,0,0:0:0:0:
320,192,199615,1,0,0:0:0:0:
64,192,199809,1,0,0:0:0:0:
192,192,199809,1,0,0:0:0:0:
448,192,200001,1,0,0:0:0:0:
64,192,200001,1,0,0:0:0:0:
192,192,200188,1,0,0:0:0:0:
448,192,200188,1,0,0:0:0:0:
64,192,200376,1,0,0:0:0:0:
192,192,200376,1,0,0:0:0:0:
320,192,200376,1,0,0:0:0:0:
320,192,200558,1,0,0:0:0:0:
448,192,200558,1,0,0:0:0:0:
192,192,200738,1,0,0:0:0:0:
64,192,200738,1,0,0:0:0:0:
192,192,200919,1,0,0:0:0:0:
320,192,200919,1,0,0:0:0:0:
448,192,201104,1,0,0:0:0:0:
64,192,201104,1,0,0:0:0:0:
320,192,201104,1,0,0:0:0:0:
64,192,201298,1,0,0:0:0:0:
192,192,201298,1,0,0:0:0:0:
448,192,201487,1,0,0:0:0:0:
320,192,201487,1,0,0:0:0:0:
192,192,201669,1,0,0:0:0:0:
320,192,201669,1,0,0:0:0:0:
64,192,201849,1,0,0:0:0:0:
192,192,201849,1,0,0:0:0:0:
448,192,201849,1,0,0:0:0:0:
64,192,202025,1,0,0:0:0:0:
192,192,202025,1,0,0:0:0:0:
448,192,202201,1,0,0:0:0:0:
320,192,202201,1,0,0:0:0:0:
192,192,202201,1,0,0:0:0:0:
448,192,202388,1,0,0:0:0:0:
320,192,202388,1,0,0:0:0:0:
64,192,202570,1,0,0:0:0:0:
192,192,202570,1,0,0:0:0:0:
320,192,202570,1,0,0:0:0:0:
448,192,202762,1,0,0:0:0:0:
320,192,202762,1,0,0:0:0:0:
192,192,202762,1,0,0:0:0:0:
64,192,202947,1,0,0:0:0:0:
192,192,202947,1,0,0:0:0:0:
448,192,202947,1,0,0:0:0:0:
448,192,203125,128,0,203525:0:0:0:0:
320,192,203125,128,0,203525:0:0:0:0:
64,192,203125,128,0,203525:0:0:0:0:
192,192,203725,128,0,204317:0:0:0:0:
320,192,203725,128,0,204317:0:0:0:0:
448,192,203725,128,0,204317:0:0:0:0:
64,192,204119,128,0,204317:0:0:0:0:
448,192,204514,128,0,205494:0:0:0:0:
320,192,204514,128,0,205494:0:0:0:0:
64,192,204906,128,0,205102:0:0:0:0:
64,192,205298,128,0,205494:0:0:0:0:
448,192,205690,1,0,0:0:0:0:
192,192,205690,1,0,0:0:0:0:
64,192,205690,1,0,0:0:0:0:
64,192,205877,1,0,0:0:0:0:
320,192,205877,1,0,0:0:0:0:
192,192,206057,1,0,0:0:0:0:
448,192,206057,1,0,0:0:0:0:
448,192,206235,1,0,0:0:0:0:
320,192,206235,1,0,0:0:0:0:
64,192,206411,1,0,0:0:0:0:
192,192,206411,1,0,0:0:0:0:
320,192,206411,1,0,0:0:0:0:
448,192,206583,1,0,0:0:0:0:
64,192,206583,1,0,0:0:0:0:
192,192,206753,1,0,0:0:0:0:
320,192,206753,1,0,0:0:0:0:
448,192,206919,1,0,0:0:0:0:
192,192,206919,1,0,0:0:0:0:
448,192,207083,1,0,0:0:0:0:
320,192,207083,1,0,0:0:0:0:
320,192,207253,1,0,0:0:0:0:
64,192,207253,1,0,0:0:0:0:
64,192,207421,1,0,0:0:0:0:
192,192,207421,1,0,0:0:0:0:
320,192,207593,1,0,0:0:0:0:
192,192,207593,1,0,0:0:0:0:
320,192,207775,1,0,0:0:0:0:
448,192,207775,1,0,0:0:0:0:
64,192,207775,1,0,0:0:0:0:
192,192,207958,1,0,0:0:0:0:
448,192,207958,1,0,0:0:0:0:
320,192,208141,1,0,0:0:0:0:
64,192,208141,1,0,0:0:0:0:
192,192,208315,1,0,0:0:0:0:
320,192,208315,1,0,0:0:0:0:
192,192,208399,1,0,0:0:0:0:
320,192,208399,1,0,0:0:0:0:
448,192,208485,1,0,0:0:0:0:
64,192,208485,1,0,0:0:0:0:
64,192,208850,1,0,0:0:0:0:
192,192,208850,1,0,0:0:0:0:
448,192,209033,1,0,0:0:0:0:
320,192,209033,1,0,0:0:0:0:
64,192,209216,1,0,0:0:0:0:
192,192,209216,1,0,0:0:0:0:
448,192,209216,1,0,0:0:0:0:
448,192,209760,1,0,0:0:0:0:
320,192,209760,1,0,0:0:0:0:
448,192,209841,1,0,0:0:0:0:
320,192,209841,1,0,0:0:0:0:
64,192,209920,1,0,0:0:0:0:
192,192,209920,1,0,0:0:0:0:
64,192,210092,1,0,0:0:0:0:
192,192,210092,1,0,0:0:0:0:
64,192,210264,1,0,0:0:0:0:
448,192,210264,1,0,0:0:0:0:
192,192,210437,1,0,0:0:0:0:
448,192,210437,1,0,0:0:0:0:
320,192,210437,1,0,0:0:0:0:
192,192,210613,1,0,0:0:0:0:
320,192,210613,1,0,0:0:0:0:
192,192,210783,1,0,0:0:0:0:
320,192,210783,1,0,0:0:0:0:
64,192,210951,1,0,0:0:0:0:
448,192,210951,1,0,0:0:0:0:
320,192,210951,1,0,0:0:0:0:
192,192,211121,1,0,0:0:0:0:
320,192,211121,1,0,0:0:0:0:
320,192,211313,1,0,0:0:0:0:
448,192,211313,1,0,0:0:0:0:
64,192,211313,1,0,0:0:0:0:
64,192,211493,1,0,0:0:0:0:
192,192,211493,1,0,0:0:0:0:
448,192,211667,1,0,0:0:0:0:
192,192,211667,1,0,0:0:0:0:
448,192,211843,1,0,0:0:0:0:
320,192,211843,1,0,0:0:0:0:
64,192,212013,1,0,0:0:0:0:
192,192,212013,1,0,0:0:0:0:
320,192,212013,1,0,0:0:0:0:
448,192,212181,1,0,0:0:0:0:
192,192,212181,1,0,0:0:0:0:
64,192,212347,1,0,0:0:0:0:
320,192,212347,1,0,0:0:0:0:
64,192,212514,1,0,0:0:0:0:
448,192,212514,1,0,0:0:0:0:
448,192,212684,1,0,0:0:0:0:
320,192,212684,1,0,0:0:0:0:
192,192,212854,1,0,0:0:0:0:
64,192,212854,1,0,0:0:0:0:
320,192,212854,1,0,0:0:0:0:
64,192,213028,1,0,0:0:0:0:
448,192,213028,1,0,0:0:0:0:
448,192,213200,1,0,0:0:0:0:
320,192,213200,1,0,0:0:0:0:
64,192,213372,1,0,0:0:0:0:
192,192,213372,1,0,0:0:0:0:
448,192,213372,1,0,0:0:0:0:
320,192,213545,1,0,0:0:0:0:
192,192,213630,1,0,0:0:0:0:
448,192,213715,1,0,0:0:0:0:
64,192,213799,1,0,0:0:0:0:
320,192,213883,1,0,0:0:0:0:
192,192,213967,1,0,0:0:0:0:
320,192,214052,1,0,0:0:0:0:
64,192,214052,1,0,0:0:0:0:
448,192,214052,1,0,0:0:0:0:
448,192,214422,1,0,0:0:0:0:
320,192,214422,1,0,0:0:0:0:
448,192,214602,1,0,0:0:0:0:
320,192,214602,1,0,0:0:0:0:
64,192,214787,1,0,0:0:0:0:
192,192,214787,1,0,0:0:0:0:
448,192,214787,1,0,0:0:0:0:
64,192,215329,1,0,0:0:0:0:
192,192,215329,1,0,0:0:0:0:
64,192,215418,1,0,0:0:0:0:
192,192,215418,1,0,0:0:0:0:
448,192,215507,1,0,0:0:0:0:
320,192,215507,1,0,0:0:0:0:
448,192,215683,1,0,0:0:0:0:
320,192,215683,1,0,0:0:0:0:
64,192,215857,1,0,0:0:0:0:
448,192,215857,1,0,0:0:0:0:
64,192,216031,1,0,0:0:0:0:
320,192,216031,1,0,0:0:0:0:
192,192,216031,1,0,0:0:0:0:
320,192,216206,1,0,0:0:0:0:
192,192,216206,1,0,0:0:0:0:
192,192,216380,1,0,0:0:0:0:
320,192,216380,1,0,0:0:0:0:
64,192,216555,1,0,0:0:0:0:
192,192,216555,1,0,0:0:0:0:
448,192,216555,1,0,0:0:0:0:
448,192,216729,1,0,0:0:0:0:
320,192,216729,1,0,0:0:0:0:
320,192,216903,1,0,0:0:0:0:
192,192,216903,1,0,0:0:0:0:
64,192,216903,1,0,0:0:0:0:
448,192,217078,1,0,0:0:0:0:
192,192,217078,1,0,0:0:0:0:
64,192,217252,1,0,0:0:0:0:
320,192,217252,1,0,0:0:0:0:
192,192,217427,1,0,0:0:0:0:
320,192,217427,1,0,0:0:0:0:
64,192,217601,1,0,0:0:0:0:
320,192,217601,1,0,0:0:0:0:
448,192,217601,1,0,0:0:0:0:
320,192,217776,1,0,0:0:0:0:
192,192,217776,1,0,0:0:0:0:
64,192,217948,1,0,0:0:0:0:
448,192,217948,1,0,0:0:0:0:
64,192,218120,1,0,0:0:0:0:
192,192,218120,1,0,0:0:0:0:
192,192,218293,1,0,0:0:0:0:
448,192,218293,1,0,0:0:0:0:
448,192,218465,1,0,0:0:0:0:
320,192,218465,1,0,0:0:0:0:
64,192,218638,1,0,0:0:0:0:
320,192,218638,1,0,0:0:0:0:
448,192,218810,1,0,0:0:0:0:
64,192,218810,1,0,0:0:0:0:
448,192,218986,1,0,0:0:0:0:
320,192,218986,1,0,0:0:0:0:
192,192,218986,1,0,0:0:0:0:
64,192,219162,1,0,0:0:0:0:
320,192,219162,1,0,0:0:0:0:
448,192,219339,1,0,0:0:0:0:
192,192,219339,1,0,0:0:0:0:
64,192,219513,1,0,0:0:0:0:
448,192,219513,1,0,0:0:0:0:
64,192,219600,1,0,0:0:0:0:
448,192,219600,1,0,0:0:0:0:
320,192,219686,1,0,0:0:0:0:
192,192,219686,1,0,0:0:0:0:
192,192,220047,1,0,0:0:0:0:
320,192,220047,1,0,0:0:0:0:
192,192,220234,1,0,0:0:0:0:
320,192,220234,1,0,0:0:0:0:
64,192,220419,1,0,0:0:0:0:
192,192,220419,1,0,0:0:0:0:
448,192,220419,1,0,0:0:0:0:
64,192,220967,1,0,0:0:0:0:
320,192,220967,1,0,0:0:0:0:
64,192,221054,1,0,0:0:0:0:
320,192,221054,1,0,0:0:0:0:
448,192,221136,1,0,0:0:0:0:
192,192,221136,1,0,0:0:0:0:
192,192,221297,1,0,0:0:0:0:
448,192,221297,1,0,0:0:0:0:
192,192,221460,1,0,0:0:0:0:
320,192,221460,1,0,0:0:0:0:
64,192,221634,1,0,0:0:0:0:
320,192,221634,1,0,0:0:0:0:
448,192,221634,1,0,0:0:0:0:
64,192,221810,1,0,0:0:0:0:
448,192,221810,1,0,0:0:0:0:
64,192,221982,1,0,0:0:0:0:
448,192,221982,1,0,0:0:0:0:
64,192,222154,1,0,0:0:0:0:
192,192,222154,1,0,0:0:0:0:
320,192,222154,1,0,0:0:0:0:
448,192,222328,1,0,0:0:0:0:
320,192,222328,1,0,0:0:0:0:
64,192,222515,1,0,0:0:0:0:
192,192,222515,1,0,0:0:0:0:
448,192,222515,1,0,0:0:0:0:
64,192,222685,1,0,0:0:0:0:
320,192,222685,1,0,0:0:0:0:
448,192,222855,1,0,0:0:0:0:
192,192,222855,1,0,0:0:0:0:
320,192,223027,1,0,0:0:0:0:
192,192,223027,1,0,0:0:0:0:
64,192,223205,1,0,0:0:0:0:
320,192,223205,1,0,0:0:0:0:
448,192,223205,1,0,0:0:0:0:
192,192,223384,1,0,0:0:0:0:
448,192,223384,1,0,0:0:0:0:
320,192,223562,1,0,0:0:0:0:
64,192,223562,1,0,0:0:0:0:
64,192,223738,1,0,0:0:0:0:
192,192,223738,1,0,0:0:0:0:
448,192,223914,1,0,0:0:0:0:
320,192,223914,1,0,0:0:0:0:
192,192,223914,1,0,0:0:0:0:
64,192,224001,1,0,0:0:0:0:
448,192,224088,1,0,0:0:0:0:
320,192,224175,1,0,0:0:0:0:
64,192,224262,1,0,0:0:0:0:
192,192,224262,1,0,0:0:0:0:
448,192,224347,1,0,0:0:0:0:
320,192,224432,1,0,0:0:0:0:
192,192,224515,1,0,0:0:0:0:
448,192,224598,1,0,0:0:0:0:
64,192,224598,1,0,0:0:0:0:
320,192,224679,1,0,0:0:0:0:
192,192,224759,1,0,0:0:0:0:
64,192,224838,1,0,0:0:0:0:
448,192,224918,1,0,0:0:0:0:
320,192,224918,1,0,0:0:0:0:
192,192,224996,1,0,0:0:0:0:
64,192,225075,1,0,0:0:0:0:
448,192,225154,1,0,0:0:0:0:
192,192,225233,1,0,0:0:0:0:
64,192,225233,1,0,0:0:0:0:
320,192,225233,1,0,0:0:0:0:
192,192,225312,1,0,0:0:0:0:
64,192,225391,1,0,0:0:0:0:
448,192,225391,1,0,0:0:0:0:
320,192,225391,1,0,0:0:0:0:
448,192,225470,1,0,0:0:0:0:
64,192,225549,1,0,0:0:0:0:
192,192,225549,1,0,0:0:0:0:
320,192,225549,1,0,0:0:0:0:
320,192,225628,1,0,0:0:0:0:
64,192,225721,1,0,0:0:0:0:
192,192,225721,1,0,0:0:0:0:
448,192,225721,1,0,0:0:0:0:
448,192,226171,1,0,0:0:0:0:
320,192,226171,1,0,0:0:0:0:
320,192,226243,1,0,0:0:0:0:
448,192,226243,1,0,0:0:0:0:
192,192,226316,1,0,0:0:0:0:
64,192,226316,1,0,0:0:0:0:
64,192,226472,1,0,0:0:0:0:
192,192,226472,1,0,0:0:0:0:
320,192,226644,1,0,0:0:0:0:
448,192,226644,1,0,0:0:0:0:
448,192,226733,1,0,0:0:0:0:
320,192,226733,1,0,0:0:0:0:
64,192,226822,1,0,0:0:0:0:
192,192,226822,1,0,0:0:0:0:
192,192,227001,1,0,0:0:0:0:
64,192,227001,1,0,0:0:0:0:
320,192,227179,1,0,0:0:0:0:
448,192,227179,1,0,0:0:0:0:
448,192,227265,1,0,0:0:0:0:
320,192,227265,1,0,0:0:0:0:
64,192,227351,1,0,0:0:0:0:
192,192,227351,1,0,0:0:0:0:
448,192,227435,1,0,0:0:0:0:
320,192,227435,1,0,0:0:0:0:
64,192,227519,1,0,0:0:0:0:
192,192,227519,1,0,0:0:0:0:
448,192,227603,1,0,0:0:0:0:
320,192,227603,1,0,0:0:0:0:
64,192,227688,1,0,0:0:0:0:
192,192,227688,1,0,0:0:0:0:
448,192,227772,1,0,0:0:0:0:
320,192,227772,1,0,0:0:0:0:
64,192,227854,1,0,0:0:0:0:
192,192,227854,1,0,0:0:0:0:
448,192,227937,1,0,0:0:0:0:
320,192,227937,1,0,0:0:0:0:
448,192,228034,1,0,0:0:0:0:
192,192,228034,1,0,0:0:0:0:
64,192,228034,1,0,0:0:0:0:
320,192,228229,1,0,0:0:0:0:
192,192,228229,1,0,0:0:0:0:
448,192,228407,1,0,0:0:0:0:
64,192,228407,1,0,0:0:0:0:
448,192,228586,1,0,0:0:0:0:
192,192,228586,1,0,0:0:0:0:
64,192,228764,1,0,0:0:0:0:
192,192,228764,1,0,0:0:0:0:
320,192,228764,1,0,0:0:0:0:
64,192,228944,1,0,0:0:0:0:
448,192,228944,1,0,0:0:0:0:
320,192,229129,1,0,0:0:0:0:
192,192,229129,1,0,0:0:0:0:
448,192,229129,1,0,0:0:0:0:
64,192,229318,1,0,0:0:0:0:
192,192,229318,1,0,0:0:0:0:
64,192,229505,1,0,0:0:0:0:
192,192,229505,1,0,0:0:0:0:
448,192,229693,1,0,0:0:0:0:
320,192,229693,1,0,0:0:0:0:
64,192,229693,1,0,0:0:0:0:
320,192,229880,1,0,0:0:0:0:
192,192,229880,1,0,0:0:0:0:
192,192,230065,1,0,0:0:0:0:
320,192,230065,1,0,0:0:0:0:
64,192,230250,1,0,0:0:0:0:
192,192,230250,1,0,0:0:0:0:
448,192,230250,1,0,0:0:0:0:
192,192,230473,1,0,0:0:0:0:
320,192,230577,1,0,0:0:0:0:
192,192,230664,1,0,0:0:0:0:
320,192,230748,1,0,0:0:0:0:
192,192,230828,1,0,0:0:0:0:
320,192,230907,1,0,0:0:0:0:
64,192,230985,1,0,0:0:0:0:
192,192,230985,1,0,0:0:0:0:
448,192,230985,1,0,0:0:0:0:
64,192,231063,1,0,0:0:0:0:
448,192,231142,1,0,0:0:0:0:
320,192,231142,1,0,0:0:0:0:
192,192,231142,1,0,0:0:0:0:
320,192,231222,1,0,0:0:0:0:
64,192,231307,1,0,0:0:0:0:
192,192,231307,1,0,0:0:0:0:
448,192,231307,1,0,0:0:0:0:
448,192,231449,128,0,231623:0:0:0:0:
320,192,231449,128,0,231623:0:0:0:0:
192,192,231449,128,0,231623:0:0:0:0:
64,192,231797,1,0,0:0:0:0:
192,192,231797,1,0,0:0:0:0:
64,192,231885,1,0,0:0:0:0:
192,192,231885,1,0,0:0:0:0:
448,192,231972,1,0,0:0:0:0:
320,192,231972,1,0,0:0:0:0:
320,192,232146,1,0,0:0:0:0:
192,192,232146,1,0,0:0:0:0:
64,192,232331,1,0,0:0:0:0:
448,192,232331,1,0,0:0:0:0:
64,192,232421,1,0,0:0:0:0:
448,192,232421,1,0,0:0:0:0:
320,192,232511,1,0,0:0:0:0:
192,192,232511,1,0,0:0:0:0:
192,192,232689,1,0,0:0:0:0:
64,192,232689,1,0,0:0:0:0:
448,192,232868,1,0,0:0:0:0:
320,192,232868,1,0,0:0:0:0:
448,192,232956,1,0,0:0:0:0:
320,192,232956,1,0,0:0:0:0:
192,192,233044,1,0,0:0:0:0:
320,192,233131,1,0,0:0:0:0:
64,192,233218,1,0,0:0:0:0:
192,192,233218,1,0,0:0:0:0:
64,192,233304,1,0,0:0:0:0:
192,192,233304,1,0,0:0:0:0:
320,192,233390,1,0,0:0:0:0:
192,192,233475,1,0,0:0:0:0:
448,192,233560,1,0,0:0:0:0:
64,192,233645,1,0,0:0:0:0:
448,192,233745,1,0,0:0:0:0:
320,192,233745,1,0,0:0:0:0:
192,192,233745,1,0,0:0:0:0:
64,192,233934,1,0,0:0:0:0:
320,192,233934,1,0,0:0:0:0:
448,192,234114,1,0,0:0:0:0:
192,192,234114,1,0,0:0:0:0:
448,192,234295,1,0,0:0:0:0:
320,192,234295,1,0,0:0:0:0:
64,192,234473,1,0,0:0:0:0:
192,192,234473,1,0,0:0:0:0:
320,192,234473,1,0,0:0:0:0:
448,192,234649,1,0,0:0:0:0:
192,192,234649,1,0,0:0:0:0:
64,192,234825,1,0,0:0:0:0:
448,192,234825,1,0,0:0:0:0:
320,192,234825,1,0,0:0:0:0:
192,192,235002,1,0,0:0:0:0:
320,192,235002,1,0,0:0:0:0:
320,192,235178,1,0,0:0:0:0:
192,192,235178,1,0,0:0:0:0:
448,192,235355,1,0,0:0:0:0:
64,192,235355,1,0,0:0:0:0:
192,192,235355,1,0,0:0:0:0:
448,192,235535,1,0,0:0:0:0:
320,192,235535,1,0,0:0:0:0:
448,192,235716,1,0,0:0:0:0:
320,192,235716,1,0,0:0:0:0:
64,192,235894,1,0,0:0:0:0:
192,192,235894,1,0,0:0:0:0:
320,192,235894,1,0,0:0:0:0:
448,192,235981,1,0,0:0:0:0:
64,192,236068,1,0,0:0:0:0:
192,192,236155,1,0,0:0:0:0:
64,192,236242,1,0,0:0:0:0:
448,192,236242,1,0,0:0:0:0:
320,192,236242,1,0,0:0:0:0:
192,192,236327,1,0,0:0:0:0:
320,192,236409,1,0,0:0:0:0:
448,192,236490,1,0,0:0:0:0:
64,192,236570,1,0,0:0:0:0:
192,192,236570,1,0,0:0:0:0:
320,192,236570,1,0,0:0:0:0:
64,192,236648,1,0,0:0:0:0:
448,192,236726,1,0,0:0:0:0:
320,192,236726,1,0,0:0:0:0:
192,192,236726,1,0,0:0:0:0:
64,192,236896,1,0,0:0:0:0:
192,192,236896,1,0,0:0:0:0:
320,192,236896,1,0,0:0:0:0:
448,192,237066,128,0,237258:0:0:0:0:
320,192,237066,128,0,237258:0:0:0:0:
192,192,237066,128,0,237258:0:0:0:0:
448,192,237450,1,0,0:0:0:0:
192,192,237450,1,0,0:0:0:0:
192,192,237544,1,0,0:0:0:0:
448,192,237544,1,0,0:0:0:0:
320,192,237639,1,0,0:0:0:0:
64,192,237639,1,0,0:0:0:0:
192,192,237821,1,0,0:0:0:0:
320,192,237821,1,0,0:0:0:0:
448,192,237997,1,0,0:0:0:0:
64,192,237997,1,0,0:0:0:0:
448,192,238084,1,0,0:0:0:0:
64,192,238084,1,0,0:0:0:0:
320,192,238171,1,0,0:0:0:0:
192,192,238171,1,0,0:0:0:0:
448,192,238343,1,0,0:0:0:0:
192,192,238343,1,0,0:0:0:0:
64,192,238515,1,0,0:0:0:0:
448,192,238515,1,0,0:0:0:0:
320,192,238600,1,0,0:0:0:0:
192,192,238600,1,0,0:0:0:0:
64,192,238683,1,0,0:0:0:0:
448,192,238683,1,0,0:0:0:0:
320,192,238764,1,0,0:0:0:0:
192,192,238764,1,0,0:0:0:0:
64,192,238843,1,0,0:0:0:0:
448,192,238843,1,0,0:0:0:0:
320,192,238921,1,0,0:0:0:0:
192,192,238921,1,0,0:0:0:0:
64,192,239000,1,0,0:0:0:0:
448,192,239079,1,0,0:0:0:0:
192,192,239159,1,0,0:0:0:0:
320,192,239240,1,0,0:0:0:0:
448,192,239333,1,0,0:0:0:0:
192,192,239333,1,0,0:0:0:0:
64,192,239333,1,0,0:0:0:0:
320,192,239518,1,0,0:0:0:0:
192,192,239518,1,0,0:0:0:0:
64,192,239700,1,0,0:0:0:0:
448,192,239700,1,0,0:0:0:0:
192,192,239880,1,0,0:0:0:0:
448,192,239880,1,0,0:0:0:0:
64,192,240061,1,0,0:0:0:0:
448,192,240061,1,0,0:0:0:0:
320,192,240061,1,0,0:0:0:0:
192,192,240248,1,0,0:0:0:0:
64,192,240248,1,0,0:0:0:0:
448,192,240433,1,0,0:0:0:0:
320,192,240433,1,0,0:0:0:0:
192,192,240433,1,0,0:0:0:0:
64,192,240609,1,0,0:0:0:0:
448,192,240609,1,0,0:0:0:0:
448,192,240785,1,0,0:0:0:0:
64,192,240785,1,0,0:0:0:0:
320,192,240970,1,0,0:0:0:0:
192,192,240970,1,0,0:0:0:0:
64,192,240970,1,0,0:0:0:0:
448,192,241150,1,0,0:0:0:0:
320,192,241150,1,0,0:0:0:0:
448,192,241326,1,0,0:0:0:0:
320,192,241326,1,0,0:0:0:0:
64,192,241502,1,0,0:0:0:0:
192,192,241502,1,0,0:0:0:0:
448,192,241502,1,0,0:0:0:0:
320,192,241680,1,0,0:0:0:0:
192,192,241768,1,0,0:0:0:0:
320,192,241855,1,0,0:0:0:0:
192,192,241941,1,0,0:0:0:0:
320,192,242026,1,0,0:0:0:0:
192,192,242110,1,0,0:0:0:0:
64,192,242203,1,0,0:0:0:0:
448,192,242203,1,0,0:0:0:0:
320,192,242203,1,0,0:0:0:0:
320,192,242383,1,0,0:0:0:0:
192,192,242383,1,0,0:0:0:0:
64,192,242565,1,0,0:0:0:0:
448,192,242565,1,0,0:0:0:0:
64,192,242748,1,0,0:0:0:0:
192,192,242748,1,0,0:0:0:0:
448,192,242931,1,0,0:0:0:0:
320,192,242931,1,0,0:0:0:0:
192,192,242931,1,0,0:0:0:0:
64,192,243114,1,0,0:0:0:0:
320,192,243114,1,0,0:0:0:0:
448,192,243297,1,0,0:0:0:0:
192,192,243297,1,0,0:0:0:0:
448,192,243477,1,0,0:0:0:0:
320,192,243477,1,0,0:0:0:0:
192,192,243658,1,0,0:0:0:0:
320,192,243658,1,0,0:0:0:0:
64,192,243839,1,0,0:0:0:0:
192,192,243839,1,0,0:0:0:0:
448,192,244019,1,0,0:0:0:0:
64,192,244019,1,0,0:0:0:0:
448,192,244197,1,0,0:0:0:0:
320,192,244197,1,0,0:0:0:0:
64,192,244379,1,0,0:0:0:0:
192,192,244379,1,0,0:0:0:0:
320,192,244379,1,0,0:0:0:0:
448,192,244562,1,0,0:0:0:0:
320,192,244654,1,0,0:0:0:0:
192,192,244745,1,0,0:0:0:0:
64,192,244834,1,0,0:0:0:0:
448,192,244922,1,0,0:0:0:0:
320,192,245010,1,0,0:0:0:0:
448,192,245097,1,0,0:0:0:0:
64,192,245097,1,0,0:0:0:0:
192,192,245097,1,0,0:0:0:0:
64,192,245273,1,0,0:0:0:0:
320,192,245273,1,0,0:0:0:0:
448,192,245449,1,0,0:0:0:0:
192,192,245449,1,0,0:0:0:0:
192,192,245627,1,0,0:0:0:0:
320,192,245627,1,0,0:0:0:0:
64,192,245827,1,0,0:0:0:0:
448,192,245827,1,0,0:0:0:0:
320,192,245827,1,0,0:0:0:0:
192,192,246007,1,0,0:0:0:0:
320,192,246007,1,0,0:0:0:0:
64,192,246188,1,0,0:0:0:0:
448,192,246188,1,0,0:0:0:0:
448,192,246366,1,0,0:0:0:0:
320,192,246366,1,0,0:0:0:0:
64,192,246545,1,0,0:0:0:0:
192,192,246545,1,0,0:0:0:0:
320,192,246545,1,0,0:0:0:0:
448,192,246723,1,0,0:0:0:0:
320,192,246723,1,0,0:0:0:0:
64,192,246811,1,0,0:0:0:0:
192,192,246811,1,0,0:0:0:0:
448,192,246899,1,0,0:0:0:0:
320,192,246899,1,0,0:0:0:0:
64,192,246986,1,0,0:0:0:0:
192,192,246986,1,0,0:0:0:0:
448,192,247073,1,0,0:0:0:0:
320,192,247073,1,0,0:0:0:0:
64,192,247159,1,0,0:0:0:0:
192,192,247159,1,0,0:0:0:0:
448,192,247245,1,0,0:0:0:0:
320,192,247330,1,0,0:0:0:0:
448,192,247415,1,0,0:0:0:0:
320,192,247499,1,0,0:0:0:0:
64,192,247583,1,0,0:0:0:0:
192,192,247666,1,0,0:0:0:0:
64,192,247749,1,0,0:0:0:0:
192,192,247833,1,0,0:0:0:0:
64,192,247933,1,0,0:0:0:0:
448,192,247933,1,0,0:0:0:0:
320,192,247933,1,0,0:0:0:0:
448,192,248122,1,0,0:0:0:0:
320,192,248122,1,0,0:0:0:0:
448,192,248309,1,0,0:0:0:0:
320,192,248309,1,0,0:0:0:0:
448,192,248497,1,0,0:0:0:0:
320,192,248497,1,0,0:0:0:0:
64,192,248682,1,0,0:0:0:0:
192,192,248682,1,0,0:0:0:0:
320,192,248682,1,0,0:0:0:0:
448,192,249217,1,0,0:0:0:0:
192,192,249217,1,0,0:0:0:0:
64,192,249301,1,0,0:0:0:0:
320,192,249301,1,0,0:0:0:0:
448,192,249385,1,0,0:0:0:0:
192,192,249385,1,0,0:0:0:0:
448,192,249551,1,0,0:0:0:0:
192,192,249551,1,0,0:0:0:0:
448,192,249715,1,0,0:0:0:0:
192,192,249715,1,0,0:0:0:0:
64,192,249885,1,0,0:0:0:0:
320,192,249885,1,0,0:0:0:0:
448,192,249885,1,0,0:0:0:0:
64,192,250072,1,0,0:0:0:0:
192,192,250072,1,0,0:0:0:0:
64,192,250250,1,0,0:0:0:0:
192,192,250250,1,0,0:0:0:0:
64,192,250429,1,0,0:0:0:0:
448,192,250429,1,0,0:0:0:0:
320,192,250429,1,0,0:0:0:0:
192,192,250605,1,0,0:0:0:0:
64,192,250605,1,0,0:0:0:0:
448,192,250693,1,0,0:0:0:0:
320,192,250693,1,0,0:0:0:0:
64,192,250781,1,0,0:0:0:0:
192,192,250781,1,0,0:0:0:0:
192,192,250955,1,0,0:0:0:0:
64,192,250955,1,0,0:0:0:0:
64,192,251129,1,0,0:0:0:0:
192,192,251129,1,0,0:0:0:0:
192,192,251304,1,0,0:0:0:0:
64,192,251304,1,0,0:0:0:0:
448,192,251478,1,0,0:0:0:0:
64,192,251478,1,0,0:0:0:0:
320,192,251478,1,0,0:0:0:0:
320,192,251989,1,0,0:0:0:0:
64,192,251989,1,0,0:0:0:0:
192,192,252075,1,0,0:0:0:0:
448,192,252075,1,0,0:0:0:0:
64,192,252161,1,0,0:0:0:0:
320,192,252161,1,0,0:0:0:0:
64,192,252333,1,0,0:0:0:0:
320,192,252333,1,0,0:0:0:0:
64,192,252506,1,0,0:0:0:0:
320,192,252506,1,0,0:0:0:0:
448,192,252678,1,0,0:0:0:0:
64,192,252678,1,0,0:0:0:0:
192,192,252678,1,0,0:0:0:0:
448,192,252851,1,0,0:0:0:0:
320,192,252851,1,0,0:0:0:0:
192,192,253023,1,0,0:0:0:0:
64,192,253023,1,0,0:0:0:0:
448,192,253108,1,0,0:0:0:0:
320,192,253108,1,0,0:0:0:0:
64,192,253193,1,0,0:0:0:0:
192,192,253277,1,0,0:0:0:0:
448,192,253361,1,0,0:0:0:0:
320,192,253445,1,0,0:0:0:0:
192,192,253545,1,0,0:0:0:0:
64,192,253545,1,0,0:0:0:0:
448,192,253545,1,0,0:0:0:0:
64,192,253742,1,0,0:0:0:0:
448,192,253742,1,0,0:0:0:0:
64,192,253922,1,0,0:0:0:0:
448,192,253922,1,0,0:0:0:0:
448,192,254100,1,0,0:0:0:0:
64,192,254100,1,0,0:0:0:0:
448,192,254276,1,0,0:0:0:0:
192,192,254276,1,0,0:0:0:0:
320,192,254276,1,0,0:0:0:0:
448,192,254805,1,0,0:0:0:0:
64,192,254805,1,0,0:0:0:0:
192,192,254891,1,0,0:0:0:0:
320,192,254891,1,0,0:0:0:0:
448,192,254977,1,0,0:0:0:0:
64,192,254977,1,0,0:0:0:0:
448,192,255149,1,0,0:0:0:0:
64,192,255149,1,0,0:0:0:0:
448,192,255322,1,0,0:0:0:0:
64,192,255322,1,0,0:0:0:0:
448,192,255494,1,0,0:0:0:0:
320,192,255494,1,0,0:0:0:0:
192,192,255494,1,0,0:0:0:0:
64,192,255667,1,0,0:0:0:0:
320,192,255667,1,0,0:0:0:0:
320,192,255839,1,0,0:0:0:0:
64,192,255839,1,0,0:0:0:0:
448,192,256011,1,0,0:0:0:0:
320,192,256011,1,0,0:0:0:0:
192,192,256011,1,0,0:0:0:0:
320,192,256184,1,0,0:0:0:0:
64,192,256184,1,0,0:0:0:0:
192,192,256269,1,0,0:0:0:0:
448,192,256269,1,0,0:0:0:0:
320,192,256354,1,0,0:0:0:0:
64,192,256354,1,0,0:0:0:0:
64,192,256536,1,0,0:0:0:0:
320,192,256536,1,0,0:0:0:0:
320,192,256716,1,0,0:0:0:0:
64,192,256716,1,0,0:0:0:0:
320,192,256897,1,0,0:0:0:0:
64,192,256897,1,0,0:0:0:0:
192,192,257078,1,0,0:0:0:0:
448,192,257078,1,0,0:0:0:0:
320,192,257078,1,0,0:0:0:0:
448,192,257640,1,0,0:0:0:0:
320,192,257724,1,0,0:0:0:0:
448,192,257805,1,0,0:0:0:0:
64,192,257805,1,0,0:0:0:0:
192,192,257805,1,0,0:0:0:0:
320,192,257885,1,0,0:0:0:0:
64,192,257966,1,0,0:0:0:0:
448,192,258046,1,0,0:0:0:0:
64,192,258127,1,0,0:0:0:0:
192,192,258127,1,0,0:0:0:0:
448,192,258208,1,0,0:0:0:0:
320,192,258208,1,0,0:0:0:0:
64,192,258288,1,0,0:0:0:0:
448,192,258369,1,0,0:0:0:0:
192,192,258450,1,0,0:0:0:0:
64,192,258450,1,0,0:0:0:0:
320,192,258537,1,0,0:0:0:0:
448,192,258537,1,0,0:0:0:0:
192,192,258621,1,0,0:0:0:0:
64,192,258704,1,0,0:0:0:0:
320,192,258786,1,0,0:0:0:0:
192,192,258867,1,0,0:0:0:0:
448,192,258950,1,0,0:0:0:0:
320,192,259033,1,0,0:0:0:0:
448,192,259141,1,0,0:0:0:0:
64,192,259141,1,0,0:0:0:0:
192,192,259141,1,0,0:0:0:0:
64,192,259343,1,0,0:0:0:0:
192,192,259343,1,0,0:0:0:0:
192,192,259532,1,0,0:0:0:0:
64,192,259532,1,0,0:0:0:0:
64,192,259710,1,0,0:0:0:0:
192,192,259710,1,0,0:0:0:0:
320,192,259886,1,0,0:0:0:0:
448,192,259886,1,0,0:0:0:0:
64,192,259886,1,0,0:0:0:0:
192,192,260415,1,0,0:0:0:0:
64,192,260415,1,0,0:0:0:0:
320,192,260504,1,0,0:0:0:0:
448,192,260504,1,0,0:0:0:0:
192,192,260592,1,0,0:0:0:0:
64,192,260592,1,0,0:0:0:0:
192,192,260766,1,0,0:0:0:0:
64,192,260766,1,0,0:0:0:0:
192,192,260940,1,0,0:0:0:0:
64,192,260940,1,0,0:0:0:0:
448,192,261115,1,0,0:0:0:0:
320,192,261115,1,0,0:0:0:0:
64,192,261115,1,0,0:0:0:0:
448,192,261287,1,0,0:0:0:0:
192,192,261287,1,0,0:0:0:0:
448,192,261459,1,0,0:0:0:0:
192,192,261459,1,0,0:0:0:0:
64,192,261629,1,0,0:0:0:0:
320,192,261629,1,0,0:0:0:0:
448,192,261629,1,0,0:0:0:0:
448,192,261799,1,0,0:0:0:0:
192,192,261799,1,0,0:0:0:0:
320,192,261885,1,0,0:0:0:0:
64,192,261885,1,0,0:0:0:0:
192,192,261970,1,0,0:0:0:0:
448,192,261970,1,0,0:0:0:0:
448,192,262140,1,0,0:0:0:0:
192,192,262140,1,0,0:0:0:0:
192,192,262316,1,0,0:0:0:0:
448,192,262316,1,0,0:0:0:0:
192,192,262492,1,0,0:0:0:0:
448,192,262492,1,0,0:0:0:0:
192,192,262669,1,0,0:0:0:0:
64,192,262669,1,0,0:0:0:0:
320,192,262669,1,0,0:0:0:0:
448,192,263198,1,0,0:0:0:0:
320,192,263198,1,0,0:0:0:0:
192,192,263287,1,0,0:0:0:0:
64,192,263287,1,0,0:0:0:0:
320,192,263375,1,0,0:0:0:0:
448,192,263375,1,0,0:0:0:0:
320,192,263551,1,0,0:0:0:0:
448,192,263551,1,0,0:0:0:0:
448,192,263728,1,0,0:0:0:0:
320,192,263728,1,0,0:0:0:0:
192,192,263902,1,0,0:0:0:0:
448,192,263902,1,0,0:0:0:0:
64,192,263902,1,0,0:0:0:0:
320,192,264074,1,0,0:0:0:0:
192,192,264074,1,0,0:0:0:0:
448,192,264244,1,0,0:0:0:0:
320,192,264244,1,0,0:0:0:0:
192,192,264329,1,0,0:0:0:0:
64,192,264329,1,0,0:0:0:0:
448,192,264414,1,0,0:0:0:0:
320,192,264500,1,0,0:0:0:0:
64,192,264585,1,0,0:0:0:0:
192,192,264669,1,0,0:0:0:0:
64,192,264753,1,0,0:0:0:0:
448,192,264753,1,0,0:0:0:0:
320,192,264753,1,0,0:0:0:0:
64,192,264935,1,0,0:0:0:0:
320,192,264935,1,0,0:0:0:0:
320,192,265113,1,0,0:0:0:0:
64,192,265113,1,0,0:0:0:0:
320,192,265289,1,0,0:0:0:0:
64,192,265289,1,0,0:0:0:0:
192,192,265465,1,0,0:0:0:0:
448,192,265465,1,0,0:0:0:0:
320,192,265465,1,0,0:0:0:0:
448,192,265995,1,0,0:0:0:0:
64,192,265995,1,0,0:0:0:0:
320,192,266082,1,0,0:0:0:0:
192,192,266082,1,0,0:0:0:0:
64,192,266168,1,0,0:0:0:0:
448,192,266168,1,0,0:0:0:0:
448,192,266338,1,0,0:0:0:0:
64,192,266338,1,0,0:0:0:0:
64,192,266510,1,0,0:0:0:0:
448,192,266510,1,0,0:0:0:0:
192,192,266682,1,0,0:0:0:0:
320,192,266682,1,0,0:0:0:0:
448,192,266682,1,0,0:0:0:0:
192,192,266855,1,0,0:0:0:0:
64,192,266855,1,0,0:0:0:0:
192,192,267027,1,0,0:0:0:0:
64,192,267027,1,0,0:0:0:0:
192,192,267200,1,0,0:0:0:0:
448,192,267200,1,0,0:0:0:0:
320,192,267200,1,0,0:0:0:0:
64,192,267372,1,0,0:0:0:0:
448,192,267372,1,0,0:0:0:0:
320,192,267457,1,0,0:0:0:0:
192,192,267457,1,0,0:0:0:0:
64,192,267543,1,0,0:0:0:0:
448,192,267543,1,0,0:0:0:0:
64,192,267725,1,0,0:0:0:0:
448,192,267725,1,0,0:0:0:0:
64,192,267908,1,0,0:0:0:0:
448,192,267908,1,0,0:0:0:0:
64,192,268095,1,0,0:0:0:0:
448,192,268095,1,0,0:0:0:0:
320,192,268283,1,0,0:0:0:0:
192,192,268283,1,0,0:0:0:0:
64,192,268283,1,0,0:0:0:0:
64,192,268852,1,0,0:0:0:0:
192,192,268934,1,0,0:0:0:0:
448,192,269011,1,0,0:0:0:0:
320,192,269011,1,0,0:0:0:0:
64,192,269011,1,0,0:0:0:0:
192,192,269126,1,0,0:0:0:0:
320,192,269226,1,0,0:0:0:0:
192,192,269318,1,0,0:0:0:0:
64,192,269318,1,0,0:0:0:0:
448,192,269407,1,0,0:0:0:0:
320,192,269407,1,0,0:0:0:0:
192,192,269496,1,0,0:0:0:0:
320,192,269582,1,0,0:0:0:0:
192,192,269666,1,0,0:0:0:0:
64,192,269666,1,0,0:0:0:0:
448,192,269748,1,0,0:0:0:0:
320,192,269748,1,0,0:0:0:0:
192,192,269829,1,0,0:0:0:0:
320,192,269909,1,0,0:0:0:0:
448,192,269990,1,0,0:0:0:0:
64,192,269990,1,0,0:0:0:0:
192,192,270070,1,0,0:0:0:0:
320,192,270070,1,0,0:0:0:0:
448,192,270151,1,0,0:0:0:0:
64,192,270151,1,0,0:0:0:0:
192,192,270232,1,0,0:0:0:0:
320,192,270232,1,0,0:0:0:0:
64,192,270332,1,0,0:0:0:0:
448,192,270332,1,0,0:0:0:0:
448,192,270529,1,0,0:0:0:0:
64,192,270529,1,0,0:0:0:0:
64,192,270714,1,0,0:0:0:0:
448,192,270714,1,0,0:0:0:0:
64,192,270884,1,0,0:0:0:0:
448,192,270884,1,0,0:0:0:0:
64,192,271064,1,0,0:0:0:0:
192,192,271064,1,0,0:0:0:0:
320,192,271064,1,0,0:0:0:0:
192,192,271587,1,0,0:0:0:0:
320,192,271587,1,0,0:0:0:0:
64,192,271673,1,0,0:0:0:0:
448,192,271673,1,0,0:0:0:0:
320,192,271758,1,0,0:0:0:0:
192,192,271758,1,0,0:0:0:0:
320,192,271926,1,0,0:0:0:0:
192,192,271926,1,0,0:0:0:0:
320,192,272095,1,0,0:0:0:0:
192,192,272095,1,0,0:0:0:0:
448,192,272263,1,0,0:0:0:0:
192,192,272263,1,0,0:0:0:0:
64,192,272263,1,0,0:0:0:0:
64,192,272439,1,0,0:0:0:0:
320,192,272439,1,0,0:0:0:0:
64,192,272609,1,0,0:0:0:0:
320,192,272609,1,0,0:0:0:0:
448,192,272779,1,0,0:0:0:0:
192,192,272779,1,0,0:0:0:0:
64,192,272779,1,0,0:0:0:0:
448,192,272959,1,0,0:0:0:0:
320,192,272959,1,0,0:0:0:0:
192,192,273050,1,0,0:0:0:0:
64,192,273050,1,0,0:0:0:0:
448,192,273140,1,0,0:0:0:0:
320,192,273140,1,0,0:0:0:0:
320,192,273316,1,0,0:0:0:0:
448,192,273316,1,0,0:0:0:0:
320,192,273492,1,0,0:0:0:0:
448,192,273492,1,0,0:0:0:0:
320,192,273669,1,0,0:0:0:0:
448,192,273669,1,0,0:0:0:0:
448,192,273845,1,0,0:0:0:0:
192,192,273845,1,0,0:0:0:0:
64,192,273845,1,0,0:0:0:0:
64,192,274359,1,0,0:0:0:0:
320,192,274359,1,0,0:0:0:0:
192,192,274443,1,0,0:0:0:0:
448,192,274443,1,0,0:0:0:0:
64,192,274527,1,0,0:0:0:0:
320,192,274527,1,0,0:0:0:0:
320,192,274693,1,0,0:0:0:0:
64,192,274693,1,0,0:0:0:0:
320,192,274860,1,0,0:0:0:0:
64,192,274860,1,0,0:0:0:0:
64,192,275027,1,0,0:0:0:0:
320,192,275027,1,0,0:0:0:0:
192,192,275027,1,0,0:0:0:0:
192,192,275197,1,0,0:0:0:0:
448,192,275197,1,0,0:0:0:0:
192,192,275367,1,0,0:0:0:0:
64,192,275367,1,0,0:0:0:0:
320,192,275449,1,0,0:0:0:0:
448,192,275449,1,0,0:0:0:0:
192,192,275537,1,0,0:0:0:0:
320,192,275625,1,0,0:0:0:0:
64,192,275713,1,0,0:0:0:0:
448,192,275801,1,0,0:0:0:0:
320,192,275888,1,0,0:0:0:0:
192,192,275888,1,0,0:0:0:0:
64,192,275888,1,0,0:0:0:0:
64,192,276088,1,0,0:0:0:0:
192,192,276088,1,0,0:0:0:0:
192,192,276280,1,0,0:0:0:0:
64,192,276280,1,0,0:0:0:0:
192,192,276454,1,0,0:0:0:0:
64,192,276454,1,0,0:0:0:0:
320,192,276628,1,0,0:0:0:0:
448,192,276628,1,0,0:0:0:0:
64,192,276628,1,0,0:0:0:0:
448,192,277157,1,0,0:0:0:0:
64,192,277157,1,0,0:0:0:0:
320,192,277243,1,0,0:0:0:0:
192,192,277243,1,0,0:0:0:0:
448,192,277327,1,0,0:0:0:0:
64,192,277327,1,0,0:0:0:0:
448,192,277499,1,0,0:0:0:0:
64,192,277499,1,0,0:0:0:0:
448,192,277671,1,0,0:0:0:0:
64,192,277671,1,0,0:0:0:0:
320,192,277844,1,0,0:0:0:0:
192,192,277844,1,0,0:0:0:0:
448,192,277844,1,0,0:0:0:0:
320,192,278018,1,0,0:0:0:0:
64,192,278018,1,0,0:0:0:0:
320,192,278192,1,0,0:0:0:0:
64,192,278192,1,0,0:0:0:0:
192,192,278367,1,0,0:0:0:0:
64,192,278367,1,0,0:0:0:0:
448,192,278367,1,0,0:0:0:0:
192,192,278545,1,0,0:0:0:0:
448,192,278545,1,0,0:0:0:0:
64,192,278635,1,0,0:0:0:0:
320,192,278635,1,0,0:0:0:0:
192,192,278725,1,0,0:0:0:0:
448,192,278725,1,0,0:0:0:0:
192,192,278910,1,0,0:0:0:0:
448,192,278910,1,0,0:0:0:0:
192,192,279097,1,0,0:0:0:0:
448,192,279097,1,0,0:0:0:0:
192,192,279282,1,0,0:0:0:0:
448,192,279282,1,0,0:0:0:0:
320,192,279464,1,0,0:0:0:0:
448,192,279464,1,0,0:0:0:0:
64,192,279464,1,0,0:0:0:0:
192,192,279987,1,0,0:0:0:0:
320,192,280072,1,0,0:0:0:0:
448,192,280150,1,0,0:0:0:0:
192,192,280150,1,0,0:0:0:0:
64,192,280150,1,0,0:0:0:0:
320,192,280250,1,0,0:0:0:0:
64,192,280347,1,0,0:0:0:0:
192,192,280440,1,0,0:0:0:0:
320,192,280440,1,0,0:0:0:0:
448,192,280528,1,0,0:0:0:0:
64,192,280528,1,0,0:0:0:0:
320,192,280614,1,0,0:0:0:0:
64,192,280698,1,0,0:0:0:0:
320,192,280781,1,0,0:0:0:0:
192,192,280781,1,0,0:0:0:0:
448,192,280864,1,0,0:0:0:0:
64,192,280864,1,0,0:0:0:0:
320,192,280948,1,0,0:0:0:0:
192,192,281031,1,0,0:0:0:0:
64,192,281114,1,0,0:0:0:0:
448,192,281198,1,0,0:0:0:0:
320,192,281281,1,0,0:0:0:0:
192,192,281371,1,0,0:0:0:0:
320,192,281461,1,0,0:0:0:0:
448,192,281461,1,0,0:0:0:0:
64,192,281461,1,0,0:0:0:0:
320,192,281639,1,0,0:0:0:0:
448,192,281639,1,0,0:0:0:0:
320,192,281818,1,0,0:0:0:0:
448,192,281818,1,0,0:0:0:0:
320,192,281994,1,0,0:0:0:0:
448,192,281994,1,0,0:0:0:0:
448,192,282170,1,0,0:0:0:0:
192,192,282170,1,0,0:0:0:0:
64,192,282170,1,0,0:0:0:0:
64,192,282695,1,0,0:0:0:0:
192,192,282695,1,0,0:0:0:0:
320,192,282779,1,0,0:0:0:0:
448,192,282779,1,0,0:0:0:0:
192,192,282862,1,0,0:0:0:0:
64,192,282862,1,0,0:0:0:0:
192,192,283026,1,0,0:0:0:0:
64,192,283026,1,0,0:0:0:0:
64,192,283211,1,0,0:0:0:0:
192,192,283211,1,0,0:0:0:0:
320,192,283391,1,0,0:0:0:0:
448,192,283391,1,0,0:0:0:0:
64,192,283391,1,0,0:0:0:0:
192,192,283565,1,0,0:0:0:0:
448,192,283565,1,0,0:0:0:0:
192,192,283739,1,0,0:0:0:0:
448,192,283739,1,0,0:0:0:0:
64,192,283917,1,0,0:0:0:0:
192,192,283917,1,0,0:0:0:0:
320,192,283917,1,0,0:0:0:0:
192,192,284099,1,0,0:0:0:0:
448,192,284099,1,0,0:0:0:0:
64,192,284185,1,0,0:0:0:0:
320,192,284185,1,0,0:0:0:0:
192,192,284275,1,0,0:0:0:0:
448,192,284275,1,0,0:0:0:0:
192,192,284451,1,0,0:0:0:0:
448,192,284451,1,0,0:0:0:0:
192,192,284627,1,0,0:0:0:0:
448,192,284627,1,0,0:0:0:0:
192,192,284804,1,0,0:0:0:0:
448,192,284804,1,0,0:0:0:0:
448,192,284984,1,0,0:0:0:0:
320,192,284984,1,0,0:0:0:0:
64,192,284984,1,0,0:0:0:0:
64,192,285519,1,0,0:0:0:0:
320,192,285519,1,0,0:0:0:0:
192,192,285606,1,0,0:0:0:0:
448,192,285606,1,0,0:0:0:0:
320,192,285692,1,0,0:0:0:0:
64,192,285692,1,0,0:0:0:0:
320,192,285860,1,0,0:0:0:0:
64,192,285860,1,0,0:0:0:0:
320,192,286032,1,0,0:0:0:0:
64,192,286032,1,0,0:0:0:0:
192,192,286204,1,0,0:0:0:0:
320,192,286204,1,0,0:0:0:0:
448,192,286204,1,0,0:0:0:0:
448,192,286378,1,0,0:0:0:0:
64,192,286378,1,0,0:0:0:0:
448,192,286552,1,0,0:0:0:0:
64,192,286552,1,0,0:0:0:0:
192,192,286637,1,0,0:0:0:0:
320,192,286637,1,0,0:0:0:0:
64,192,286722,1,0,0:0:0:0:
448,192,286806,1,0,0:0:0:0:
192,192,286890,1,0,0:0:0:0:
320,192,286983,1,0,0:0:0:0:
448,192,287077,1,0,0:0:0:0:
192,192,287077,1,0,0:0:0:0:
64,192,287077,1,0,0:0:0:0:
64,192,287265,1,0,0:0:0:0:
192,192,287265,1,0,0:0:0:0:
192,192,287450,1,0,0:0:0:0:
64,192,287450,1,0,0:0:0:0:
192,192,287614,1,0,0:0:0:0:
64,192,287614,1,0,0:0:0:0:
320,192,287788,1,0,0:0:0:0:
448,192,287788,1,0,0:0:0:0:
64,192,287788,1,0,0:0:0:0:
192,192,288319,1,0,0:0:0:0:
448,192,288319,1,0,0:0:0:0:
320,192,288404,1,0,0:0:0:0:
64,192,288404,1,0,0:0:0:0:
192,192,288489,1,0,0:0:0:0:
448,192,288489,1,0,0:0:0:0:
192,192,288661,1,0,0:0:0:0:
448,192,288661,1,0,0:0:0:0:
448,192,288833,1,0,0:0:0:0:
192,192,288833,1,0,0:0:0:0:
320,192,289001,1,0,0:0:0:0:
192,192,289001,1,0,0:0:0:0:
64,192,289001,1,0,0:0:0:0:
320,192,289173,1,0,0:0:0:0:
448,192,289173,1,0,0:0:0:0:
320,192,289343,1,0,0:0:0:0:
448,192,289343,1,0,0:0:0:0:
448,192,289515,1,0,0:0:0:0:
192,192,289515,1,0,0:0:0:0:
64,192,289515,1,0,0:0:0:0:
320,192,289689,1,0,0:0:0:0:
192,192,289689,1,0,0:0:0:0:
64,192,289777,1,0,0:0:0:0:
448,192,289777,1,0,0:0:0:0:
192,192,289870,1,0,0:0:0:0:
320,192,289870,1,0,0:0:0:0:
192,192,290048,1,0,0:0:0:0:
320,192,290048,1,0,0:0:0:0:
320,192,290224,1,0,0:0:0:0:
192,192,290224,1,0,0:0:0:0:
320,192,290398,1,0,0:0:0:0:
192,192,290398,1,0,0:0:0:0:
320,192,290572,1,0,0:0:0:0:
448,192,290572,1,0,0:0:0:0:
64,192,290572,1,0,0:0:0:0:
192,192,291141,1,0,0:0:0:0:
64,192,291141,1,0,0:0:0:0:
320,192,291228,1,0,0:0:0:0:
448,192,291228,1,0,0:0:0:0:
448,192,291308,1,0,0:0:0:0:
64,192,291308,1,0,0:0:0:0:
192,192,291308,1,0,0:0:0:0:
320,192,291456,1,0,0:0:0:0:
64,192,291456,1,0,0:0:0:0:
320,192,291622,1,0,0:0:0:0:
64,192,291622,1,0,0:0:0:0:
448,192,291794,1,0,0:0:0:0:
192,192,291794,1,0,0:0:0:0:
64,192,291794,1,0,0:0:0:0:
320,192,291970,1,0,0:0:0:0:
448,192,291970,1,0,0:0:0:0:
448,192,292144,1,0,0:0:0:0:
192,192,292144,1,0,0:0:0:0:
64,192,292144,1,0,0:0:0:0:
448,192,292316,1,0,0:0:0:0:
192,192,292316,1,0,0:0:0:0:
64,192,292316,1,0,0:0:0:0:
192,192,292488,1,0,0:0:0:0:
320,192,292488,1,0,0:0:0:0:
448,192,292664,1,0,0:0:0:0:
320,192,292664,1,0,0:0:0:0:
192,192,292664,1,0,0:0:0:0:
64,192,292664,1,0,0:0:0:0:
320,192,293025,1,0,0:0:0:0:
448,192,293382,1,0,0:0:0:0:
192,192,293382,1,0,0:0:0:0:
64,192,293382,1,0,0:0:0:0:
320,192,293730,1,0,0:0:0:0:
320,192,293898,1,0,0:0:0:0:
320,192,294067,1,0,0:0:0:0:
64,192,294235,1,0,0:0:0:0:
192,192,294235,1,0,0:0:0:0:
64,192,294404,1,0,0:0:0:0:
192,192,294404,1,0,0:0:0:0:
192,192,294761,1,0,0:0:0:0:
320,192,294761,1,0,0:0:0:0:
448,192,294761,1,0,0:0:0:0:
192,192,294935,1,0,0:0:0:0:
320,192,294935,1,0,0:0:0:0:
320,192,295107,1,0,0:0:0:0:
192,192,295107,1,0,0:0:0:0:
64,192,295107,1,0,0:0:0:0:
64,192,295455,1,0,0:0:0:0:
192,192,295630,1,0,0:0:0:0:
320,192,295630,1,0,0:0:0:0:
192,192,295804,1,0,0:0:0:0:
320,192,295804,1,0,0:0:0:0:
320,192,296148,1,0,0:0:0:0:
448,192,296148,1,0,0:0:0:0:
64,192,296148,1,0,0:0:0:0:
192,192,296481,1,0,0:0:0:0:
320,192,296807,1,0,0:0:0:0:
448,192,296970,1,0,0:0:0:0:
64,192,296970,1,0,0:0:0:0:
448,192,297133,1,0,0:0:0:0:
64,192,297133,1,0,0:0:0:0:
320,192,297466,1,0,0:0:0:0:
64,192,297466,1,0,0:0:0:0:
192,192,297466,1,0,0:0:0:0:
320,192,297630,1,0,0:0:0:0:
448,192,297630,1,0,0:0:0:0:
192,192,297713,1,0,0:0:0:0:
64,192,297713,1,0,0:0:0:0:
448,192,297796,1,0,0:0:0:0:
320,192,297796,1,0,0:0:0:0:
448,192,297964,1,0,0:0:0:0:
64,192,297964,1,0,0:0:0:0:
192,192,298049,1,0,0:0:0:0:
320,192,298049,1,0,0:0:0:0:
64,192,298134,1,0,0:0:0:0:
448,192,298134,128,0,298478:0:0:0:0:
320,192,298478,128,0,299175:0:0:0:0:
448,192,298823,1,0,0:0:0:0:
64,192,298823,1,0,0:0:0:0:
192,192,298823,1,0,0:0:0:0:
192,192,299175,128,0,299853:0:0:0:0:
320,192,299343,1,0,0:0:0:0:
448,192,299343,1,0,0:0:0:0:
320,192,299509,1,0,0:0:0:0:
448,192,299509,1,0,0:0:0:0:
320,192,299853,1,0,0:0:0:0:
448,192,299853,1,0,0:0:0:0:
64,192,299853,128,0,300538:0:0:0:0:
448,192,300198,1,0,0:0:0:0:
320,192,300198,1,0,0:0:0:0:
192,192,300198,1,0,0:0:0:0:
192,192,300538,1,0,0:0:0:0:
320,192,300538,128,0,301191:0:0:0:0:
64,192,300704,1,0,0:0:0:0:
192,192,300785,1,0,0:0:0:0:
448,192,300867,1,0,0:0:0:0:
64,192,300867,1,0,0:0:0:0:
192,192,301030,1,0,0:0:0:0:
448,192,301110,1,0,0:0:0:0:
192,192,301191,128,0,301836:0:0:0:0:
64,192,301191,1,0,0:0:0:0:
320,192,301354,1,0,0:0:0:0:
448,192,301354,1,0,0:0:0:0:
64,192,301520,1,0,0:0:0:0:
320,192,301520,1,0,0:0:0:0:
448,192,301520,1,0,0:0:0:0:
64,192,301857,128,0,302517:0:0:0:0:
448,192,301857,1,0,0:0:0:0:
320,192,301857,1,0,0:0:0:0:
320,192,302021,1,0,0:0:0:0:
192,192,302021,1,0,0:0:0:0:
320,192,302186,1,0,0:0:0:0:
192,192,302186,1,0,0:0:0:0:
448,192,302349,1,0,0:0:0:0:
320,192,302349,1,0,0:0:0:0:
192,192,302349,1,0,0:0:0:0:
192,192,302517,128,0,302846:0:0:0:0:
448,192,302517,1,0,0:0:0:0:
448,192,302681,1,0,0:0:0:0:
64,192,302681,1,0,0:0:0:0:
320,192,302846,1,0,0:0:0:0:
448,192,302846,1,0,0:0:0:0:
192,192,302927,1,0,0:0:0:0:
64,192,302927,1,0,0:0:0:0:
320,192,303009,1,0,0:0:0:0:
448,192,303009,1,0,0:0:0:0:
192,192,303089,1,0,0:0:0:0:
64,192,303089,1,0,0:0:0:0:
320,192,303170,1,0,0:0:0:0:
192,192,303251,1,0,0:0:0:0:
448,192,303329,1,0,0:0:0:0:
64,192,303406,1,0,0:0:0:0:
448,192,303495,1,0,0:0:0:0:
320,192,303495,1,0,0:0:0:0:
192,192,303495,1,0,0:0:0:0:
64,192,303832,1,0,0:0:0:0:
320,192,304169,1,0,0:0:0:0:
192,192,304169,1,0,0:0:0:0:
64,192,304169,1,0,0:0:0:0:
448,192,304506,1,0,0:0:0:0:
320,192,304839,1,0,0:0:0:0:
448,192,305172,1,0,0:0:0:0:
192,192,305342,1,0,0:0:0:0:
64,192,305342,1,0,0:0:0:0:
320,192,305404,1,0,0:0:0:0:
448,192,305404,1,0,0:0:0:0:
192,192,305464,1,0,0:0:0:0:
64,192,305464,1,0,0:0:0:0:
320,192,305521,1,0,0:0:0:0:
448,192,305521,1,0,0:0:0:0:
192,192,305682,1,0,0:0:0:0:
320,192,305682,1,0,0:0:0:0:
320,192,305839,1,0,0:0:0:0:
448,192,305839,1,0,0:0:0:0:
64,192,305839,1,0,0:0:0:0:
192,192,306179,1,0,0:0:0:0:
320,192,306347,1,0,0:0:0:0:
64,192,306347,1,0,0:0:0:0:
64,192,306516,1,0,0:0:0:0:
320,192,306516,1,0,0:0:0:0:
448,192,306849,1,0,0:0:0:0:
320,192,306849,1,0,0:0:0:0:
192,192,306849,1,0,0:0:0:0:
64,192,307186,1,0,0:0:0:0:
320,192,307523,1,0,0:0:0:0:
192,192,307693,1,0,0:0:0:0:
64,192,307693,1,0,0:0:0:0:
64,192,307863,1,0,0:0:0:0:
192,192,307863,1,0,0:0:0:0:
320,192,308196,1,0,0:0:0:0:
448,192,308196,1,0,0:0:0:0:
64,192,308196,1,0,0:0:0:0:
320,192,308363,1,0,0:0:0:0:
192,192,308363,1,0,0:0:0:0:
64,192,308447,1,0,0:0:0:0:
448,192,308447,1,0,0:0:0:0:
192,192,308531,1,0,0:0:0:0:
320,192,308531,1,0,0:0:0:0:
64,192,308698,1,0,0:0:0:0:
320,192,308698,1,0,0:0:0:0:
448,192,308782,1,0,0:0:0:0:
192,192,308782,1,0,0:0:0:0:
320,192,308866,1,0,0:0:0:0:
64,192,308866,128,0,309203:0:0:0:0:
192,192,309203,128,0,309877:0:0:0:0:
448,192,309540,1,0,0:0:0:0:
320,192,309540,1,0,0:0:0:0:
64,192,309540,1,0,0:0:0:0:
320,192,309877,128,0,310539:0:0:0:0:
64,192,310041,1,0,0:0:0:0:
192,192,310041,1,0,0:0:0:0:
192,192,310206,1,0,0:0:0:0:
64,192,310206,1,0,0:0:0:0:
448,192,310539,128,0,311206:0:0:0:0:
64,192,310539,1,0,0:0:0:0:
64,192,310872,1,0,0:0:0:0:
192,192,310872,1,0,0:0:0:0:
320,192,310872,1,0,0:0:0:0:
192,192,311206,128,0,311855:0:0:0:0:
320,192,311206,1,0,0:0:0:0:
64,192,311372,1,0,0:0:0:0:
320,192,311453,1,0,0:0:0:0:
448,192,311535,1,0,0:0:0:0:
64,192,311535,1,0,0:0:0:0:
320,192,311696,1,0,0:0:0:0:
448,192,311775,1,0,0:0:0:0:
320,192,311855,128,0,312514:0:0:0:0:
64,192,311855,1,0,0:0:0:0:
64,192,312016,1,0,0:0:0:0:
192,192,312016,1,0,0:0:0:0:
448,192,312177,1,0,0:0:0:0:
192,192,312177,1,0,0:0:0:0:
64,192,312177,1,0,0:0:0:0:
448,192,312514,128,0,313188:0:0:0:0:
64,192,312514,1,0,0:0:0:0:
192,192,312514,1,0,0:0:0:0:
64,192,312682,1,0,0:0:0:0:
320,192,312682,1,0,0:0:0:0:
320,192,312851,1,0,0:0:0:0:
64,192,312851,1,0,0:0:0:0:
320,192,313019,1,0,0:0:0:0:
192,192,313019,1,0,0:0:0:0:
64,192,313019,1,0,0:0:0:0:
320,192,313188,128,0,313510:0:0:0:0:
192,192,313188,1,0,0:0:0:0:
192,192,313349,1,0,0:0:0:0:
448,192,313510,1,0,0:0:0:0:
64,192,313510,1,0,0:0:0:0:
320,192,313589,1,0,0:0:0:0:
192,192,313589,1,0,0:0:0:0:
64,192,313669,1,0,0:0:0:0:
192,192,313749,1,0,0:0:0:0:
320,192,313829,1,0,0:0:0:0:
448,192,313829,1,0,0:0:0:0:
192,192,313908,1,0,0:0:0:0:
64,192,313908,1,0,0:0:0:0:
320,192,313988,1,0,0:0:0:0:
448,192,313988,1,0,0:0:0:0:
192,192,314068,1,0,0:0:0:0:
64,192,314068,1,0,0:0:0:0:
320,192,314148,1,0,0:0:0:0:
448,192,314148,1,0,0:0:0:0:
64,192,314148,1,0,0:0:0:0:
448,192,314807,1,0,0:0:0:0:
64,192,314807,1,0,0:0:0:0:
192,192,314807,1,0,0:0:0:0:
320,192,315137,1,0,0:0:0:0:
192,192,315301,1,0,0:0:0:0:
448,192,315301,1,0,0:0:0:0:
192,192,315466,1,0,0:0:0:0:
448,192,315466,1,0,0:0:0:0:
448,192,315806,1,0,0:0:0:0:
192,192,315806,1,0,0:0:0:0:
64,192,316158,1,0,0:0:0:0:
192,192,316158,1,0,0:0:0:0:
320,192,316158,1,0,0:0:0:0:
448,192,316328,1,0,0:0:0:0:
64,192,316328,1,0,0:0:0:0:
448,192,316502,1,0,0:0:0:0:
64,192,316502,1,0,0:0:0:0:
192,192,316502,1,0,0:0:0:0:
320,192,316859,1,0,0:0:0:0:
64,192,317025,1,0,0:0:0:0:
192,192,317025,1,0,0:0:0:0:
64,192,317192,1,0,0:0:0:0:
192,192,317192,1,0,0:0:0:0:
320,192,317525,1,0,0:0:0:0:
448,192,317525,1,0,0:0:0:0:
192,192,317525,1,0,0:0:0:0:
64,192,317854,1,0,0:0:0:0:
448,192,318184,1,0,0:0:0:0:
320,192,318347,1,0,0:0:0:0:
192,192,318347,1,0,0:0:0:0:
192,192,318510,1,0,0:0:0:0:
320,192,318510,1,0,0:0:0:0:
448,192,318839,1,0,0:0:0:0:
64,192,318839,1,0,0:0:0:0:
192,192,318839,1,0,0:0:0:0:
320,192,319005,1,0,0:0:0:0:
448,192,319005,1,0,0:0:0:0:
192,192,319087,1,0,0:0:0:0:
64,192,319087,1,0,0:0:0:0:
320,192,319169,1,0,0:0:0:0:
448,192,319169,1,0,0:0:0:0:
448,192,319339,1,0,0:0:0:0:
192,192,319339,1,0,0:0:0:0:
64,192,319422,1,0,0:0:0:0:
320,192,319422,1,0,0:0:0:0:
448,192,319505,128,0,319845:0:0:0:0:
192,192,319505,1,0,0:0:0:0:
320,192,319845,128,0,320542:0:0:0:0:
64,192,320193,1,0,0:0:0:0:
448,192,320193,1,0,0:0:0:0:
192,192,320193,1,0,0:0:0:0:
192,192,320542,128,0,321251:0:0:0:0:
320,192,320708,1,0,0:0:0:0:
448,192,320708,1,0,0:0:0:0:
320,192,320871,1,0,0:0:0:0:
448,192,320871,1,0,0:0:0:0:
320,192,321197,1,0,0:0:0:0:
64,192,321197,128,0,321845:0:0:0:0:
192,192,321523,1,0,0:0:0:0:
320,192,321523,1,0,0:0:0:0:
448,192,321523,1,0,0:0:0:0:
192,192,321845,1,0,0:0:0:0:
320,192,321845,128,0,322497:0:0:0:0:
64,192,322006,1,0,0:0:0:0:
448,192,322087,1,0,0:0:0:0:
192,192,322168,1,0,0:0:0:0:
64,192,322168,1,0,0:0:0:0:
192,192,322332,1,0,0:0:0:0:
64,192,322415,1,0,0:0:0:0:
192,192,322497,128,0,323165:0:0:0:0:
448,192,322497,1,0,0:0:0:0:
64,192,322662,1,0,0:0:0:0:
448,192,322662,1,0,0:0:0:0:
64,192,322828,1,0,0:0:0:0:
448,192,322828,1,0,0:0:0:0:
320,192,322828,1,0,0:0:0:0:
64,192,323165,128,0,323831:0:0:0:0:
448,192,323165,1,0,0:0:0:0:
320,192,323165,1,0,0:0:0:0:
192,192,323331,1,0,0:0:0:0:
320,192,323331,1,0,0:0:0:0:
192,192,323498,1,0,0:0:0:0:
320,192,323498,1,0,0:0:0:0:
448,192,323665,1,0,0:0:0:0:
320,192,323665,1,0,0:0:0:0:
192,192,323665,1,0,0:0:0:0:
192,192,323831,128,0,324162:0:0:0:0:
448,192,323831,1,0,0:0:0:0:
448,192,323998,1,0,0:0:0:0:
64,192,323998,1,0,0:0:0:0:
448,192,324162,1,0,0:0:0:0:
320,192,324162,1,0,0:0:0:0:
192,192,324243,1,0,0:0:0:0:
64,192,324243,1,0,0:0:0:0:
320,192,324325,1,0,0:0:0:0:
448,192,324406,1,0,0:0:0:0:
192,192,324486,1,0,0:0:0:0:
64,192,324486,1,0,0:0:0:0:
320,192,324565,1,0,0:0:0:0:
448,192,324565,1,0,0:0:0:0:
192,192,324645,1,0,0:0:0:0:
64,192,324725,1,0,0:0:0:0:
448,192,324806,1,0,0:0:0:0:
320,192,324806,1,0,0:0:0:0:
192,192,324806,1,0,0:0:0:0:
320,192,325472,1,0,0:0:0:0:
192,192,325472,1,0,0:0:0:0:
64,192,325472,1,0,0:0:0:0:
448,192,325801,1,0,0:0:0:0:
64,192,325966,1,0,0:0:0:0:
320,192,325966,1,0,0:0:0:0:
320,192,326140,1,0,0:0:0:0:
64,192,326140,1,0,0:0:0:0:
320,192,326480,1,0,0:0:0:0:
64,192,326480,1,0,0:0:0:0:
448,192,326651,1,0,0:0:0:0:
320,192,326651,1,0,0:0:0:0:
192,192,326709,1,0,0:0:0:0:
64,192,326709,1,0,0:0:0:0:
448,192,326768,1,0,0:0:0:0:
320,192,326768,1,0,0:0:0:0:
64,192,326827,1,0,0:0:0:0:
192,192,326827,1,0,0:0:0:0:
64,192,326988,1,0,0:0:0:0:
448,192,326988,1,0,0:0:0:0:
320,192,327149,1,0,0:0:0:0:
448,192,327149,1,0,0:0:0:0:
192,192,327149,1,0,0:0:0:0:
64,192,327468,1,0,0:0:0:0:
192,192,327646,1,0,0:0:0:0:
448,192,327646,1,0,0:0:0:0:
192,192,327825,1,0,0:0:0:0:
448,192,327825,1,0,0:0:0:0:
320,192,328173,1,0,0:0:0:0:
448,192,328173,1,0,0:0:0:0:
64,192,328173,1,0,0:0:0:0:
192,192,328513,1,0,0:0:0:0:
320,192,328850,1,0,0:0:0:0:
448,192,329018,1,0,0:0:0:0:
64,192,329018,1,0,0:0:0:0:
448,192,329184,1,0,0:0:0:0:
64,192,329184,1,0,0:0:0:0:
320,192,329513,1,0,0:0:0:0:
192,192,329513,1,0,0:0:0:0:
64,192,329513,1,0,0:0:0:0:
448,192,329678,1,0,0:0:0:0:
64,192,329678,1,0,0:0:0:0:
320,192,329758,1,0,0:0:0:0:
192,192,329758,1,0,0:0:0:0:
448,192,329839,1,0,0:0:0:0:
64,192,329839,1,0,0:0:0:0:
64,192,330000,1,0,0:0:0:0:
192,192,330000,1,0,0:0:0:0:
320,192,330081,1,0,0:0:0:0:
448,192,330081,1,0,0:0:0:0:
192,192,330161,1,0,0:0:0:0:
64,192,330161,128,0,330501:0:0:0:0:
192,192,330501,128,0,331183:0:0:0:0:
64,192,330842,1,0,0:0:0:0:
448,192,330842,1,0,0:0:0:0:
320,192,330842,1,0,0:0:0:0:
320,192,331183,128,0,331865:0:0:0:0:
64,192,331354,1,0,0:0:0:0:
448,192,331354,1,0,0:0:0:0:
448,192,331524,1,0,0:0:0:0:
64,192,331524,1,0,0:0:0:0:
448,192,331865,128,0,332547:0:0:0:0:
64,192,331865,1,0,0:0:0:0:
192,192,332206,1,0,0:0:0:0:
320,192,332206,1,0,0:0:0:0:
64,192,332206,1,0,0:0:0:0:
192,192,332547,128,0,333218:0:0:0:0:
320,192,332547,1,0,0:0:0:0:
448,192,332717,1,0,0:0:0:0:
320,192,332801,1,0,0:0:0:0:
448,192,332885,1,0,0:0:0:0:
64,192,332885,1,0,0:0:0:0:
320,192,333054,1,0,0:0:0:0:
64,192,333136,1,0,0:0:0:0:
320,192,333218,128,0,333868:0:0:0:0:
448,192,333218,1,0,0:0:0:0:
448,192,333379,1,0,0:0:0:0:
64,192,333379,1,0,0:0:0:0:
64,192,333542,1,0,0:0:0:0:
192,192,333542,1,0,0:0:0:0:
448,192,333542,1,0,0:0:0:0:
192,192,333705,1,0,0:0:0:0:
64,192,333705,1,0,0:0:0:0:
448,192,333868,128,0,334549:0:0:0:0:
192,192,333868,1,0,0:0:0:0:
64,192,333868,1,0,0:0:0:0:
320,192,334032,1,0,0:0:0:0:
192,192,334032,1,0,0:0:0:0:
192,192,334204,1,0,0:0:0:0:
320,192,334204,1,0,0:0:0:0:
64,192,334376,1,0,0:0:0:0:
192,192,334376,1,0,0:0:0:0:
320,192,334376,1,0,0:0:0:0:
64,192,334549,1,0,0:0:0:0:
320,192,334549,128,0,334885:0:0:0:0:
448,192,334721,1,0,0:0:0:0:
64,192,334721,1,0,0:0:0:0:
448,192,334885,1,0,0:0:0:0:
192,192,334885,1,0,0:0:0:0:
64,192,334885,1,0,0:0:0:0:
448,192,335050,1,0,0:0:0:0:
320,192,335050,1,0,0:0:0:0:
320,192,335215,1,0,0:0:0:0:
192,192,335215,1,0,0:0:0:0:
64,192,335380,1,0,0:0:0:0:
192,192,335380,1,0,0:0:0:0:
64,192,335550,1,0,0:0:0:0:
320,192,335550,1,0,0:0:0:0:
448,192,335550,128,0,335907:0:0:0:0:
320,192,335907,128,0,336562:0:0:0:0:
448,192,336244,1,0,0:0:0:0:
192,192,336401,1,0,0:0:0:0:
64,192,336401,1,0,0:0:0:0:
192,192,336562,128,0,337214:0:0:0:0:
64,192,336562,1,0,0:0:0:0:
320,192,336888,1,0,0:0:0:0:
64,192,336888,1,0,0:0:0:0:
448,192,336888,1,0,0:0:0:0:
64,192,337214,128,0,337862:0:0:0:0:
192,192,337540,1,0,0:0:0:0:
320,192,337862,128,0,338503:0:0:0:0:
448,192,338021,1,0,0:0:0:0:
64,192,338021,1,0,0:0:0:0:
192,192,338021,1,0,0:0:0:0:
64,192,338181,1,0,0:0:0:0:
448,192,338181,1,0,0:0:0:0:
192,192,338503,128,0,339162:0:0:0:0:
64,192,338832,1,0,0:0:0:0:
448,192,338997,1,0,0:0:0:0:
320,192,338997,1,0,0:0:0:0:
448,192,339162,1,0,0:0:0:0:
64,192,339162,128,0,339843:0:0:0:0:
192,192,339502,1,0,0:0:0:0:
320,192,339502,1,0,0:0:0:0:
448,192,339502,1,0,0:0:0:0:
448,192,339843,1,0,0:0:0:0:
320,192,339926,1,0,0:0:0:0:
192,192,340009,1,0,0:0:0:0:
64,192,340090,1,0,0:0:0:0:
448,192,340169,1,0,0:0:0:0:
320,192,340247,1,0,0:0:0:0:
192,192,340325,1,0,0:0:0:0:
64,192,340402,1,0,0:0:0:0:
448,192,340477,1,0,0:0:0:0:
320,192,340552,1,0,0:0:0:0:
192,192,340627,1,0,0:0:0:0:
64,192,340702,1,0,0:0:0:0:
448,192,340790,128,0,341155:0:0:0:0:
320,192,340790,1,0,0:0:0:0:
320,192,341155,128,0,341789:0:0:0:0:
64,192,341477,1,0,0:0:0:0:
192,192,341633,1,0,0:0:0:0:
448,192,341633,1,0,0:0:0:0:
448,192,341789,1,0,0:0:0:0:
192,192,341789,128,0,342427:0:0:0:0:
64,192,342108,1,0,0:0:0:0:
448,192,342108,1,0,0:0:0:0:
320,192,342108,1,0,0:0:0:0:
64,192,342427,128,0,343072:0:0:0:0:
320,192,342753,1,0,0:0:0:0:
448,192,343072,128,0,343704:0:0:0:0:
192,192,343226,1,0,0:0:0:0:
64,192,343226,1,0,0:0:0:0:
320,192,343226,1,0,0:0:0:0:
64,192,343382,1,0,0:0:0:0:
192,192,343382,1,0,0:0:0:0:
320,192,343382,1,0,0:0:0:0:
320,192,343704,128,0,344349:0:0:0:0:
192,192,344023,1,0,0:0:0:0:
448,192,344186,1,0,0:0:0:0:
64,192,344186,1,0,0:0:0:0:
64,192,344349,128,0,344513:0:0:0:0:
448,192,344349,1,0,0:0:0:0:
192,192,344513,128,0,344678:0:0:0:0:
64,192,344678,128,0,345202:0:0:0:0:
448,192,344678,1,0,0:0:0:0:
320,192,344678,1,0,0:0:0:0:
192,192,345022,1,0,0:0:0:0:
320,192,345202,1,0,0:0:0:0:
448,192,345202,1,0,0:0:0:0:
192,192,345283,1,0,0:0:0:0:
64,192,345283,1,0,0:0:0:0:
320,192,345361,1,0,0:0:0:0:
448,192,345361,1,0,0:0:0:0:
64,192,345361,1,0,0:0:0:0:
448,192,345511,1,0,0:0:0:0:
192,192,345511,1,0,0:0:0:0:
64,192,345511,1,0,0:0:0:0:
64,192,345664,1,0,0:0:0:0:
320,192,345664,1,0,0:0:0:0:
448,192,345664,1,0,0:0:0:0:
192,192,345820,1,0,0:0:0:0:
64,192,345820,1,0,0:0:0:0:
448,192,345990,1,0,0:0:0:0:
192,192,345990,1,0,0:0:0:0:
64,192,345990,128,0,346331:0:0:0:0:
192,192,346331,128,0,346987:0:0:0:0:
64,192,346672,1,0,0:0:0:0:
320,192,346829,1,0,0:0:0:0:
448,192,346829,1,0,0:0:0:0:
320,192,346987,128,0,347625:0:0:0:0:
448,192,346987,1,0,0:0:0:0:
192,192,347303,1,0,0:0:0:0:
64,192,347303,1,0,0:0:0:0:
448,192,347303,1,0,0:0:0:0:
448,192,347625,128,0,348291:0:0:0:0:
64,192,347954,1,0,0:0:0:0:
64,192,348122,1,0,0:0:0:0:
192,192,348122,1,0,0:0:0:0:
320,192,348122,1,0,0:0:0:0:
192,192,348291,128,0,348965:0:0:0:0:
64,192,348459,1,0,0:0:0:0:
448,192,348459,1,0,0:0:0:0:
320,192,348459,1,0,0:0:0:0:
448,192,348628,1,0,0:0:0:0:
64,192,348628,1,0,0:0:0:0:
320,192,348965,128,0,349613:0:0:0:0:
64,192,349298,1,0,0:0:0:0:
192,192,349455,1,0,0:0:0:0:
448,192,349455,1,0,0:0:0:0:
192,192,349613,1,0,0:0:0:0:
448,192,349613,128,0,350264:0:0:0:0:
64,192,349942,1,0,0:0:0:0:
192,192,349942,1,0,0:0:0:0:
320,192,349942,1,0,0:0:0:0:
64,192,350264,1,0,0:0:0:0:
192,192,350345,1,0,0:0:0:0:
320,192,350425,1,0,0:0:0:0:
448,192,350506,1,0,0:0:0:0:
64,192,350587,1,0,0:0:0:0:
192,192,350666,1,0,0:0:0:0:
320,192,350744,1,0,0:0:0:0:
448,192,350820,1,0,0:0:0:0:
64,192,350897,1,0,0:0:0:0:
192,192,350972,1,0,0:0:0:0:
320,192,351048,1,0,0:0:0:0:
448,192,351124,1,0,0:0:0:0:
192,192,351200,1,0,0:0:0:0:
320,192,351200,1,0,0:0:0:0:
64,192,351200,128,0,351526:0:0:0:0:
192,192,351526,128,0,352174:0:0:0:0:
448,192,351859,1,0,0:0:0:0:
320,192,352016,1,0,0:0:0:0:
64,192,352016,1,0,0:0:0:0:
320,192,352174,128,0,352826:0:0:0:0:
64,192,352174,1,0,0:0:0:0:
448,192,352500,1,0,0:0:0:0:
64,192,352500,1,0,0:0:0:0:
192,192,352500,1,0,0:0:0:0:
448,192,352826,128,0,353474:0:0:0:0:
192,192,353152,1,0,0:0:0:0:
64,192,353474,128,0,354149:0:0:0:0:
192,192,353646,1,0,0:0:0:0:
320,192,353646,1,0,0:0:0:0:
448,192,353646,1,0,0:0:0:0:
320,192,353816,1,0,0:0:0:0:
448,192,353816,1,0,0:0:0:0:
192,192,354149,128,0,354801:0:0:0:0:
320,192,354475,1,0,0:0:0:0:
448,192,354638,1,0,0:0:0:0:
64,192,354638,1,0,0:0:0:0:
64,192,354801,1,0,0:0:0:0:
448,192,354801,128,0,354964:0:0:0:0:
320,192,354964,128,0,355127:0:0:0:0:
448,192,355127,128,0,355453:0:0:0:0:
192,192,355127,1,0,0:0:0:0:
64,192,355127,1,0,0:0:0:0:
192,192,355290,1,0,0:0:0:0:
320,192,355371,1,0,0:0:0:0:
64,192,355453,1,0,0:0:0:0:
192,192,355453,1,0,0:0:0:0:
320,192,355533,1,0,0:0:0:0:
448,192,355533,1,0,0:0:0:0:
192,192,355612,1,0,0:0:0:0:
64,192,355612,1,0,0:0:0:0:
448,192,355692,1,0,0:0:0:0:
320,192,355770,1,0,0:0:0:0:
192,192,355770,1,0,0:0:0:0:
64,192,355847,1,0,0:0:0:0:
448,192,355847,1,0,0:0:0:0:
320,192,355924,1,0,0:0:0:0:
192,192,355924,1,0,0:0:0:0:
64,192,355999,1,0,0:0:0:0:
320,192,356075,1,0,0:0:0:0:
448,192,356075,1,0,0:0:0:0:
192,192,356151,1,0,0:0:0:0:
64,192,356151,1,0,0:0:0:0:
320,192,356227,1,0,0:0:0:0:
448,192,356227,1,0,0:0:0:0:
192,192,356304,1,0,0:0:0:0:
64,192,356389,1,0,0:0:0:0:
448,192,356389,1,0,0:0:0:0:
320,192,356389,1,0,0:0:0:0:
192,192,356480,1,0,0:0:0:0:
64,192,356569,1,0,0:0:0:0:
448,192,356658,1,0,0:0:0:0:
320,192,356745,1,0,0:0:0:0:
192,192,356745,1,0,0:0:0:0:
64,192,356828,1,0,0:0:0:0:
192,192,356911,1,0,0:0:0:0:
320,192,356989,1,0,0:0:0:0:
448,192,357068,1,0,0:0:0:0:
192,192,357068,1,0,0:0:0:0:
64,192,357068,1,0,0:0:0:0:
320,192,357147,1,0,0:0:0:0:
64,192,357226,1,0,0:0:0:0:
448,192,357305,1,0,0:0:0:0:
192,192,357384,1,0,0:0:0:0:
320,192,357384,1,0,0:0:0:0:
64,192,357384,1,0,0:0:0:0:
448,192,357463,1,0,0:0:0:0:
192,192,357542,1,0,0:0:0:0:
320,192,357621,1,0,0:0:0:0:
64,192,357700,1,0,0:0:0:0:
448,192,357700,1,0,0:0:0:0:
192,192,357780,1,0,0:0:0:0:
320,192,357862,1,0,0:0:0:0:
448,192,357944,1,0,0:0:0:0:
320,192,358027,1,0,0:0:0:0:
192,192,358027,1,0,0:0:0:0:
64,192,358109,1,0,0:0:0:0:
192,192,358192,1,0,0:0:0:0:
448,192,358276,1,0,0:0:0:0:
64,192,358360,1,0,0:0:0:0:
192,192,358360,1,0,0:0:0:0:
320,192,358360,1,0,0:0:0:0:
448,192,358444,1,0,0:0:0:0:
64,192,358529,1,0,0:0:0:0:
320,192,358614,1,0,0:0:0:0:
448,192,358699,1,0,0:0:0:0:
192,192,358699,1,0,0:0:0:0:
64,192,358699,1,0,0:0:0:0:
320,192,358781,1,0,0:0:0:0:
192,192,358863,1,0,0:0:0:0:
64,192,358944,1,0,0:0:0:0:
192,192,359026,1,0,0:0:0:0:
320,192,359026,1,0,0:0:0:0:
448,192,359026,1,0,0:0:0:0:
64,192,359107,1,0,0:0:0:0:
448,192,359189,1,0,0:0:0:0:
192,192,359270,1,0,0:0:0:0:
64,192,359352,1,0,0:0:0:0:
320,192,359352,1,0,0:0:0:0:
448,192,359435,1,0,0:0:0:0:
192,192,359518,1,0,0:0:0:0:
320,192,359603,1,0,0:0:0:0:
448,192,359603,1,0,0:0:0:0:
192,192,359688,1,0,0:0:0:0:
64,192,359688,1,0,0:0:0:0:
320,192,359773,1,0,0:0:0:0:
64,192,359858,1,0,0:0:0:0:
192,192,359944,1,0,0:0:0:0:
320,192,360029,1,0,0:0:0:0:
448,192,360029,1,0,0:0:0:0:
64,192,360029,1,0,0:0:0:0:
192,192,360112,1,0,0:0:0:0:
448,192,360195,1,0,0:0:0:0:
320,192,360279,1,0,0:0:0:0:
192,192,360362,1,0,0:0:0:0:
64,192,360362,1,0,0:0:0:0:
448,192,360443,1,0,0:0:0:0:
320,192,360525,1,0,0:0:0:0:
192,192,360606,1,0,0:0:0:0:
448,192,360688,1,0,0:0:0:0:
64,192,360688,1,0,0:0:0:0:
320,192,360770,1,0,0:0:0:0:
192,192,360852,1,0,0:0:0:0:
448,192,360935,1,0,0:0:0:0:
320,192,361017,1,0,0:0:0:0:
64,192,361017,1,0,0:0:0:0:
192,192,361017,1,0,0:0:0:0:
448,192,361097,1,0,0:0:0:0:
64,192,361178,1,0,0:0:0:0:
192,192,361258,1,0,0:0:0:0:
320,192,361339,1,0,0:0:0:0:
448,192,361339,1,0,0:0:0:0:
64,192,361420,1,0,0:0:0:0:
448,192,361502,1,0,0:0:0:0:
192,192,361583,1,0,0:0:0:0:
448,192,361665,1,0,0:0:0:0:
320,192,361665,1,0,0:0:0:0:
64,192,361665,1,0,0:0:0:0:
192,192,361744,1,0,0:0:0:0:
320,192,361824,1,0,0:0:0:0:
64,192,361904,1,0,0:0:0:0:
192,192,361984,1,0,0:0:0:0:
320,192,361984,1,0,0:0:0:0:
448,192,362065,1,0,0:0:0:0:
64,192,362147,1,0,0:0:0:0:
448,192,362228,1,0,0:0:0:0:
320,192,362228,1,0,0:0:0:0:
64,192,362310,1,0,0:0:0:0:
192,192,362310,1,0,0:0:0:0:
320,192,362393,1,0,0:0:0:0:
192,192,362477,1,0,0:0:0:0:
64,192,362562,1,0,0:0:0:0:
320,192,362648,1,0,0:0:0:0:
192,192,362648,1,0,0:0:0:0:
448,192,362648,1,0,0:0:0:0:
64,192,362733,1,0,0:0:0:0:
320,192,362818,1,0,0:0:0:0:
192,192,362903,1,0,0:0:0:0:
320,192,362988,1,0,0:0:0:0:
448,192,362988,1,0,0:0:0:0:
64,192,363074,1,0,0:0:0:0:
448,192,363160,1,0,0:0:0:0:
192,192,363246,1,0,0:0:0:0:
320,192,363332,1,0,0:0:0:0:
64,192,363332,1,0,0:0:0:0:
448,192,363419,1,0,0:0:0:0:
64,192,363505,1,0,0:0:0:0:
320,192,363591,1,0,0:0:0:0:
64,192,363677,1,0,0:0:0:0:
192,192,363677,1,0,0:0:0:0:
448,192,363677,1,0,0:0:0:0:
320,192,363763,1,0,0:0:0:0:
192,192,363850,1,0,0:0:0:0:
448,192,363936,1,0,0:0:0:0:
320,192,364022,1,0,0:0:0:0:
64,192,364022,1,0,0:0:0:0:
192,192,364022,1,0,0:0:0:0:
448,192,364109,1,0,0:0:0:0:
64,192,364196,1,0,0:0:0:0:
192,192,364283,1,0,0:0:0:0:
448,192,364370,1,0,0:0:0:0:
64,192,364370,1,0,0:0:0:0:
320,192,364370,1,0,0:0:0:0:
192,192,364452,1,0,0:0:0:0:
320,192,364534,1,0,0:0:0:0:
64,192,364617,1,0,0:0:0:0:
448,192,364699,1,0,0:0:0:0:
320,192,364699,1,0,0:0:0:0:
192,192,364779,1,0,0:0:0:0:
64,192,364860,1,0,0:0:0:0:
448,192,364940,1,0,0:0:0:0:
320,192,365021,1,0,0:0:0:0:
192,192,365021,1,0,0:0:0:0:
64,192,365021,1,0,0:0:0:0:
448,192,365102,1,0,0:0:0:0:
320,192,365182,1,0,0:0:0:0:
64,192,365263,1,0,0:0:0:0:
192,192,365344,1,0,0:0:0:0:
320,192,365344,1,0,0:0:0:0:
448,192,365344,1,0,0:0:0:0:
64,192,365429,1,0,0:0:0:0:
192,192,365514,1,0,0:0:0:0:
320,192,365599,1,0,0:0:0:0:
64,192,365684,1,0,0:0:0:0:
192,192,365684,1,0,0:0:0:0:
448,192,365684,1,0,0:0:0:0:
320,192,365770,1,0,0:0:0:0:
192,192,365855,1,0,0:0:0:0:
64,192,365940,1,0,0:0:0:0:
448,192,366025,1,0,0:0:0:0:
192,192,366025,1,0,0:0:0:0:
320,192,366025,1,0,0:0:0:0:
64,192,366105,1,0,0:0:0:0:
448,192,366186,1,0,0:0:0:0:
192,192,366266,1,0,0:0:0:0:
64,192,366347,1,0,0:0:0:0:
320,192,366347,1,0,0:0:0:0:
448,192,366347,1,0,0:0:0:0:
192,192,366425,1,0,0:0:0:0:
64,192,366504,1,0,0:0:0:0:
448,192,366583,1,0,0:0:0:0:
64,192,366662,1,0,0:0:0:0:
192,192,366662,1,0,0:0:0:0:
320,192,366662,1,0,0:0:0:0:
448,192,366737,1,0,0:0:0:0:
320,192,366813,1,0,0:0:0:0:
192,192,366889,1,0,0:0:0:0:
448,192,366965,1,0,0:0:0:0:
320,192,366965,1,0,0:0:0:0:
64,192,366965,1,0,0:0:0:0:
192,192,367048,1,0,0:0:0:0:
64,192,367131,1,0,0:0:0:0:
320,192,367131,1,0,0:0:0:0:
448,192,367215,1,0,0:0:0:0:
64,192,367298,1,0,0:0:0:0:
192,192,367298,1,0,0:0:0:0:
320,192,367381,1,0,0:0:0:0:
448,192,367465,1,0,0:0:0:0:
192,192,367465,1,0,0:0:0:0:
64,192,367548,1,0,0:0:0:0:
448,192,367631,1,0,0:0:0:0:
320,192,367631,1,0,0:0:0:0:
192,192,367631,1,0,0:0:0:0:
64,192,367715,1,0,0:0:0:0:
448,192,367798,1,0,0:0:0:0:
320,192,367798,1,0,0:0:0:0:
192,192,367881,1,0,0:0:0:0:
448,192,367964,1,0,0:0:0:0:
64,192,367964,1,0,0:0:0:0:
320,192,368045,1,0,0:0:0:0:
64,192,368127,1,0,0:0:0:0:
192,192,368127,1,0,0:0:0:0:
448,192,368208,1,0,0:0:0:0:
192,192,368290,1,0,0:0:0:0:
320,192,368290,1,0,0:0:0:0:
64,192,368290,1,0,0:0:0:0:
448,192,368374,1,0,0:0:0:0:
192,192,368458,1,0,0:0:0:0:
320,192,368458,1,0,0:0:0:0:
64,192,368542,1,0,0:0:0:0:
448,192,368627,1,0,0:0:0:0:
192,192,368627,1,0,0:0:0:0:
320,192,368711,1,0,0:0:0:0:
64,192,368795,1,0,0:0:0:0:
448,192,368795,1,0,0:0:0:0:
192,192,368879,1,0,0:0:0:0:
64,192,368964,1,0,0:0:0:0:
320,192,368964,1,0,0:0:0:0:
448,192,368964,1,0,0:0:0:0:
192,192,369045,1,0,0:0:0:0:
320,192,369127,1,0,0:0:0:0:
64,192,369127,1,0,0:0:0:0:
448,192,369208,1,0,0:0:0:0:
192,192,369290,1,0,0:0:0:0:
64,192,369290,1,0,0:0:0:0:
448,192,369371,1,0,0:0:0:0:
64,192,369453,1,0,0:0:0:0:
320,192,369453,1,0,0:0:0:0:
192,192,369534,1,0,0:0:0:0:
448,192,369616,1,0,0:0:0:0:
320,192,369616,1,0,0:0:0:0:
64,192,369616,1,0,0:0:0:0:
192,192,369695,1,0,0:0:0:0:
448,192,369770,1,0,0:0:0:0:
320,192,369770,1,0,0:0:0:0:
64,192,369853,1,0,0:0:0:0:
192,192,369936,1,0,0:0:0:0:
320,192,369936,1,0,0:0:0:0:
448,192,370017,1,0,0:0:0:0:
64,192,370099,1,0,0:0:0:0:
192,192,370099,1,0,0:0:0:0:
320,192,370178,1,0,0:0:0:0:
448,192,370256,1,0,0:0:0:0:
192,192,370256,1,0,0:0:0:0:
64,192,370256,1,0,0:0:0:0:
320,192,370334,1,0,0:0:0:0:
192,192,370412,1,0,0:0:0:0:
64,192,370412,1,0,0:0:0:0:
448,192,370490,1,0,0:0:0:0:
320,192,370568,1,0,0:0:0:0:
192,192,370568,1,0,0:0:0:0:
64,192,370646,1,0,0:0:0:0:
320,192,370724,1,0,0:0:0:0:
448,192,370724,1,0,0:0:0:0:
192,192,370803,1,0,0:0:0:0:
448,192,370883,1,0,0:0:0:0:
64,192,370883,1,0,0:0:0:0:
320,192,370883,1,0,0:0:0:0:
192,192,370964,1,0,0:0:0:0:
320,192,371046,1,0,0:0:0:0:
64,192,371046,1,0,0:0:0:0:
192,192,371131,1,0,0:0:0:0:
448,192,371216,1,0,0:0:0:0:
320,192,371216,1,0,0:0:0:0:
64,192,371297,1,0,0:0:0:0:
448,192,371379,1,0,0:0:0:0:
192,192,371379,1,0,0:0:0:0:
64,192,371460,1,0,0:0:0:0:
192,192,371542,1,0,0:0:0:0:
320,192,371542,1,0,0:0:0:0:
448,192,371542,1,0,0:0:0:0:
64,192,371710,1,0,0:0:0:0:
192,192,371710,1,0,0:0:0:0:
448,192,371879,1,0,0:0:0:0:
64,192,371879,1,0,0:0:0:0:
448,192,372047,1,0,0:0:0:0:
320,192,372047,1,0,0:0:0:0:
64,192,372211,1,0,0:0:0:0:
320,192,372211,1,0,0:0:0:0:
192,192,372211,1,0,0:0:0:0:
448,192,372299,1,0,0:0:0:0:
64,192,372387,1,0,0:0:0:0:
192,192,372387,1,0,0:0:0:0:
448,192,372473,1,0,0:0:0:0:
192,192,372559,1,0,0:0:0:0:
320,192,372559,1,0,0:0:0:0:
64,192,372642,1,0,0:0:0:0:
320,192,372725,1,0,0:0:0:0:
448,192,372725,1,0,0:0:0:0:
192,192,372807,1,0,0:0:0:0:
448,192,372889,1,0,0:0:0:0:
320,192,372889,1,0,0:0:0:0:
64,192,372889,1,0,0:0:0:0:
192,192,372970,1,0,0:0:0:0:
320,192,373052,1,0,0:0:0:0:
448,192,373052,1,0,0:0:0:0:
64,192,373133,1,0,0:0:0:0:
192,192,373215,1,0,0:0:0:0:
448,192,373215,1,0,0:0:0:0:
320,192,373294,1,0,0:0:0:0:
192,192,373374,1,0,0:0:0:0:
64,192,373374,1,0,0:0:0:0:
448,192,373452,1,0,0:0:0:0:
64,192,373531,1,0,0:0:0:0:
192,192,373531,1,0,0:0:0:0:
320,192,373531,1,0,0:0:0:0:
448,192,373610,1,0,0:0:0:0:
64,192,373689,1,0,0:0:0:0:
320,192,373689,1,0,0:0:0:0:
192,192,373768,1,0,0:0:0:0:
448,192,373847,1,0,0:0:0:0:
320,192,373847,1,0,0:0:0:0:
64,192,373928,1,0,0:0:0:0:
448,192,374010,1,0,0:0:0:0:
192,192,374010,1,0,0:0:0:0:
320,192,374093,1,0,0:0:0:0:
64,192,374178,1,0,0:0:0:0:
192,192,374178,1,0,0:0:0:0:
448,192,374178,1,0,0:0:0:0:
320,192,374261,1,0,0:0:0:0:
64,192,374344,1,0,0:0:0:0:
192,192,374344,1,0,0:0:0:0:
448,192,374428,1,0,0:0:0:0:
320,192,374511,1,0,0:0:0:0:
64,192,374511,1,0,0:0:0:0:
192,192,374595,1,0,0:0:0:0:
448,192,374679,1,0,0:0:0:0:
320,192,374679,1,0,0:0:0:0:
192,192,374761,1,0,0:0:0:0:
320,192,374843,1,0,0:0:0:0:
448,192,374843,1,0,0:0:0:0:
64,192,374843,1,0,0:0:0:0:
192,192,374928,1,0,0:0:0:0:
64,192,375013,1,0,0:0:0:0:
448,192,375013,1,0,0:0:0:0:
320,192,375097,1,0,0:0:0:0:
64,192,375181,1,0,0:0:0:0:
192,192,375181,1,0,0:0:0:0:
448,192,375261,1,0,0:0:0:0:
192,192,375342,1,0,0:0:0:0:
320,192,375342,1,0,0:0:0:0:
64,192,375421,1,0,0:0:0:0:
192,192,375501,1,0,0:0:0:0:
320,192,375501,1,0,0:0:0:0:
448,192,375501,128,0,376135:0:0:0:0:
64,192,375661,1,0,0:0:0:0:
64,192,375820,1,0,0:0:0:0:
64,192,376135,1,0,0:0:0:0:
192,192,376135,1,0,0:0:0:0:
448,192,376293,1,0,0:0:0:0:
64,192,376293,1,0,0:0:0:0:
192,192,376373,1,0,0:0:0:0:
320,192,376373,1,0,0:0:0:0:
64,192,376454,1,0,0:0:0:0:
448,192,376454,1,0,0:0:0:0:
320,192,376534,1,0,0:0:0:0:
192,192,376534,1,0,0:0:0:0:
64,192,376615,1,0,0:0:0:0:
448,192,376615,1,0,0:0:0:0:
192,192,376694,1,0,0:0:0:0:
320,192,376694,1,0,0:0:0:0:
64,192,376774,1,0,0:0:0:0:
448,192,376854,1,0,0:0:0:0:
192,192,376934,1,0,0:0:0:0:
320,192,377013,1,0,0:0:0:0:
64,192,377093,1,0,0:0:0:0:
192,192,377173,1,0,0:0:0:0:
320,192,377253,1,0,0:0:0:0:
448,192,377331,1,0,0:0:0:0:
320,192,377416,1,0,0:0:0:0:
192,192,377416,1,0,0:0:0:0:
64,192,377416,1,0,0:0:0:0:
448,192,377502,1,0,0:0:0:0:
192,192,377588,1,0,0:0:0:0:
320,192,377674,1,0,0:0:0:0:
64,192,377760,1,0,0:0:0:0:
448,192,377760,1,0,0:0:0:0:
192,192,377843,1,0,0:0:0:0:
320,192,377926,1,0,0:0:0:0:
64,192,378010,1,0,0:0:0:0:
192,192,378093,1,0,0:0:0:0:
320,192,378093,1,0,0:0:0:0:
448,192,378093,1,0,0:0:0:0:
64,192,378174,1,0,0:0:0:0:
448,192,378256,1,0,0:0:0:0:
192,192,378337,1,0,0:0:0:0:
64,192,378419,1,0,0:0:0:0:
448,192,378419,1,0,0:0:0:0:
320,192,378419,1,0,0:0:0:0:
192,192,378499,1,0,0:0:0:0:
320,192,378580,1,0,0:0:0:0:
448,192,378660,1,0,0:0:0:0:
192,192,378741,1,0,0:0:0:0:
64,192,378741,1,0,0:0:0:0:
320,192,378822,1,0,0:0:0:0:
448,192,378904,1,0,0:0:0:0:
192,192,378985,1,0,0:0:0:0:
64,192,379067,1,0,0:0:0:0:
320,192,379067,1,0,0:0:0:0:
448,192,379150,1,0,0:0:0:0:
192,192,379233,1,0,0:0:0:0:
320,192,379317,1,0,0:0:0:0:
448,192,379400,1,0,0:0:0:0:
64,192,379400,1,0,0:0:0:0:
192,192,379400,1,0,0:0:0:0:
320,192,379481,1,0,0:0:0:0:
448,192,379563,1,0,0:0:0:0:
64,192,379644,1,0,0:0:0:0:
448,192,379726,1,0,0:0:0:0:
320,192,379726,1,0,0:0:0:0:
192,192,379726,1,0,0:0:0:0:
64,192,379806,1,0,0:0:0:0:
448,192,379887,1,0,0:0:0:0:
192,192,379967,1,0,0:0:0:0:
64,192,380048,1,0,0:0:0:0:
448,192,380048,1,0,0:0:0:0:
320,192,380048,1,0,0:0:0:0:
192,192,380129,1,0,0:0:0:0:
320,192,380211,1,0,0:0:0:0:
64,192,380292,1,0,0:0:0:0:
448,192,380374,1,0,0:0:0:0:
192,192,380374,1,0,0:0:0:0:
320,192,380456,1,0,0:0:0:0:
448,192,380538,1,0,1:0:0:0:
64,192,380621,1,0,0:0:0:0:
192,192,380621,1,0,0:0:0:0:
448,192,380703,1,0,0:0:0:0:
320,192,380703,1,0,0:0:0:0:
64,192,380786,1,0,0:0:0:0:
192,192,380868,1,0,0:0:0:0:
320,192,380950,1,0,0:0:0:0:
448,192,381033,1,0,0:0:0:0:
64,192,381033,1,0,0:0:0:0:
192,192,381033,1,0,0:0:0:0:
320,192,381115,1,0,0:0:0:0:
64,192,381198,1,0,0:0:0:0:
448,192,381280,1,0,0:0:0:0:
192,192,381363,1,0,0:0:0:0:
320,192,381363,1,0,0:0:0:0:
64,192,381445,1,0,0:0:0:0:
448,192,381527,1,0,0:0:0:0:
320,192,381610,1,0,0:0:0:0:
192,192,381692,1,0,0:0:0:0:
64,192,381692,1,0,0:0:0:0:
448,192,381775,1,0,0:0:0:0:
64,192,381857,1,0,0:0:0:0:
192,192,381939,1,0,0:0:0:0:
320,192,382022,1,0,0:0:0:0:
448,192,382022,1,0,0:0:0:0:
64,192,382022,1,0,0:0:0:0:
192,192,382104,1,0,0:0:0:0:
320,192,382187,1,0,0:0:0:0:
448,192,382269,1,0,0:0:0:0:
192,192,382352,1,0,0:0:0:0:
64,192,382352,1,0,0:0:0:0:
320,192,382433,1,0,0:0:0:0:
64,192,382515,1,0,0:0:0:0:
448,192,382596,1,0,0:0:0:0:
320,192,382678,1,0,0:0:0:0:
192,192,382678,1,0,0:0:0:0:
64,192,382678,1,0,0:0:0:0:
448,192,382756,1,0,0:0:0:0:
64,192,382835,1,0,0:0:0:0:
192,192,382914,1,0,0:0:0:0:
448,192,382993,1,0,0:0:0:0:
320,192,382993,1,0,0:0:0:0:
64,192,383072,1,0,0:0:0:0:
320,192,383152,1,0,0:0:0:0:
192,192,383232,1,0,0:0:0:0:
64,192,383232,1,0,0:0:0:0:
448,192,383312,1,0,0:0:0:0:
320,192,383312,1,0,0:0:0:0:
192,192,383395,1,0,0:0:0:0:
448,192,383478,1,0,0:0:0:0:
64,192,383562,1,0,0:0:0:0:
192,192,383645,1,0,0:0:0:0:
320,192,383645,1,0,0:0:0:0:
448,192,383645,1,0,0:0:0:0:
64,192,383729,1,0,0:0:0:0:
448,192,383813,1,0,0:0:0:0:
320,192,383897,1,0,0:0:0:0:
192,192,383982,1,0,0:0:0:0:
64,192,383982,1,0,0:0:0:0:
320,192,384066,1,0,0:0:0:0:
192,192,384150,1,0,0:0:0:0:
64,192,384234,1,0,0:0:0:0:
448,192,384319,1,0,0:0:0:0:
320,192,384319,1,0,0:0:0:0:
192,192,384405,1,0,0:0:0:0:
64,192,384491,1,0,0:0:0:0:
448,192,384577,1,0,0:0:0:0:
320,192,384663,1,0,0:0:0:0:
192,192,384663,1,0,0:0:0:0:
64,192,384663,1,0,0:0:0:0:
448,192,384750,1,0,0:0:0:0:
64,192,384836,1,0,0:0:0:0:
192,192,384922,1,0,0:0:0:0:
320,192,385008,1,0,0:0:0:0:
448,192,385008,1,0,0:0:0:0:
64,192,385008,1,0,0:0:0:0:
192,192,385094,1,0,0:0:0:0:
320,192,385181,1,0,0:0:0:0:
64,192,385267,1,0,0:0:0:0:
192,192,385353,1,0,0:0:0:0:
320,192,385353,1,0,0:0:0:0:
448,192,385353,1,0,0:0:0:0:
64,192,385436,1,0,0:0:0:0:
448,192,385519,1,0,0:0:0:0:
192,192,385603,1,0,0:0:0:0:
320,192,385686,1,0,0:0:0:0:
64,192,385686,1,0,0:0:0:0:
448,192,385686,1,0,0:0:0:0:
192,192,385765,1,0,0:0:0:0:
320,192,385845,1,0,0:0:0:0:
448,192,385925,1,0,0:0:0:0:
320,192,386005,1,0,0:0:0:0:
192,192,386005,1,0,0:0:0:0:
64,192,386005,1,0,0:0:0:0:
448,192,386084,1,0,0:0:0:0:
192,192,386164,1,0,0:0:0:0:
64,192,386244,1,0,0:0:0:0:
192,192,386324,1,0,0:0:0:0:
320,192,386324,1,0,0:0:0:0:
448,192,386324,1,0,0:0:0:0:
64,192,386406,1,0,0:0:0:0:
448,192,386488,1,0,0:0:0:0:
192,192,386571,1,0,0:0:0:0:
320,192,386653,1,0,0:0:0:0:
448,192,386653,1,0,0:0:0:0:
64,192,386653,1,0,0:0:0:0:
192,192,386736,1,0,0:0:0:0:
64,192,386818,1,0,0:0:0:0:
192,192,386900,1,0,0:0:0:0:
320,192,386983,1,0,0:0:0:0:
448,192,386983,1,0,0:0:0:0:
64,192,387064,1,0,0:0:0:0:
192,192,387146,1,0,0:0:0:0:
320,192,387227,1,0,0:0:0:0:
448,192,387309,1,0,0:0:0:0:
64,192,387309,1,0,0:0:0:0:
192,192,387309,1,0,0:0:0:0:
320,192,387389,1,0,0:0:0:0:
64,192,387470,1,0,0:0:0:0:
448,192,387550,1,0,0:0:0:0:
320,192,387631,1,0,0:0:0:0:
64,192,387631,1,0,0:0:0:0:
192,192,387631,1,0,0:0:0:0:
448,192,387710,1,0,0:0:0:0:
192,192,387790,1,0,0:0:0:0:
320,192,387867,1,0,0:0:0:0:
448,192,387944,1,0,0:0:0:0:
192,192,387944,1,0,0:0:0:0:
64,192,387944,1,0,0:0:0:0:
320,192,388019,1,0,0:0:0:0:
192,192,388095,1,0,0:0:0:0:
64,192,388095,1,0,0:0:0:0:
448,192,388170,1,0,0:0:0:0:
320,192,388245,1,0,0:0:0:0:
192,192,388245,1,0,0:0:0:0:
64,192,388319,1,0,0:0:0:0:
320,192,388393,1,0,0:0:0:0:
448,192,388393,1,0,0:0:0:0:
192,192,388468,1,0,0:0:0:0:
64,192,388544,1,0,0:0:0:0:
320,192,388544,1,0,0:0:0:0:
448,192,388544,1,0,0:0:0:0:
192,192,388622,1,0,0:0:0:0:
448,192,388700,1,0,0:0:0:0:
64,192,388700,1,0,0:0:0:0:
320,192,388778,1,0,0:0:0:0:
192,192,388856,1,0,0:0:0:0:
64,192,388856,1,0,0:0:0:0:
448,192,388935,1,0,0:0:0:0:
320,192,389015,1,0,0:0:0:0:
192,192,389015,1,0,0:0:0:0:
64,192,389097,1,0,0:0:0:0:
192,192,389179,1,0,0:0:0:0:
448,192,389179,1,0,0:0:0:0:
320,192,389179,1,0,0:0:0:0:
64,192,389263,1,0,0:0:0:0:
448,192,389347,1,0,0:0:0:0:
320,192,389347,1,0,0:0:0:0:
192,192,389431,1,0,0:0:0:0:
64,192,389516,1,0,0:0:0:0:
448,192,389516,1,0,0:0:0:0:
320,192,389600,1,0,0:0:0:0:
64,192,389684,1,0,0:0:0:0:
192,192,389684,1,0,0:0:0:0:
448,192,389768,1,0,0:0:0:0:
320,192,389853,1,0,0:0:0:0:
192,192,389853,1,0,0:0:0:0:
64,192,389853,1,0,0:0:0:0:
448,192,389935,1,0,0:0:0:0:
320,192,390017,1,0,0:0:0:0:
64,192,390017,1,0,0:0:0:0:
192,192,390100,1,0,0:0:0:0:
64,192,390182,1,0,0:0:0:0:
448,192,390182,1,0,0:0:0:0:
320,192,390262,1,0,0:0:0:0:
448,192,390343,1,0,0:0:0:0:
192,192,390343,1,0,0:0:0:0:
64,192,390423,1,0,0:0:0:0:
192,192,390504,1,0,0:0:0:0:
320,192,390504,1,0,0:0:0:0:
448,192,390504,1,0,0:0:0:0:
64,192,390585,1,0,0:0:0:0:
320,192,390665,1,0,0:0:0:0:
448,192,390665,1,0,0:0:0:0:
192,192,390746,1,0,0:0:0:0:
64,192,390827,1,0,0:0:0:0:
320,192,390827,1,0,0:0:0:0:
192,192,390906,1,0,0:0:0:0:
448,192,390986,1,0,0:0:0:0:
64,192,390986,1,0,0:0:0:0:
320,192,391066,1,0,0:0:0:0:
448,192,391146,1,0,0:0:0:0:
64,192,391146,1,0,0:0:0:0:
192,192,391146,1,0,0:0:0:0:
320,192,391225,1,0,0:0:0:0:
192,192,391305,1,0,0:0:0:0:
448,192,391305,1,0,0:0:0:0:
64,192,391385,1,0,0:0:0:0:
192,192,391465,1,0,0:0:0:0:
320,192,391465,1,0,0:0:0:0:
64,192,391547,1,0,0:0:0:0:
448,192,391629,1,0,0:0:0:0:
192,192,391629,1,0,0:0:0:0:
320,192,391713,1,0,0:0:0:0:
448,192,391797,1,0,0:0:0:0:
64,192,391797,1,0,0:0:0:0:
192,192,391797,1,0,0:0:0:0:
320,192,391879,1,0,0:0:0:0:
192,192,391961,1,0,0:0:0:0:
64,192,391961,1,0,0:0:0:0:
320,192,392040,1,0,0:0:0:0:
64,192,392120,1,0,0:0:0:0:
448,192,392120,1,0,0:0:0:0:
192,192,392196,1,0,0:0:0:0:
320,192,392273,1,0,0:0:0:0:
64,192,392273,1,0,0:0:0:0:
448,192,392345,1,0,0:0:0:0:
64,192,392418,1,0,0:0:0:0:
192,192,392418,1,0,0:0:0:0:
320,192,392418,1,0,0:0:0:0:
320,192,392565,1,0,0:0:0:0:
448,192,392565,1,0,0:0:0:0:
320,192,392712,1,0,0:0:0:0:
192,192,392712,1,0,0:0:0:0:
64,192,392869,1,0,0:0:0:0:
192,192,392869,1,0,0:0:0:0:
192,192,393035,1,0,0:0:0:0:
320,192,393035,1,0,0:0:0:0:
448,192,393035,1,0,0:0:0:0:
64,192,393124,1,0,0:0:0:0:
192,192,393213,1,0,0:0:0:0:
448,192,393213,1,0,0:0:0:0:
320,192,393302,1,0,0:0:0:0:
64,192,393392,1,0,0:0:0:0:
448,192,393392,1,0,0:0:0:0:
192,192,393478,1,0,0:0:0:0:
320,192,393564,1,0,0:0:0:0:
64,192,393564,1,0,0:0:0:0:
448,192,393647,1,0,0:0:0:0:
320,192,393730,1,0,0:0:0:0:
192,192,393730,1,0,0:0:0:0:
64,192,393730,1,0,0:0:0:0:
448,192,393811,1,0,0:0:0:0:
320,192,393893,1,0,0:0:0:0:
192,192,393893,1,0,0:0:0:0:
64,192,393973,1,0,0:0:0:0:
448,192,394054,1,0,0:0:0:0:
192,192,394054,1,0,0:0:0:0:
320,192,394133,1,0,0:0:0:0:
64,192,394213,1,0,0:0:0:0:
448,192,394213,1,0,0:0:0:0:
192,192,394291,1,0,0:0:0:0:
448,192,394370,1,0,0:0:0:0:
64,192,394370,1,0,0:0:0:0:
320,192,394370,1,0,0:0:0:0:
192,192,394449,1,0,0:0:0:0:
64,192,394528,1,0,0:0:0:0:
320,192,394528,1,0,0:0:0:0:
192,192,394607,1,0,0:0:0:0:
320,192,394687,1,0,0:0:0:0:
448,192,394687,1,0,0:0:0:0:
192,192,394767,1,0,0:0:0:0:
448,192,394848,1,0,0:0:0:0:
64,192,394848,1,0,0:0:0:0:
320,192,394928,1,0,0:0:0:0:
192,192,395009,1,0,0:0:0:0:
64,192,395009,1,0,0:0:0:0:
448,192,395009,1,0,0:0:0:0:
320,192,395095,1,0,0:0:0:0:
192,192,395181,1,0,0:0:0:0:
64,192,395181,1,0,0:0:0:0:
448,192,395267,1,0,0:0:0:0:
192,192,395353,1,0,0:0:0:0:
320,192,395353,1,0,0:0:0:0:
64,192,395438,1,0,0:0:0:0:
320,192,395523,1,0,0:0:0:0:
448,192,395523,1,0,0:0:0:0:
192,192,395607,1,0,0:0:0:0:
64,192,395691,1,0,0:0:0:0:
320,192,395691,1,0,0:0:0:0:
448,192,395691,1,0,0:0:0:0:
192,192,395774,1,0,0:0:0:0:
320,192,395857,1,0,0:0:0:0:
448,192,395857,1,0,0:0:0:0:
64,192,395941,1,0,0:0:0:0:
320,192,396024,1,0,0:0:0:0:
192,192,396024,1,0,0:0:0:0:
448,192,396106,1,0,0:0:0:0:
192,192,396188,1,0,0:0:0:0:
64,192,396188,1,0,0:0:0:0:
448,192,396268,1,0,0:0:0:0:
192,192,396349,1,0,0:0:0:0:
64,192,396349,128,0,396974:0:0:0:0:
320,192,396349,1,0,0:0:0:0:
448,192,396508,1,0,0:0:0:0:
448,192,396665,1,0,0:0:0:0:
448,192,396974,1,0,0:0:0:0:
320,192,396974,1,0,0:0:0:0:
64,192,397128,1,0,0:0:0:0:
448,192,397128,1,0,0:0:0:0:
64,192,397206,1,0,0:0:0:0:
448,192,397206,1,0,0:0:0:0:
320,192,397287,1,0,0:0:0:0:
448,192,397441,1,0,0:0:0:0:
64,192,397441,1,0,0:0:0:0:
64,192,397518,1,0,0:0:0:0:
448,192,397518,1,0,0:0:0:0:
192,192,397601,1,0,0:0:0:0:
320,192,397768,1,0,0:0:0:0:
448,192,397768,1,0,0:0:0:0:
320,192,397846,1,0,0:0:0:0:
448,192,397846,1,0,0:0:0:0:
64,192,397925,1,0,0:0:0:0:
192,192,397925,1,0,0:0:0:0:
320,192,398003,1,0,0:0:0:0:
448,192,398003,1,0,0:0:0:0:
64,192,398081,1,0,0:0:0:0:
192,192,398081,1,0,0:0:0:0:
320,192,398158,1,0,0:0:0:0:
448,192,398158,1,0,0:0:0:0:
64,192,398235,1,0,0:0:0:0:
192,192,398235,1,0,0:0:0:0:
320,192,398313,1,0,0:0:0:0:
448,192,398391,1,0,0:0:0:0:
64,192,398391,1,0,0:0:0:0:
192,192,398469,1,0,0:0:0:0:
320,192,398547,1,0,0:0:0:0:
448,192,398547,1,0,0:0:0:0:
192,192,398625,1,0,0:0:0:0:
448,192,398703,1,0,0:0:0:0:
64,192,398703,1,0,0:0:0:0:
320,192,398781,1,0,0:0:0:0:
64,192,398860,1,0,0:0:0:0:
192,192,398860,1,0,0:0:0:0:
320,192,398938,1,0,0:0:0:0:
448,192,399017,1,0,0:0:0:0:
192,192,399017,1,0,0:0:0:0:
64,192,399096,1,0,0:0:0:0:
320,192,399175,1,0,0:0:0:0:
448,192,399175,1,0,0:0:0:0:
192,192,399255,1,0,0:0:0:0:
64,192,399336,1,0,0:0:0:0:
320,192,399336,1,0,0:0:0:0:
448,192,399416,1,0,0:0:0:0:
64,192,399497,1,0,0:0:0:0:
192,192,399497,1,0,0:0:0:0:
320,192,399578,1,0,0:0:0:0:
448,192,399658,1,0,0:0:0:0:
64,192,399658,1,0,0:0:0:0:
192,192,399739,1,0,0:0:0:0:
448,192,399820,1,0,0:0:0:0:
320,192,399820,1,0,0:0:0:0:
64,192,399900,1,0,0:0:0:0:
192,192,399981,1,0,0:0:0:0:
320,192,399981,1,0,0:0:0:0:
448,192,400062,1,0,0:0:0:0:
64,192,400142,1,0,0:0:0:0:
320,192,400142,1,0,0:0:0:0:
192,192,400223,1,0,0:0:0:0:
64,192,400304,1,0,0:0:0:0:
448,192,400304,1,0,0:0:0:0:
320,192,400382,1,0,0:0:0:0:
192,192,400461,1,0,0:0:0:0:
64,192,400461,1,0,0:0:0:0:
320,192,400540,1,0,0:0:0:0:
64,192,400619,1,0,0:0:0:0:
448,192,400619,1,0,0:0:0:0:
192,192,400696,1,0,0:0:0:0:
448,192,400773,1,0,0:0:0:0:
320,192,400773,1,0,0:0:0:0:
64,192,400773,1,0,0:0:0:0:
192,192,400850,1,0,0:0:0:0:
320,192,400928,1,0,0:0:0:0:
448,192,400928,1,0,0:0:0:0:
192,192,401005,1,0,0:0:0:0:
64,192,401082,1,0,0:0:0:0:
448,192,401082,1,0,0:0:0:0:
320,192,401160,1,0,0:0:0:0:
192,192,401237,1,0,0:0:0:0:
64,192,401237,1,0,0:0:0:0:
320,192,401314,1,0,0:0:0:0:
448,192,401392,1,0,0:0:0:0:
64,192,401392,1,0,0:0:0:0:
320,192,401469,1,0,0:0:0:0:
192,192,401546,1,0,0:0:0:0:
448,192,401546,1,0,0:0:0:0:
64,192,401624,1,0,0:0:0:0:
320,192,401701,1,0,0:0:0:0:
448,192,401701,1,0,0:0:0:0:
64,192,401778,1,0,0:0:0:0:
192,192,401856,1,0,0:0:0:0:
320,192,401856,1,0,0:0:0:0:
448,192,401933,1,0,0:0:0:0:
64,192,402010,1,0,0:0:0:0:
192,192,402010,1,0,0:0:0:0:
448,192,402088,1,0,0:0:0:0:
320,192,402165,1,0,0:0:0:0:
64,192,402165,1,0,0:0:0:0:
192,192,402242,1,0,0:0:0:0:
448,192,402320,1,0,0:0:0:0:
320,192,402320,1,0,0:0:0:0:
64,192,402397,1,0,0:0:0:0:
192,192,402474,1,0,0:0:0:0:
448,192,402474,1,0,0:0:0:0:
320,192,402550,1,0,0:0:0:0:
64,192,402627,1,0,0:0:0:0:
192,192,402627,1,0,0:0:0:0:
448,192,402702,1,0,0:0:0:0:
320,192,402778,1,0,0:0:0:0:
64,192,402778,1,0,0:0:0:0:
192,192,402853,1,0,0:0:0:0:
448,192,402928,1,0,0:0:0:0:
320,192,402928,1,0,0:0:0:0:
64,192,403002,1,0,0:0:0:0:
192,192,403076,1,0,0:0:0:0:
448,192,403076,1,0,0:0:0:0:
320,192,403150,1,0,0:0:0:0:
192,192,403225,1,0,0:0:0:0:
448,192,403225,1,0,0:0:0:0:
64,192,403225,1,0,0:0:0:0:
320,192,403299,1,0,0:0:0:0:
192,192,403373,1,0,0:0:0:0:
64,192,403373,1,0,0:0:0:0:
448,192,403447,1,0,0:0:0:0:
320,192,403522,1,0,0:0:0:0:
64,192,403522,1,0,0:0:0:0:
192,192,403596,1,0,0:0:0:0:
320,192,403670,1,0,0:0:0:0:
448,192,403670,1,0,0:0:0:0:
64,192,403746,1,0,0:0:0:0:
192,192,403823,1,0,0:0:0:0:
448,192,403823,1,0,0:0:0:0:
320,192,403900,1,0,0:0:0:0:
192,192,403977,1,0,0:0:0:0:
64,192,403977,1,0,0:0:0:0:
448,192,404055,1,0,0:0:0:0:
320,192,404133,1,0,0:0:0:0:
192,192,404133,1,0,0:0:0:0:
64,192,404211,1,0,0:0:0:0:
320,192,404289,1,0,0:0:0:0:
448,192,404289,1,0,0:0:0:0:
192,192,404367,1,0,0:0:0:0:
64,192,404445,1,0,0:0:0:0:
448,192,404445,1,0,0:0:0:0:
320,192,404523,1,0,0:0:0:0:
192,192,404602,1,0,0:0:0:0:
64,192,404602,1,0,0:0:0:0:
448,192,404680,1,0,0:0:0:0:
320,192,404758,1,0,0:0:0:0:
64,192,404758,1,0,0:0:0:0:
192,192,404836,1,0,0:0:0:0:
448,192,404914,1,0,0:0:0:0:
320,192,404914,1,0,0:0:0:0:
64,192,404992,1,0,0:0:0:0:
192,192,405070,1,0,0:0:0:0:
448,192,405070,1,0,0:0:0:0:
320,192,405148,1,0,0:0:0:0:
192,192,405227,1,0,0:0:0:0:
64,192,405227,1,0,0:0:0:0:
448,192,405304,1,0,0:0:0:0:
320,192,405381,1,0,0:0:0:0:
64,192,405381,1,0,0:0:0:0:
192,192,405457,1,0,0:0:0:0:
64,192,405534,1,0,0:0:0:0:
448,192,405534,1,0,0:0:0:0:
320,192,405610,1,0,0:0:0:0:
64,192,405687,1,0,0:0:0:0:
192,192,405687,1,0,0:0:0:0:
448,192,405687,1,0,0:0:0:0:
320,192,405763,1,0,0:0:0:0:
64,192,405840,1,0,0:0:0:0:
192,192,405840,1,0,0:0:0:0:
448,192,405916,1,0,0:0:0:0:
320,192,405993,1,0,0:0:0:0:
192,192,405993,1,0,0:0:0:0:
64,192,406069,1,0,0:0:0:0:
448,192,406146,1,0,0:0:0:0:
320,192,406146,1,0,0:0:0:0:
192,192,406222,1,0,0:0:0:0:
64,192,406299,1,0,0:0:0:0:
448,192,406299,1,0,0:0:0:0:
320,192,406374,1,0,0:0:0:0:
192,192,406450,1,0,0:0:0:0:
448,192,406450,1,0,0:0:0:0:
64,192,406521,1,0,0:0:0:0:
320,192,406592,1,0,0:0:0:0:
448,192,406592,1,0,0:0:0:0:
64,192,406878,1,0,0:0:0:0:
192,192,406950,1,0,0:0:0:0:
320,192,407021,1,0,0:0:0:0:
192,192,407092,1,0,0:0:0:0:
64,192,407092,1,0,0:0:0:0:
320,192,407164,1,0,0:0:0:0:
448,192,407235,1,0,0:0:0:0:
320,192,407307,1,0,0:0:0:0:
192,192,407378,1,0,0:0:0:0:
64,192,407378,1,0,0:0:0:0:
64,192,407450,1,0,0:0:0:0:
192,192,407450,1,0,0:0:0:0:
320,192,407522,1,0,0:0:0:0:
448,192,407595,1,0,0:0:0:0:
64,192,407669,1,0,0:0:0:0:
192,192,407669,1,0,0:0:0:0:
64,192,407750,1,0,0:0:0:0:
448,192,407750,1,0,0:0:0:0:
320,192,407750,1,0,0:0:0:0:
192,192,407913,1,0,0:0:0:0:
320,192,407913,1,0,0:0:0:0:
448,192,408072,1,0,0:0:0:0:
64,192,408072,1,0,0:0:0:0:
192,192,408072,1,0,0:0:0:0:
320,192,408152,1,0,0:0:0:0:
64,192,408232,1,0,0:0:0:0:
192,192,408232,1,0,0:0:0:0:
448,192,408310,1,0,0:0:0:0:
320,192,408388,1,0,0:0:0:0:
192,192,408388,1,0,0:0:0:0:
64,192,408466,1,0,0:0:0:0:
320,192,408544,1,0,0:0:0:0:
448,192,408544,1,0,0:0:0:0:
192,192,408622,1,0,0:0:0:0:
64,192,408700,1,0,0:0:0:0:
448,192,408700,1,0,0:0:0:0:
320,192,408776,1,0,0:0:0:0:
192,192,408853,1,0,0:0:0:0:
64,192,408853,1,0,0:0:0:0:
320,192,408929,1,0,0:0:0:0:
448,192,409006,1,0,0:0:0:0:
192,192,409006,1,0,0:0:0:0:
64,192,409082,1,0,0:0:0:0:
320,192,409159,1,0,0:0:0:0:
448,192,409159,1,0,0:0:0:0:
192,192,409235,1,0,0:0:0:0:
64,192,409312,1,0,0:0:0:0:
320,192,409312,1,0,0:0:0:0:
448,192,409388,1,0,0:0:0:0:
320,192,409465,1,0,0:0:0:0:
192,192,409465,1,0,0:0:0:0:
64,192,409541,1,0,0:0:0:0:
192,192,409618,1,0,0:0:0:0:
448,192,409618,1,0,0:0:0:0:
320,192,409694,1,0,0:0:0:0:
64,192,409771,1,0,0:0:0:0:
448,192,409771,1,0,0:0:0:0:
192,192,409850,1,0,0:0:0:0:
64,192,409930,1,0,0:0:0:0:
320,192,409930,1,0,0:0:0:0:
448,192,410008,1,0,0:0:0:0:
192,192,410087,1,0,0:0:0:0:
320,192,410087,1,0,0:0:0:0:
64,192,410166,1,0,0:0:0:0:
448,192,410245,1,0,0:0:0:0:
320,192,410245,1,0,0:0:0:0:
192,192,410324,1,0,0:0:0:0:
64,192,410403,1,0,0:0:0:0:
448,192,410403,1,0,0:0:0:0:
320,192,410482,1,0,0:0:0:0:
64,192,410561,1,0,0:0:0:0:
192,192,410561,1,0,0:0:0:0:
448,192,410561,1,0,0:0:0:0:
320,192,410639,1,0,0:0:0:0:
192,192,410717,1,0,0:0:0:0:
64,192,410717,1,0,0:0:0:0:
320,192,410795,1,0,0:0:0:0:
448,192,410873,1,0,0:0:0:0:
192,192,410873,1,0,0:0:0:0:
64,192,410951,1,0,0:0:0:0:
320,192,411029,1,0,0:0:0:0:
448,192,411029,1,0,0:0:0:0:
192,192,411107,1,0,0:0:0:0:
64,192,411186,1,0,0:0:0:0:
448,192,411186,1,0,0:0:0:0:
320,192,411262,1,0,0:0:0:0:
192,192,411339,1,0,0:0:0:0:
448,192,411339,1,0,0:0:0:0:
320,192,411415,1,0,0:0:0:0:
192,192,411492,1,0,0:0:0:0:
64,192,411492,1,0,0:0:0:0:
448,192,411568,1,0,0:0:0:0:
320,192,411645,1,0,0:0:0:0:
64,192,411645,1,0,0:0:0:0:
192,192,411721,1,0,0:0:0:0:
448,192,411798,1,0,0:0:0:0:
320,192,411798,1,0,0:0:0:0:
192,192,411873,1,0,0:0:0:0:
64,192,411949,1,0,0:0:0:0:
448,192,411949,1,0,0:0:0:0:
192,192,412025,1,0,0:0:0:0:
448,192,412101,1,0,0:0:0:0:
320,192,412101,1,0,0:0:0:0:
64,192,412172,1,0,0:0:0:0:
320,192,412243,1,0,0:0:0:0:
192,192,412243,1,0,0:0:0:0:
448,192,412315,1,0,0:0:0:0:
64,192,412386,1,0,0:0:0:0:
320,192,412386,1,0,0:0:0:0:
192,192,412458,1,0,0:0:0:0:
320,192,412529,1,0,0:0:0:0:
448,192,412529,1,0,0:0:0:0:
192,192,412601,1,0,0:0:0:0:
64,192,412601,1,0,0:0:0:0:
448,192,412674,1,0,0:0:0:0:
320,192,412748,1,0,0:0:0:0:
192,192,412821,1,0,0:0:0:0:
64,192,412899,1,0,0:0:0:0:
448,192,412980,1,0,0:0:0:0:
320,192,412980,1,0,0:0:0:0:
192,192,412980,1,0,0:0:0:0:
64,192,413062,1,0,0:0:0:0:
448,192,413143,1,0,0:0:0:0:
320,192,413143,1,0,0:0:0:0:
192,192,413225,1,0,0:0:0:0:
64,192,413306,1,0,0:0:0:0:
448,192,413306,1,0,0:0:0:0:
320,192,413388,1,0,0:0:0:0:
192,192,413469,1,0,0:0:0:0:
64,192,413469,1,0,0:0:0:0:
448,192,413551,1,0,0:0:0:0:
320,192,413632,1,0,0:0:0:0:
64,192,413632,1,0,0:0:0:0:
192,192,413711,1,0,0:0:0:0:
320,192,413791,1,0,0:0:0:0:
448,192,413791,1,0,0:0:0:0:
64,192,413871,1,0,0:0:0:0:
192,192,413951,1,0,0:0:0:0:
448,192,413951,1,0,0:0:0:0:
320,192,414029,1,0,0:0:0:0:
192,192,414107,1,0,0:0:0:0:
64,192,414107,1,0,0:0:0:0:
320,192,414185,1,0,0:0:0:0:
448,192,414263,1,0,0:0:0:0:
64,192,414263,1,0,0:0:0:0:
192,192,414339,1,0,0:0:0:0:
320,192,414416,1,0,0:0:0:0:
448,192,414416,1,0,0:0:0:0:
192,192,414492,1,0,0:0:0:0:
64,192,414569,1,0,0:0:0:0:
320,192,414569,1,0,0:0:0:0:
448,192,414645,1,0,0:0:0:0:
320,192,414722,1,0,0:0:0:0:
192,192,414722,1,0,0:0:0:0:
64,192,414798,1,0,0:0:0:0:
192,192,414875,1,0,0:0:0:0:
448,192,414875,1,0,0:0:0:0:
320,192,414950,1,0,0:0:0:0:
448,192,415025,1,0,0:0:0:0:
64,192,415025,1,0,0:0:0:0:
192,192,415100,1,0,0:0:0:0:
320,192,415175,1,0,0:0:0:0:
448,192,415175,1,0,0:0:0:0:
64,192,415250,1,0,0:0:0:0:
192,192,415325,1,0,0:0:0:0:
320,192,415325,1,0,0:0:0:0:
448,192,415400,1,0,0:0:0:0:
192,192,415475,1,0,0:0:0:0:
64,192,415475,1,0,0:0:0:0:
320,192,415550,1,0,0:0:0:0:
448,192,415625,1,0,0:0:0:0:
192,192,415625,1,0,0:0:0:0:
64,192,415700,1,0,0:0:0:0:
192,192,415775,1,0,0:0:0:0:
320,192,415775,1,0,0:0:0:0:
448,192,415850,1,0,0:0:0:0:
320,192,415925,1,0,0:0:0:0:
64,192,415925,1,0,0:0:0:0:
192,192,416000,1,0,0:0:0:0:
64,192,416075,1,0,0:0:0:0:
448,192,416075,1,0,0:0:0:0:
320,192,416075,1,0,0:0:0:0:
192,192,416150,1,0,0:0:0:0:
320,192,416225,1,0,0:0:0:0:
448,192,416225,1,0,0:0:0:0:
64,192,416300,1,0,0:0:0:0:
192,192,416375,1,0,0:0:0:0:
320,192,416375,1,0,0:0:0:0:
448,192,416375,1,0,0:0:0:0:
64,192,416448,1,0,0:0:0:0:
448,192,416522,1,0,0:0:0:0:
320,192,416522,1,0,0:0:0:0:
192,192,416612,1,0,0:0:0:0:
448,192,416702,1,0,0:0:0:0:
320,192,416702,1,0,0:0:0:0:
64,192,416702,1,0,0:0:0:0:
192,192,416793,1,0,0:0:0:0:
320,192,416880,1,0,0:0:0:0:
448,192,416960,1,0,0:0:0:0:
64,192,417038,1,0,0:0:0:0:
192,192,417038,1,0,0:0:0:0:
320,192,417038,1,0,0:0:0:0:
448,192,417113,1,0,0:0:0:0:
64,192,417189,1,0,0:0:0:0:
192,192,417261,1,0,0:0:0:0:
320,192,417334,1,0,0:0:0:0:
448,192,417334,1,0,0:0:0:0:
64,192,417334,1,0,0:0:0:0:
192,192,417406,1,0,0:0:0:0:
448,192,417478,1,0,0:0:0:0:
320,192,417550,1,0,0:0:0:0:
448,192,417622,1,0,0:0:0:0:
192,192,417622,1,0,0:0:0:0:
64,192,417622,1,0,0:0:0:0:
320,192,417694,1,0,0:0:0:0:
192,192,417766,1,0,0:0:0:0:
64,192,417843,1,0,0:0:0:0:
192,192,417922,1,0,0:0:0:0:
320,192,417922,1,0,0:0:0:0:
448,192,417922,1,0,0:0:0:0:
64,192,418000,1,0,0:0:0:0:
320,192,418079,1,0,0:0:0:0:
448,192,418079,1,0,0:0:0:0:
192,192,418158,1,0,0:0:0:0:
64,192,418237,1,0,0:0:0:0:
448,192,418237,1,0,0:0:0:0:
320,192,418316,1,0,0:0:0:0:
192,192,418395,1,0,0:0:0:0:
64,192,418395,1,0,0:0:0:0:
448,192,418474,1,0,0:0:0:0:
64,192,418553,1,0,0:0:0:0:
320,192,418553,1,0,0:0:0:0:
448,192,418631,1,0,0:0:0:0:
320,192,418709,1,0,0:0:0:0:
192,192,418709,1,0,0:0:0:0:
64,192,418787,1,0,0:0:0:0:
320,192,418865,1,0,0:0:0:0:
448,192,418865,1,0,0:0:0:0:
192,192,418943,1,0,0:0:0:0:
64,192,419021,1,0,0:0:0:0:
448,192,419021,1,0,0:0:0:0:
320,192,419099,1,0,0:0:0:0:
192,192,419178,1,0,0:0:0:0:
448,192,419178,1,0,0:0:0:0:
64,192,419255,1,0,0:0:0:0:
320,192,419332,1,0,0:0:0:0:
192,192,419332,1,0,0:0:0:0:
448,192,419409,1,0,0:0:0:0:
192,192,419487,1,0,0:0:0:0:
64,192,419487,1,0,0:0:0:0:
320,192,419564,1,0,0:0:0:0:
448,192,419641,1,0,0:0:0:0:
64,192,419641,1,0,0:0:0:0:
192,192,419719,1,0,0:0:0:0:
320,192,419796,1,0,0:0:0:0:
448,192,419796,1,0,0:0:0:0:
192,192,419873,1,0,0:0:0:0:
64,192,419951,1,0,0:0:0:0:
320,192,419951,1,0,0:0:0:0:
448,192,420028,1,0,0:0:0:0:
320,192,420105,1,0,0:0:0:0:
192,192,420105,1,0,0:0:0:0:
64,192,420183,1,0,0:0:0:0:
192,192,420260,1,0,0:0:0:0:
448,192,420260,1,0,0:0:0:0:
320,192,420337,1,0,0:0:0:0:
64,192,420415,1,0,0:0:0:0:
192,192,420415,1,0,0:0:0:0:
448,192,420492,1,0,0:0:0:0:
320,192,420569,1,0,0:0:0:0:
64,192,420569,1,0,0:0:0:0:
192,192,420647,1,0,0:0:0:0:
320,192,420724,1,0,0:0:0:0:
448,192,420724,1,0,0:0:0:0:
192,192,420801,1,0,0:0:0:0:
64,192,420879,1,0,0:0:0:0:
448,192,420879,1,0,0:0:0:0:
320,192,420956,1,0,0:0:0:0:
192,192,421033,1,0,0:0:0:0:
448,192,421033,1,0,0:0:0:0:
64,192,421109,1,0,0:0:0:0:
192,192,421186,1,0,0:0:0:0:
320,192,421186,1,0,0:0:0:0:
448,192,421262,1,0,0:0:0:0:
192,192,421339,1,0,0:0:0:0:
64,192,421339,1,0,0:0:0:0:
320,192,421415,1,0,0:0:0:0:
448,192,421492,1,0,0:0:0:0:
64,192,421492,1,0,0:0:0:0:
192,192,421567,1,0,0:0:0:0:
320,192,421643,1,0,0:0:0:0:
64,192,421643,1,0,0:0:0:0:
448,192,421734,1,0,0:0:0:0:
320,192,421825,1,0,0:0:0:0:
192,192,421825,1,0,0:0:0:0:
64,192,421917,1,0,0:0:0:0:
192,192,422008,1,0,0:0:0:0:
448,192,422008,1,0,0:0:0:0:
320,192,422112,1,0,0:0:0:0:
192,192,422216,1,0,0:0:0:0:
64,192,422320,1,0,0:0:0:0:
448,192,422424,1,0,0:0:0:0:
320,192,422424,1,0,0:0:0:0:
448,192,422505,1,0,0:0:0:0:
320,192,422505,1,0,0:0:0:0:
192,192,422577,1,0,0:0:0:0:
64,192,422577,1,0,0:0:0:0:
320,192,422677,1,0,0:0:0:0:
448,192,422677,1,0,0:0:0:0:
192,192,422797,1,0,0:0:0:0:
320,192,422797,1,0,0:0:0:0:
448,192,422797,1,0,0:0:0:0:
64,192,422897,1,0,0:0:0:0:
192,192,422986,1,0,0:0:0:0:
320,192,422986,1,0,0:0:0:0:
448,192,423069,1,0,0:0:0:0:
64,192,423146,1,0,0:0:0:0:
192,192,423146,1,0,0:0:0:0:
320,192,423223,1,0,0:0:0:0:
448,192,423300,1,0,0:0:0:0:
64,192,423300,1,0,0:0:0:0:
192,192,423375,1,0,0:0:0:0:
320,192,423451,1,0,0:0:0:0:
448,192,423451,1,0,0:0:0:0:
192,192,423527,1,0,0:0:0:0:
64,192,423603,1,0,0:0:0:0:
320,192,423603,1,0,0:0:0:0:
448,192,423678,1,0,0:0:0:0:
192,192,423754,1,0,0:0:0:0:
320,192,423754,1,0,0:0:0:0:
64,192,423830,1,0,0:0:0:0:
192,192,423906,1,0,0:0:0:0:
448,192,423906,1,0,0:0:0:0:
320,192,423981,1,0,0:0:0:0:
448,192,424057,1,0,0:0:0:0:
64,192,424057,1,0,0:0:0:0:
192,192,424133,1,0,0:0:0:0:
64,192,424209,1,0,0:0:0:0:
320,192,424209,1,0,0:0:0:0:
192,192,424284,1,0,0:0:0:0:
448,192,424360,1,0,0:0:0:0:
320,192,424360,1,0,0:0:0:0:
64,192,424436,1,0,0:0:0:0:
192,192,424513,1,0,0:0:0:0:
448,192,424513,1,0,0:0:0:0:
320,192,424589,1,0,0:0:0:0:
64,192,424666,1,0,0:0:0:0:
192,192,424666,1,0,0:0:0:0:
448,192,424743,1,0,0:0:0:0:
192,192,424820,1,0,0:0:0:0:
320,192,424820,1,0,0:0:0:0:
64,192,424897,1,0,0:0:0:0:
192,192,424975,1,0,0:0:0:0:
448,192,424975,1,0,0:0:0:0:
320,192,425052,1,0,0:0:0:0:
448,192,425129,1,0,0:0:0:0:
64,192,425129,1,0,0:0:0:0:
192,192,425207,1,0,0:0:0:0:
320,192,425284,1,0,0:0:0:0:
64,192,425284,1,0,0:0:0:0:
448,192,425361,1,0,0:0:0:0:
320,192,425439,1,0,0:0:0:0:
192,192,425439,1,0,0:0:0:0:
64,192,425516,1,0,0:0:0:0:
448,192,425593,1,0,0:0:0:0:
320,192,425593,1,0,0:0:0:0:
192,192,425668,1,0,0:0:0:0:
64,192,425744,1,0,0:0:0:0:
448,192,425744,1,0,0:0:0:0:
320,192,425820,1,0,0:0:0:0:
192,192,425896,1,0,0:0:0:0:
64,192,425896,1,0,0:0:0:0:
448,192,425971,1,0,0:0:0:0:
320,192,426047,1,0,0:0:0:0:
192,192,426047,1,0,0:0:0:0:
64,192,426122,1,0,0:0:0:0:
448,192,426197,1,0,0:0:0:0:
192,192,426197,1,0,0:0:0:0:
320,192,426269,1,0,0:0:0:0:
64,192,426341,1,0,0:0:0:0:
448,192,426341,1,0,0:0:0:0:
192,192,426413,1,0,0:0:0:0:
320,192,426485,1,0,0:0:0:0:
448,192,426485,1,0,0:0:0:0:
192,192,426556,1,0,0:0:0:0:
64,192,426556,1,0,0:0:0:0:
320,192,426627,1,0,0:0:0:0:
448,192,426627,1,0,0:0:0:0:
64,192,426697,1,0,0:0:0:0:
192,192,426697,1,0,0:0:0:0:
320,192,426767,1,0,0:0:0:0:
448,192,426767,1,0,0:0:0:0:
192,192,426835,1,0,0:0:0:0:
64,192,426835,1,0,0:0:0:0:
320,192,426904,1,0,0:0:0:0:
448,192,426904,1,0,0:0:0:0:
192,192,426971,1,0,0:0:0:0:
64,192,426971,1,0,0:0:0:0:
448,192,427039,1,0,0:0:0:0:
320,192,427039,1,0,0:0:0:0:
192,192,427106,1,0,0:0:0:0:
64,192,427106,1,0,0:0:0:0:
320,192,427174,1,0,0:0:0:0:
448,192,427174,1,0,0:0:0:0:
192,192,427245,1,0,0:0:0:0:
448,192,427328,1,0,0:0:0:0:
64,192,427328,1,0,0:0:0:0:
320,192,427328,1,0,0:0:0:0:
192,192,427495,1,0,0:0:0:0:
64,192,427495,1,0,0:0:0:0:
320,192,427646,1,0,0:0:0:0:
448,192,427646,1,0,0:0:0:0:
64,192,427646,1,0,0:0:0:0:
192,192,427718,1,0,0:0:0:0:
64,192,427791,1,0,0:0:0:0:
448,192,427791,1,0,0:0:0:0:
320,192,427864,1,0,0:0:0:0:
192,192,427937,1,0,0:0:0:0:
64,192,427937,1,0,0:0:0:0:
448,192,428010,1,0,0:0:0:0:
320,192,428082,1,0,0:0:0:0:
192,192,428082,1,0,0:0:0:0:
64,192,428155,1,0,0:0:0:0:
320,192,428228,1,0,0:0:0:0:
448,192,428228,1,0,0:0:0:0:
192,192,428301,1,0,0:0:0:0:
64,192,428375,1,0,0:0:0:0:
448,192,428375,1,0,0:0:0:0:
320,192,428448,1,0,0:0:0:0:
192,192,428522,1,0,0:0:0:0:
64,192,428522,1,0,0:0:0:0:
320,192,428597,1,0,0:0:0:0:
192,192,428672,1,0,0:0:0:0:
448,192,428672,1,0,0:0:0:0:
64,192,428751,1,0,0:0:0:0:
192,192,428831,1,0,0:0:0:0:
448,192,428831,1,0,0:0:0:0:
320,192,428911,1,0,0:0:0:0:
192,192,428991,1,0,0:0:0:0:
64,192,428991,1,0,0:0:0:0:
448,192,429070,1,0,0:0:0:0:
64,192,429150,1,0,0:0:0:0:
320,192,429150,1,0,0:0:0:0:
192,192,429228,1,0,0:0:0:0:
320,192,429306,1,0,0:0:0:0:
448,192,429306,1,0,0:0:0:0:
192,192,429383,1,0,0:0:0:0:
64,192,429460,1,0,0:0:0:0:
448,192,429460,1,0,0:0:0:0:
320,192,429537,1,0,0:0:0:0:
64,192,429615,1,0,0:0:0:0:
192,192,429615,1,0,0:0:0:0:
320,192,429692,1,0,0:0:0:0:
448,192,429769,1,0,0:0:0:0:
192,192,429769,1,0,0:0:0:0:
64,192,429847,1,0,0:0:0:0:
320,192,429924,1,0,0:0:0:0:
448,192,429924,1,0,0:0:0:0:
192,192,430001,1,0,0:0:0:0:
320,192,430079,1,0,0:0:0:0:
64,192,430079,1,0,0:0:0:0:
448,192,430079,1,0,0:0:0:0:
192,192,430157,1,0,0:0:0:0:
64,192,430235,1,0,0:0:0:0:
320,192,430235,1,0,0:0:0:0:
448,192,430313,1,0,0:0:0:0:
192,192,430391,1,0,0:0:0:0:
64,192,430391,1,0,0:0:0:0:
320,192,430469,1,0,0:0:0:0:
448,192,430547,1,0,0:0:0:0:
192,192,430547,1,0,0:0:0:0:
64,192,430623,1,0,0:0:0:0:
320,192,430700,1,0,0:0:0:0:
448,192,430700,1,0,0:0:0:0:
192,192,430768,1,0,0:0:0:0:
64,192,430836,1,0,0:0:0:0:
448,192,430836,1,0,0:0:0:0:
320,192,430904,1,0,0:0:0:0:
192,192,430972,1,0,0:0:0:0:
64,192,430972,1,0,0:0:0:0:
192,192,431305,1,0,0:0:0:0:
64,192,431305,1,0,0:0:0:0:
448,192,431305,1,0,0:0:0:0:
64,192,431479,1,0,0:0:0:0:
192,192,431479,1,0,0:0:0:0:
448,192,431647,1,0,0:0:0:0:
320,192,431647,1,0,0:0:0:0:
64,192,431647,1,0,0:0:0:0:
320,192,431803,1,0,0:0:0:0:
448,192,431803,1,0,0:0:0:0:
192,192,432037,1,0,0:0:0:0:
64,192,432037,1,0,0:0:0:0:
192,192,432107,1,0,0:0:0:0:
64,192,432107,1,0,0:0:0:0:
320,192,432178,1,0,0:0:0:0:
448,192,432178,1,0,0:0:0:0:
192,192,432303,1,0,0:0:0:0:
64,192,432303,1,0,0:0:0:0:
320,192,432428,1,0,0:0:0:0:
448,192,432428,1,0,0:0:0:0:
64,192,432428,1,0,0:0:0:0:
192,192,432506,1,0,0:0:0:0:
448,192,432585,1,0,0:0:0:0:
320,192,432585,1,0,0:0:0:0:
64,192,432662,1,0,0:0:0:0:
192,192,432739,1,0,0:0:0:0:
320,192,432739,1,0,0:0:0:0:
448,192,432817,1,0,0:0:0:0:
192,192,432895,1,0,0:0:0:0:
64,192,432895,1,0,0:0:0:0:
320,192,432973,1,0,0:0:0:0:
448,192,433051,1,0,0:0:0:0:
64,192,433051,1,0,0:0:0:0:
192,192,433129,1,0,0:0:0:0:
320,192,433207,1,0,0:0:0:0:
64,192,433207,1,0,0:0:0:0:
448,192,433284,1,0,0:0:0:0:
320,192,433361,1,0,0:0:0:0:
192,192,433361,1,0,0:0:0:0:
64,192,433438,1,0,0:0:0:0:
192,192,433516,1,0,0:0:0:0:
448,192,433516,1,0,0:0:0:0:
320,192,433593,1,0,0:0:0:0:
448,192,433670,1,0,0:0:0:0:
64,192,433670,1,0,0:0:0:0:
192,192,433748,1,0,0:0:0:0:
320,192,433825,1,0,0:0:0:0:
448,192,433825,1,0,0:0:0:0:
64,192,433902,1,0,0:0:0:0:
192,192,433980,1,0,0:0:0:0:
320,192,433980,1,0,0:0:0:0:
448,192,434057,1,0,0:0:0:0:
64,192,434134,1,0,0:0:0:0:
192,192,434134,1,0,0:0:0:0:
320,192,434212,1,0,0:0:0:0:
448,192,434289,1,0,0:0:0:0:
64,192,434289,1,0,0:0:0:0:
192,192,434366,1,0,0:0:0:0:
320,192,434444,1,0,0:0:0:0:
448,192,434444,1,0,0:0:0:0:
64,192,434520,1,0,0:0:0:0:
192,192,434597,1,0,0:0:0:0:
448,192,434597,1,0,0:0:0:0:
320,192,434672,1,0,0:0:0:0:
192,192,434748,1,0,0:0:0:0:
64,192,434748,1,0,0:0:0:0:
320,192,434824,1,0,0:0:0:0:
448,192,434900,1,0,0:0:0:0:
64,192,434900,1,0,0:0:0:0:
192,192,434975,1,0,0:0:0:0:
64,192,435050,1,0,0:0:0:0:
320,192,435050,1,0,0:0:0:0:
448,192,435125,1,0,0:0:0:0:
320,192,435200,1,0,0:0:0:0:
192,192,435200,1,0,0:0:0:0:
64,192,435271,1,0,0:0:0:0:
448,192,435342,1,0,0:0:0:0:
320,192,435342,1,0,0:0:0:0:
192,192,435414,1,0,0:0:0:0:
448,192,435485,1,0,0:0:0:0:
64,192,435485,1,0,0:0:0:0:
192,192,435554,1,0,0:0:0:0:
320,192,435623,1,0,0:0:0:0:
64,192,435623,1,0,0:0:0:0:
448,192,435691,1,0,0:0:0:0:
320,192,435759,1,0,0:0:0:0:
192,192,435759,1,0,0:0:0:0:
64,192,435826,1,0,0:0:0:0:
448,192,435894,1,0,0:0:0:0:
192,192,435894,1,0,0:0:0:0:
320,192,435969,1,0,0:0:0:0:
64,192,436044,1,0,0:0:0:0:
192,192,436044,1,0,0:0:0:0:
448,192,436044,1,0,0:0:0:0:
320,192,436198,1,0,0:0:0:0:
448,192,436198,1,0,0:0:0:0:
192,192,436278,1,0,0:0:0:0:
64,192,436278,1,0,0:0:0:0:
320,192,436359,1,0,0:0:0:0:
448,192,436359,1,0,0:0:0:0:
64,192,436437,1,0,0:0:0:0:
192,192,436437,1,0,0:0:0:0:
320,192,436515,1,0,0:0:0:0:
448,192,436515,1,0,0:0:0:0:
64,192,436590,1,0,0:0:0:0:
192,192,436590,1,0,0:0:0:0:
448,192,436666,1,0,0:0:0:0:
320,192,436742,1,0,0:0:0:0:
192,192,436818,1,0,0:0:0:0:
64,192,436892,1,0,0:0:0:0:
448,192,436966,1,0,0:0:0:0:
320,192,436966,1,0,0:0:0:0:
192,192,437038,1,0,0:0:0:0:
64,192,437038,1,0,0:0:0:0:
320,192,437111,1,0,0:0:0:0:
448,192,437111,1,0,0:0:0:0:
192,192,437182,1,0,0:0:0:0:
320,192,437261,1,0,0:0:0:0:
448,192,437261,1,0,0:0:0:0:
64,192,437261,1,0,0:0:0:0:
192,192,437338,1,0,0:0:0:0:
320,192,437415,1,0,0:0:0:0:
64,192,437415,1,0,0:0:0:0:
448,192,437492,1,0,0:0:0:0:
320,192,437570,1,0,0:0:0:0:
192,192,437570,1,0,0:0:0:0:
64,192,437570,1,0,0:0:0:0:
448,192,437647,1,0,0:0:0:0:
64,192,437724,1,0,0:0:0:0:
192,192,437724,1,0,0:0:0:0:
320,192,437802,1,0,0:0:0:0:
192,192,437879,1,0,0:0:0:0:
448,192,437879,1,0,0:0:0:0:
320,192,437956,1,0,0:0:0:0:
448,192,438034,1,0,0:0:0:0:
64,192,438034,1,0,0:0:0:0:
192,192,438112,1,0,0:0:0:0:
320,192,438190,1,0,0:0:0:0:
64,192,438190,1,0,0:0:0:0:
448,192,438190,1,0,0:0:0:0:
192,192,438268,1,0,0:0:0:0:
320,192,438346,1,0,0:0:0:0:
448,192,438346,1,0,0:0:0:0:
64,192,438424,1,0,0:0:0:0:
192,192,438502,1,0,0:0:0:0:
320,192,438502,1,0,0:0:0:0:
448,192,438579,1,0,0:0:0:0:
192,192,438656,1,0,0:0:0:0:
64,192,438656,1,0,0:0:0:0:
320,192,438733,1,0,0:0:0:0:
448,192,438811,1,0,0:0:0:0:
64,192,438811,1,0,0:0:0:0:
192,192,438811,1,0,0:0:0:0:
320,192,438887,1,0,0:0:0:0:
448,192,438964,1,0,0:0:0:0:
64,192,438964,1,0,0:0:0:0:
192,192,439040,1,0,0:0:0:0:
320,192,439117,1,0,0:0:0:0:
448,192,439117,1,0,0:0:0:0:
64,192,439192,1,0,0:0:0:0:
192,192,439268,1,0,0:0:0:0:
448,192,439268,1,0,0:0:0:0:
320,192,439344,1,0,0:0:0:0:
192,192,439420,1,0,0:0:0:0:
64,192,439420,1,0,0:0:0:0:
448,192,439420,1,0,0:0:0:0:
320,192,439495,1,0,0:0:0:0:
64,192,439570,1,0,0:0:0:0:
192,192,439570,1,0,0:0:0:0:
448,192,439645,1,0,0:0:0:0:
320,192,439720,1,0,0:0:0:0:
64,192,439720,1,0,0:0:0:0:
192,192,439795,1,0,0:0:0:0:
320,192,439870,1,0,0:0:0:0:
448,192,439870,1,0,0:0:0:0:
64,192,439945,1,0,0:0:0:0:
192,192,440020,1,0,0:0:0:0:
320,192,440020,1,0,0:0:0:0:
448,192,440020,1,0,0:0:0:0:
64,192,440095,1,0,0:0:0:0:
192,192,440171,1,0,0:0:0:0:
448,192,440171,1,0,0:0:0:0:
320,192,440247,1,0,0:0:0:0:
64,192,440323,1,0,0:0:0:0:
448,192,440323,1,0,0:0:0:0:
192,192,440398,1,0,0:0:0:0:
320,192,440474,1,0,0:0:0:0:
64,192,440474,1,0,0:0:0:0:
448,192,440550,1,0,0:0:0:0:
192,192,440626,1,0,0:0:0:0:
64,192,440626,1,0,0:0:0:0:
320,192,440626,1,0,0:0:0:0:
448,192,440701,1,0,0:0:0:0:
192,192,440777,1,0,0:0:0:0:
64,192,440777,1,0,0:0:0:0:
320,192,440853,1,0,0:0:0:0:
448,192,440929,1,0,0:0:0:0:
192,192,440929,1,0,0:0:0:0:
320,192,441004,1,0,0:0:0:0:
448,192,441080,1,0,0:0:0:0:
64,192,441080,1,0,0:0:0:0:
192,192,441156,1,0,0:0:0:0:
320,192,441233,1,0,0:0:0:0:
448,192,441233,1,0,0:0:0:0:
64,192,441233,1,0,0:0:0:0:
192,192,441310,1,0,0:0:0:0:
320,192,441387,1,0,0:0:0:0:
448,192,441387,1,0,0:0:0:0:
64,192,441464,1,0,0:0:0:0:
320,192,441542,1,0,0:0:0:0:
192,192,441542,1,0,0:0:0:0:
64,192,441619,1,0,0:0:0:0:
448,192,441696,1,0,0:0:0:0:
192,192,441696,1,0,0:0:0:0:
320,192,441774,1,0,0:0:0:0:
64,192,441852,1,0,0:0:0:0:
192,192,441852,1,0,0:0:0:0:
320,192,441930,1,0,0:0:0:0:
64,192,442008,1,0,0:0:0:0:
448,192,442008,1,0,0:0:0:0:
192,192,442086,1,0,0:0:0:0:
320,192,442164,1,0,0:0:0:0:
64,192,442164,1,0,0:0:0:0:
448,192,442164,1,0,0:0:0:0:
192,192,442242,1,0,0:0:0:0:
320,192,442321,1,0,0:0:0:0:
448,192,442321,1,0,0:0:0:0:
64,192,442399,1,0,0:0:0:0:
320,192,442477,1,0,0:0:0:0:
192,192,442477,1,0,0:0:0:0:
448,192,442477,1,0,0:0:0:0:
64,192,442555,1,0,0:0:0:0:
192,192,442633,1,0,0:0:0:0:
448,192,442633,1,0,0:0:0:0:
320,192,442711,1,0,0:0:0:0:
192,192,442789,1,0,0:0:0:0:
64,192,442789,1,0,0:0:0:0:
448,192,442866,1,0,0:0:0:0:
320,192,442943,1,0,0:0:0:0:
64,192,442943,1,0,0:0:0:0:
192,192,443020,1,0,0:0:0:0:
320,192,443098,1,0,0:0:0:0:
448,192,443098,1,0,0:0:0:0:
64,192,443098,1,0,0:0:0:0:
192,192,443176,1,0,0:0:0:0:
320,192,443255,1,0,0:0:0:0:
448,192,443255,1,0,0:0:0:0:
64,192,443334,1,0,0:0:0:0:
192,192,443413,1,0,0:0:0:0:
320,192,443413,1,0,0:0:0:0:
64,192,443492,1,0,0:0:0:0:
448,192,443571,1,0,0:0:0:0:
192,192,443571,1,0,0:0:0:0:
320,192,443650,1,0,0:0:0:0:
192,192,443729,1,0,0:0:0:0:
448,192,443729,1,0,0:0:0:0:
64,192,443729,1,0,0:0:0:0:
320,192,443804,1,0,0:0:0:0:
64,192,443880,1,0,0:0:0:0:
192,192,443880,1,0,0:0:0:0:
448,192,443956,1,0,0:0:0:0:
320,192,444032,1,0,0:0:0:0:
64,192,444032,1,0,0:0:0:0:
448,192,444106,1,0,0:0:0:0:
320,192,444180,1,0,0:0:0:0:
192,192,444180,1,0,0:0:0:0:
64,192,444253,1,0,0:0:0:0:
448,192,444327,1,0,0:0:0:0:
320,192,444327,1,0,0:0:0:0:
192,192,444327,1,0,0:0:0:0:
64,192,444400,1,0,0:0:0:0:
448,192,444474,1,0,0:0:0:0:
320,192,444474,1,0,0:0:0:0:
192,192,444547,1,0,0:0:0:0:
448,192,444621,1,0,0:0:0:0:
64,192,444621,1,0,0:0:0:0:
320,192,444694,1,0,0:0:0:0:
192,192,444768,1,0,0:0:0:0:
64,192,444768,1,0,0:0:0:0:
320,192,444841,1,0,0:0:0:0:
192,192,444915,1,0,0:0:0:0:
448,192,444915,1,0,0:0:0:0:
64,192,444915,1,0,0:0:0:0:
320,192,444990,1,0,0:0:0:0:
448,192,445066,1,0,0:0:0:0:
64,192,445066,1,0,0:0:0:0:
192,192,445144,1,0,0:0:0:0:
448,192,445223,1,0,0:0:0:0:
320,192,445223,1,0,0:0:0:0:
64,192,445300,1,0,0:0:0:0:
192,192,445377,1,0,0:0:0:0:
320,192,445377,1,0,0:0:0:0:
448,192,445454,1,0,0:0:0:0:
64,192,445532,1,0,0:0:0:0:
192,192,445532,1,0,0:0:0:0:
320,192,445532,1,0,0:0:0:0:
64,192,445685,1,0,0:0:0:0:
320,192,445685,1,0,0:0:0:0:
448,192,445685,1,0,0:0:0:0:
320,192,445838,1,0,0:0:0:0:
192,192,445838,1,0,0:0:0:0:
64,192,445838,1,0,0:0:0:0:
192,192,445989,1,0,0:0:0:0:
64,192,445989,1,0,0:0:0:0:
320,192,446063,1,0,0:0:0:0:
448,192,446063,1,0,0:0:0:0:
64,192,446137,1,0,0:0:0:0:
192,192,446137,1,0,0:0:0:0:
320,192,446211,1,0,0:0:0:0:
192,192,446286,1,0,0:0:0:0:
64,192,446286,1,0,0:0:0:0:
448,192,446286,1,0,0:0:0:0:
448,192,446434,1,0,0:0:0:0:
320,192,446434,1,0,0:0:0:0:
64,192,446506,1,0,0:0:0:0:
192,192,446506,1,0,0:0:0:0:
320,192,446579,1,0,0:0:0:0:
448,192,446579,1,0,0:0:0:0:
64,192,446652,1,0,0:0:0:0:
192,192,446725,1,0,0:0:0:0:
320,192,446725,1,0,0:0:0:0:
448,192,446725,1,0,0:0:0:0:
64,192,446876,1,0,0:0:0:0:
192,192,446876,1,0,0:0:0:0:
320,192,446955,1,0,0:0:0:0:
192,192,447035,1,0,0:0:0:0:
64,192,447035,1,0,0:0:0:0:
448,192,447035,1,0,0:0:0:0:
320,192,447115,1,0,0:0:0:0:
64,192,447195,1,0,0:0:0:0:
448,192,447195,1,0,0:0:0:0:
192,192,447273,1,0,0:0:0:0:
320,192,447352,1,0,0:0:0:0:
448,192,447352,1,0,0:0:0:0:
64,192,447352,1,0,0:0:0:0:
192,192,447430,1,0,0:0:0:0:
320,192,447508,1,0,0:0:0:0:
448,192,447508,1,0,0:0:0:0:
64,192,447586,1,0,0:0:0:0:
320,192,447664,1,0,0:0:0:0:
192,192,447664,1,0,0:0:0:0:
448,192,447742,1,0,0:0:0:0:
64,192,447820,1,0,0:0:0:0:
192,192,447820,1,0,0:0:0:0:
448,192,447898,1,0,0:0:0:0:
64,192,447977,1,0,0:0:0:0:
320,192,447977,1,0,0:0:0:0:
192,192,447977,1,0,0:0:0:0:
448,192,448055,1,0,0:0:0:0:
64,192,448133,1,0,0:0:0:0:
320,192,448133,1,0,0:0:0:0:
192,192,448210,1,0,0:0:0:0:
448,192,448287,1,0,0:0:0:0:
320,192,448287,1,0,0:0:0:0:
192,192,448363,1,0,0:0:0:0:
448,192,448440,1,0,0:0:0:0:
64,192,448440,1,0,0:0:0:0:
320,192,448516,1,0,0:0:0:0:
64,192,448593,1,0,0:0:0:0:
192,192,448593,1,0,0:0:0:0:
448,192,448593,1,0,0:0:0:0:
320,192,448668,1,0,0:0:0:0:
192,192,448744,1,0,0:0:0:0:
64,192,448744,1,0,0:0:0:0:
448,192,448820,1,0,0:0:0:0:
320,192,448896,1,0,0:0:0:0:
192,192,448896,1,0,0:0:0:0:
448,192,448971,1,0,0:0:0:0:
320,192,449046,1,0,0:0:0:0:
64,192,449046,1,0,0:0:0:0:
192,192,449121,1,0,0:0:0:0:
448,192,449196,1,0,0:0:0:0:
64,192,449196,1,0,0:0:0:0:
320,192,449196,1,0,0:0:0:0:
192,192,449271,1,0,0:0:0:0:
64,192,449347,1,0,0:0:0:0:
448,192,449347,1,0,0:0:0:0:
320,192,449423,1,0,0:0:0:0:
192,192,449499,1,0,0:0:0:0:
448,192,449499,1,0,0:0:0:0:
320,192,449574,1,0,0:0:0:0:
192,192,449649,1,0,0:0:0:0:
64,192,449649,1,0,0:0:0:0:
448,192,449724,1,0,0:0:0:0:
320,192,449799,1,0,0:0:0:0:
64,192,449799,1,0,0:0:0:0:
192,192,449799,1,0,0:0:0:0:
448,192,449874,1,0,0:0:0:0:
320,192,449950,1,0,0:0:0:0:
64,192,449950,1,0,0:0:0:0:
192,192,450026,1,0,0:0:0:0:
64,192,450102,1,0,0:0:0:0:
448,192,450102,1,0,0:0:0:0:
192,192,450177,1,0,0:0:0:0:
320,192,450253,1,0,0:0:0:0:
448,192,450253,1,0,0:0:0:0:
64,192,450329,1,0,0:0:0:0:
192,192,450405,1,0,0:0:0:0:
320,192,450405,1,0,0:0:0:0:
448,192,450405,1,0,0:0:0:0:
64,192,450480,1,0,0:0:0:0:
320,192,450556,1,0,0:0:0:0:
192,192,450556,1,0,0:0:0:0:
448,192,450632,1,0,0:0:0:0:
64,192,450708,1,0,0:0:0:0:
192,192,450708,1,0,0:0:0:0:
320,192,450783,1,0,0:0:0:0:
448,192,450859,1,0,0:0:0:0:
64,192,450859,1,0,0:0:0:0:
192,192,450935,1,0,0:0:0:0:
320,192,451011,1,0,0:0:0:0:
448,192,451011,1,0,0:0:0:0:
64,192,451011,1,0,0:0:0:0:
192,192,451086,1,0,0:0:0:0:
320,192,451161,1,0,0:0:0:0:
448,192,451161,1,0,0:0:0:0:
192,192,451236,1,0,0:0:0:0:
64,192,451311,1,0,0:0:0:0:
448,192,451311,1,0,0:0:0:0:
320,192,451386,1,0,0:0:0:0:
192,192,451461,1,0,0:0:0:0:
64,192,451461,1,0,0:0:0:0:
320,192,451536,1,0,0:0:0:0:
192,192,451629,1,0,0:0:0:0:
64,192,451629,1,0,0:0:0:0:
448,192,451704,1,0,0:0:0:0:
320,192,451779,1,0,0:0:0:0:
192,192,451779,1,0,0:0:0:0:
64,192,451854,1,0,0:0:0:0:
448,192,451929,1,0,0:0:0:0:
320,192,451929,1,0,0:0:0:0:
192,192,451929,1,0,0:0:0:0:
64,192,452004,1,0,0:0:0:0:
448,192,452079,1,0,0:0:0:0:
320,192,452079,1,0,0:0:0:0:
192,192,452154,1,0,0:0:0:0:
64,192,452229,1,0,0:0:0:0:
320,192,452229,1,0,0:0:0:0:
448,192,452229,1,0,0:0:0:0:
192,192,452304,1,0,0:0:0:0:
64,192,452379,1,0,0:0:0:0:
448,192,452379,1,0,0:0:0:0:
320,192,452436,1,0,0:0:0:0:
192,192,452529,1,0,0:0:0:0:
64,192,452529,1,0,0:0:0:0:
320,192,452605,1,0,0:0:0:0:
448,192,452680,1,0,0:0:0:0:
192,192,452680,1,0,0:0:0:0:
64,192,452756,1,0,0:0:0:0:
192,192,452832,1,0,0:0:0:0:
320,192,452832,1,0,0:0:0:0:
448,192,452832,1,0,0:0:0:0:
