osu file format v14

[General]
AudioFilename: audio.mp3
AudioLeadIn: 0
PreviewTime: 22938
Countdown: 1
SampleSet: Soft
StackLeniency: 0.2
Mode: 1
LetterboxInBreaks: 0
WidescreenStoryboard: 1

[Editor]
DistanceSpacing: 0.8
BeatDivisor: 4
GridSize: 32
TimelineZoom: 2.499999

[Metadata]
Title:Orange file
TitleUnicode:Orange file
Artist:Deadmau5
ArtistUnicode:Deadmau5
Creator:[Hypotato]
Version:Muzukashii
Source:
Tags:drum and bass dead mau5 dnb
BeatmapID:1673718
BeatmapSetID:796916

[Difficulty]
HPDrainRate:4
CircleSize:5
OverallDifficulty:4.5
ApproachRate:7
SliderMultiplier:1.4
SliderTickRate:1

[Events]
//Background and Video events
0,0,"Deadmau5 - Orange File %Background2%.jpg",0,0
//Break Periods
//Storyboard Layer 0 (Background)
//Storyboard Layer 1 (Fail)
//Storyboard Layer 2 (Pass)
//Storyboard Layer 3 (Foreground)
//Storyboard Sound Samples

[TimingPoints]
1840,329.67032967033,4,2,1,100,1,0
22938,-100,4,2,1,100,0,1
33488,-100,4,2,1,100,0,0

[HitObjects]
255,194,1840,5,0,0:0:0:0:
255,194,2169,1,8,0:0:0:0:
255,194,2334,1,0,0:0:0:0:
255,194,2664,1,8,0:0:0:0:
255,194,2829,1,8,0:0:0:0:
255,194,2993,1,8,0:0:0:0:
260,193,3158,1,0,0:0:0:0:
255,194,3488,1,8,0:0:0:0:
255,194,3653,1,0,0:0:0:0:
255,194,3982,1,8,0:0:0:0:
252,198,4147,1,0,0:0:0:0:
255,194,4477,1,8,0:0:0:0:
255,194,4724,1,8,0:0:0:0:
255,194,4971,1,8,0:0:0:0:
258,194,5136,1,8,0:0:0:0:
255,194,5301,1,0,0:0:0:0:
255,194,5466,1,8,0:0:0:0:
255,194,5631,1,0,0:0:0:0:
255,194,5796,1,0,0:0:0:0:
255,194,5960,1,0,0:0:0:0:
258,194,6125,1,8,0:0:0:0:
255,194,6372,1,8,0:0:0:0:
255,194,6620,1,8,0:0:0:0:
256,192,6785,1,0,0:0:0:0:
258,194,7114,1,0,0:0:0:0:
255,194,7444,1,8,0:0:0:0:
255,194,7609,1,0,0:0:0:0:
255,194,7938,1,8,0:0:0:0:
258,194,8103,1,8,0:0:0:0:
255,194,8268,1,8,0:0:0:0:
255,194,8433,1,0,0:0:0:0:
255,194,8763,1,8,0:0:0:0:
255,194,8927,1,0,0:0:0:0:
255,194,9257,1,8,0:0:0:0:
255,194,9422,1,0,0:0:0:0:
255,194,9587,1,0,0:0:0:0:
256,192,9752,1,0,0:0:0:0:
256,192,10081,1,8,0:0:0:0:
256,192,10246,1,0,0:0:0:0:
256,192,10576,1,8,0:0:0:0:
256,192,10741,1,8,0:0:0:0:
256,192,10905,1,8,0:0:0:0:
256,192,11070,1,0,0:0:0:0:
256,192,11235,1,0,0:0:0:0:
256,192,11400,1,0,0:0:0:0:
256,192,11565,1,0,0:0:0:0:
256,192,11730,1,8,0:0:0:0:
256,192,11894,1,0,0:0:0:0:
256,192,12059,1,8,0:0:0:0:
256,192,12224,1,8,0:0:0:0:
255,194,12389,5,0,0:0:0:0:
255,194,12718,1,8,0:0:0:0:
255,194,12883,1,0,0:0:0:0:
255,194,13213,1,8,0:0:0:0:
255,194,13378,1,8,0:0:0:0:
260,193,13707,1,0,0:0:0:0:
255,194,14037,1,8,0:0:0:0:
255,194,14202,1,0,0:0:0:0:
255,194,14531,1,8,0:0:0:0:
252,198,14696,1,0,0:0:0:0:
255,194,15026,1,8,0:0:0:0:
255,194,15273,1,8,0:0:0:0:
255,194,15520,1,8,0:0:0:0:
258,194,15685,1,8,0:0:0:0:
255,194,15850,1,0,0:0:0:0:
255,194,16015,1,8,0:0:0:0:
255,194,16180,1,0,0:0:0:0:
255,194,16345,1,0,0:0:0:0:
258,194,16674,1,8,0:0:0:0:
255,194,16921,1,8,0:0:0:0:
255,194,17169,1,8,0:0:0:0:
255,194,17334,1,0,0:0:0:0:
255,194,17498,1,0,0:0:0:0:
258,194,17663,1,0,0:0:0:0:
255,194,17993,1,8,0:0:0:0:
255,194,18158,1,0,0:0:0:0:
255,194,18487,1,8,0:0:0:0:
258,194,18652,1,8,0:0:0:0:
255,194,18817,1,8,0:0:0:0:
255,194,18982,1,0,0:0:0:0:
255,194,19312,1,8,0:0:0:0:
255,194,19476,1,0,0:0:0:0:
255,194,19806,1,8,0:0:0:0:
255,194,19971,1,0,0:0:0:0:
255,194,20136,1,0,0:0:0:0:
256,192,20301,1,0,0:0:0:0:
256,192,20630,1,8,0:0:0:0:
256,192,20795,1,0,0:0:0:0:
256,192,21125,1,8,0:0:0:0:
256,192,21290,1,8,0:0:0:0:
256,192,21454,1,8,0:0:0:0:
256,192,21619,1,0,0:0:0:0:
256,192,21784,1,0,0:0:0:0:
256,192,21949,1,0,0:0:0:0:
256,192,22114,1,0,0:0:0:0:
256,192,22279,1,8,0:0:0:0:
256,192,22443,1,0,0:0:0:0:
256,192,22608,1,8,0:0:0:0:
256,192,22691,1,2,0:0:0:0:
256,192,22773,1,8,0:0:0:0:
256,192,22938,1,0,0:0:0:0:
256,192,23268,1,8,0:0:0:0:
256,192,23433,1,0,0:0:0:0:
256,192,23763,1,8,0:0:0:0:
256,192,23927,1,8,0:0:0:0:
256,192,24092,1,8,0:0:0:0:
256,192,24257,1,0,0:0:0:0:
256,192,24587,1,8,0:0:0:0:
256,192,24752,1,0,0:0:0:0:
256,192,25081,1,8,0:0:0:0:
256,192,25246,1,0,0:0:0:0:
256,192,25411,1,0,0:0:0:0:
256,192,25576,1,8,0:0:0:0:
256,192,25905,1,0,0:0:0:0:
256,192,26070,1,8,0:0:0:0:
256,192,26400,1,0,0:0:0:0:
256,192,26565,1,8,0:0:0:0:
256,192,26730,1,0,0:0:0:0:
256,192,26894,1,8,0:0:0:0:
256,192,27224,1,8,0:0:0:0:
256,192,27389,1,0,0:0:0:0:
256,192,27719,1,8,0:0:0:0:
256,192,27883,1,0,0:0:0:0:
256,192,28048,1,8,0:0:0:0:
256,192,28213,1,0,0:0:0:0:
256,192,28543,1,8,0:0:0:0:
256,192,28708,1,0,0:0:0:0:
256,192,29037,1,8,0:0:0:0:
256,192,29202,1,8,0:0:0:0:
256,192,29367,1,8,0:0:0:0:
256,192,29532,1,0,0:0:0:0:
256,192,29861,1,8,0:0:0:0:
256,192,30026,1,0,0:0:0:0:
256,192,30356,1,8,0:0:0:0:
256,192,30521,1,0,0:0:0:0:
256,192,30686,1,0,0:0:0:0:
256,192,30850,1,8,0:0:0:0:
256,192,31180,1,8,0:0:0:0:
256,192,31510,1,8,0:0:0:0:
256,192,31675,1,0,0:0:0:0:
256,192,31840,1,8,0:0:0:0:
256,192,32004,1,0,0:0:0:0:
256,192,32169,1,0,0:0:0:0:
256,192,32499,1,8,0:0:0:0:
256,192,32746,1,8,0:0:0:0:
256,192,32993,1,8,0:0:0:0:
256,192,33158,1,8,0:0:0:0:
256,192,33241,1,2,0:0:0:0:
256,192,33323,1,8,0:0:0:0:
