osu file format v14

[General]
AudioFilename: audio.mp3
AudioLeadIn: 0
PreviewTime: 24
Countdown: 0
SampleSet: Soft
StackLeniency: 0.5
Mode: 0
LetterboxInBreaks: 0
WidescreenStoryboard: 0

[Editor]
Bookmarks: 20065
DistanceSpacing: 1.6
BeatDivisor: 4
GridSize: 8
TimelineZoom: 1.9

[Metadata]
Title:A New Era (Ringtone Ver.)
TitleUnicode:A New Era (Ringtone Ver.)
Artist:Deadlock
ArtistUnicode:Deadlock
Creator:Apo11o
Version:Desolate Hope
Source:
Tags:
BeatmapID:2051322
BeatmapSetID:980205

[Difficulty]
HPDrainRate:6
CircleSize:4
OverallDifficulty:9
ApproachRate:9.6
SliderMultiplier:1.8
SliderTickRate:1

[Events]
//Background and Video events
0,0,"bg2.jpg",0,0
//Break Periods
//Storyboard Layer 0 (Background)
//Storyboard Layer 1 (Fail)
//Storyboard Layer 2 (Pass)
//Storyboard Layer 3 (Foreground)
//Storyboard Sound Samples

[TimingPoints]
24,324.324324324324,4,2,0,100,1,0
447,344.827586206897,4,2,0,100,1,0
791,338.983050847458,4,2,0,100,1,0
791,-166.666666666667,4,2,0,100,0,0
1468,322.58064516129,4,2,0,100,1,0
10500,329.67032967033,4,2,0,100,1,0
11818,323.450134770889,4,2,0,100,1,0

[HitObjects]
154,112,24,5,0,0:0:0:0:
393,61,447,1,0,0:0:0:0:
393,61,791,2,0,L|265:66,1,107.999996704102
433,196,1468,5,0,0:0:0:0:
398,168,1548,1,0,0:0:0:0:
354,161,1629,1,0,0:0:0:0:
312,176,1709,1,0,0:0:0:0:
283,210,1790,1,0,0:0:0:0:
275,254,1871,1,0,0:0:0:0:
289,296,1951,1,0,0:0:0:0:
322,326,2032,1,0,0:0:0:0:
366,335,2113,5,0,0:0:0:0:
355,337,2193,1,0,0:0:0:0:
343,338,2274,1,0,0:0:0:0:
332,339,2354,1,0,0:0:0:0:
321,341,2435,1,0,0:0:0:0:
310,342,2516,1,0,0:0:0:0:
299,344,2596,1,0,0:0:0:0:
288,345,2677,1,0,0:0:0:0:
277,347,2758,5,0,0:0:0:0:
233,355,2838,1,0,0:0:0:0:
191,340,2919,1,0,0:0:0:0:
164,304,2999,1,0,0:0:0:0:
160,260,3080,1,0,0:0:0:0:
179,220,3161,1,0,0:0:0:0:
217,197,3241,1,0,0:0:0:0:
261,196,3322,1,0,0:0:0:0:
299,220,3403,5,0,0:0:0:0:
342,232,3483,1,0,0:0:0:0:
384,217,3564,1,0,0:0:0:0:
410,182,3644,1,0,0:0:0:0:
412,137,3726,1,0,0:0:0:0:
393,97,3806,1,0,0:0:0:0:
401,54,3887,1,0,0:0:0:0:
433,23,3967,1,0,0:0:0:0:
477,17,4048,5,0,0:0:0:0:
447,64,4128,1,0,0:0:0:0:
397,87,4209,1,0,0:0:0:0:
342,80,4289,1,0,0:0:0:0:
300,45,4371,1,0,0:0:0:0:
253,14,4451,1,0,0:0:0:0:
198,15,4532,1,0,0:0:0:0:
147,37,4612,1,0,0:0:0:0:
119,84,4693,5,0,0:0:0:0:
126,139,4773,1,0,0:0:0:0:
165,179,4854,1,0,0:0:0:0:
220,186,4935,1,0,0:0:0:0:
268,160,5016,1,0,0:0:0:0:
269,171,5096,1,0,0:0:0:0:
270,182,5177,1,0,0:0:0:0:
271,193,5257,1,0,0:0:0:0:
273,204,5338,6,0,L|279:274,1,45
361,370,5500,2,0,L|364:325,1,45
175,218,5661,2,0,L|181:288,1,45
263,384,5823,2,0,L|266:339,1,45
80,227,5984,6,0,L|24:231,1,45
205,98,6145,2,0,L|261:102,1,45
71,129,6306,2,0,L|15:133,1,45
196,0,6467,2,0,L|252:4,1,45
414,34,6629,5,0,0:0:0:0:
415,78,6709,1,0,0:0:0:0:
417,123,6790,1,0,0:0:0:0:
419,168,6870,1,0,0:0:0:0:
421,213,6951,1,0,0:0:0:0:
423,258,7032,1,0,0:0:0:0:
425,303,7113,2,0,L|338:309,1,45
138,215,7274,5,0,0:0:0:0:
181,205,7354,1,0,0:0:0:0:
222,221,7435,1,0,0:0:0:0:
246,258,7515,1,0,0:0:0:0:
245,302,7596,1,0,0:0:0:0:
220,338,7677,1,0,0:0:0:0:
178,353,7757,1,0,0:0:0:0:
135,342,7838,1,0,0:0:0:0:
106,308,7919,5,0,0:0:0:0:
139,278,8000,1,0,0:0:0:0:
179,258,8081,1,0,0:0:0:0:
223,248,8161,1,0,0:0:0:0:
268,250,8243,1,0,0:0:0:0:
313,252,8323,1,0,0:0:0:0:
357,243,8404,1,0,0:0:0:0:
397,222,8484,1,0,0:0:0:0:
430,193,8564,5,0,0:0:0:0:
429,181,8644,1,0,0:0:0:0:
429,170,8725,1,0,0:0:0:0:
429,159,8805,1,0,0:0:0:0:
429,148,8886,1,0,0:0:0:0:
428,136,8967,1,0,0:0:0:0:
428,125,9047,1,0,0:0:0:0:
428,114,9128,1,0,0:0:0:0:
429,102,9209,5,0,0:0:0:0:
398,69,9289,1,0,0:0:0:0:
357,51,9370,1,0,0:0:0:0:
312,50,9450,1,0,0:0:0:0:
271,67,9531,1,0,0:0:0:0:
239,98,9612,1,0,0:0:0:0:
207,129,9693,1,0,0:0:0:0:
165,146,9774,1,0,0:0:0:0:
121,145,9855,5,0,0:0:0:0:
138,92,9935,1,0,0:0:0:0:
121,39,10016,1,0,0:0:0:0:
76,6,10096,1,0,0:0:0:0:
21,6,10177,2,0,L|16:62,1,45
118,198,10338,2,0,L|113:153,1,45
320,61,10500,6,0,P|259:31|214:42,1,90
190,86,10747,1,0,0:0:0:0:
190,86,10829,1,0,0:0:0:0:
190,86,11159,1,0,0:0:0:0:
184,153,11241,1,0,0:0:0:0:
178,220,11325,1,0,0:0:0:0:
217,269,11408,1,0,0:0:0:0:
274,296,11490,1,0,0:0:0:0:
337,296,11572,1,0,0:0:0:0:
393,269,11655,1,0,0:0:0:0:
433,219,11737,1,0,0:0:0:0:
447,158,11818,5,0,0:0:0:0:
404,144,11898,1,0,0:0:0:0:
360,152,11979,1,0,0:0:0:0:
324,179,12060,1,0,0:0:0:0:
304,219,12141,1,0,0:0:0:0:
305,263,12222,1,0,0:0:0:0:
287,304,12302,1,0,0:0:0:0:
250,329,12383,1,0,0:0:0:0:
206,331,12464,5,0,0:0:0:0:
167,310,12545,1,0,0:0:0:0:
145,271,12626,1,0,0:0:0:0:
147,227,12707,1,0,0:0:0:0:
172,190,12788,1,0,0:0:0:0:
171,178,12868,1,0,0:0:0:0:
170,167,12949,1,0,0:0:0:0:
169,156,13030,1,0,0:0:0:0:
167,145,13111,5,0,0:0:0:0:
198,113,13191,1,0,0:0:0:0:
240,97,13272,1,0,0:0:0:0:
284,99,13353,1,0,0:0:0:0:
324,119,13435,1,0,0:0:0:0:
363,139,13515,1,0,0:0:0:0:
408,141,13596,1,0,0:0:0:0:
450,125,13677,1,0,0:0:0:0:
481,93,13758,5,0,0:0:0:0:
421,66,13838,1,0,0:0:0:0:
359,86,13919,1,0,0:0:0:0:
328,144,14000,1,0,0:0:0:0:
344,208,14082,1,0,0:0:0:0:
344,219,14162,1,0,0:0:0:0:
344,231,14243,1,0,0:0:0:0:
344,242,14324,1,0,0:0:0:0:
344,253,14405,5,0,0:0:0:0:
87,295,14567,1,0,0:0:0:0:
164,326,14729,1,0,0:0:0:0:
164,51,14890,1,0,0:0:0:0:
87,82,15052,1,0,0:0:0:0:
345,124,15214,1,0,0:0:0:0:
38,191,15375,2,0,L|140:195,1,90
357,131,15699,6,0,L|255:135,1,90
26,51,16022,1,0,0:0:0:0:
48,49,16102,1,0,0:0:0:0:
70,48,16183,1,0,0:0:0:0:
93,46,16264,1,0,0:0:0:0:
123,59,16346,1,0,0:0:0:0:
145,57,16426,1,0,0:0:0:0:
167,56,16507,1,0,0:0:0:0:
190,54,16588,1,0,0:0:0:0:
215,34,16669,1,0,0:0:0:0:
237,32,16749,1,0,0:0:0:0:
259,31,16830,1,0,0:0:0:0:
282,29,16911,1,0,0:0:0:0:
314,46,16993,6,0,P|346:107|343:166,1,90
262,320,17316,1,0,0:0:0:0:
97,236,17478,1,0,0:0:0:0:
97,236,17559,1,0,0:0:0:0:
97,236,17640,1,0,0:0:0:0:
437,244,17801,1,0,0:0:0:0:
159,348,17963,1,0,0:0:0:0:
149,86,18125,1,0,0:0:0:0:
348,277,18287,6,0,L|354:161,1,90
165,63,18610,1,0,0:0:0:0:
126,337,18772,1,0,0:0:0:0:
331,101,18933,1,0,0:0:0:0:
4,184,19095,1,0,0:0:0:0:
335,293,19257,2,0,L|329:177,1,90
37,72,19580,5,0,0:0:0:0:
76,50,19660,1,0,0:0:0:0:
120,45,19741,1,0,0:0:0:0:
163,58,19822,1,0,0:0:0:0:
197,86,19904,1,0,0:0:0:0:
231,114,19985,1,0,0:0:0:0:
274,127,20066,1,0,0:0:0:0:
318,122,20147,1,0,0:0:0:0:
357,100,20228,5,0,0:0:0:0:
335,139,20308,1,0,0:0:0:0:
330,183,20389,1,0,0:0:0:0:
343,226,20470,1,0,0:0:0:0:
371,260,20551,1,0,0:0:0:0:
409,297,20631,1,0,0:0:0:0:
403,351,20712,1,0,0:0:0:0:
357,380,20793,1,0,0:0:0:0:
306,361,20874,5,0,0:0:0:0:
277,314,20954,1,0,0:0:0:0:
229,287,21035,1,0,0:0:0:0:
173,287,21116,1,0,0:0:0:0:
125,314,21198,2,0,L|83:339,2,45
32,120,21521,1,0,0:0:0:0:
204,165,21683,1,0,0:0:0:0:
211,163,21763,1,0,0:0:0:0:
218,162,21844,1,0,0:0:0:0:
226,161,21925,1,0,0:0:0:0:
233,159,22006,1,0,0:0:0:0:
240,158,22087,1,0,0:0:0:0:
248,157,22168,1,0,0:0:0:0:
