osu file format v14

[General]
AudioFilename: wash my blood.mp3
AudioLeadIn: 0
PreviewTime: 136445
Countdown: 0
SampleSet: Soft
StackLeniency: 0.7
Mode: 2
LetterboxInBreaks: 0
WidescreenStoryboard: 1

[Editor]
Bookmarks: 74499,136445,189959,239256
DistanceSpacing: 1.2
BeatDivisor: 4
GridSize: 8
TimelineZoom: 2.4

[Metadata]
Title:Wash My Blood
TitleUnicode:Wash My Blood
Artist:DeadballP loves Megurine Luka
ArtistUnicode:デッドボールP loves 巡音ルカ
Creator:Astreachan
Version:Our Blood
Source:Vocaloid
Tags:Vocaloid murutattack _wwwww [ -Azu ] Daletto Fl4ndre Scarlet
BeatmapID:1720857
BeatmapSetID:820985

[Difficulty]
HPDrainRate:6
CircleSize:4
OverallDifficulty:9.5
ApproachRate:9.5
SliderMultiplier:1.4
SliderTickRate:1

[Events]
//Background and Video events
Video,0,"wash my blood.avi"
0,0,"wash my blood.png",0,0
//Break Periods
//Storyboard Layer 0 (Background)
//Storyboard Layer 1 (Fail)
//Storyboard Layer 2 (Pass)
//Storyboard Layer 3 (Foreground)
Sprite,Foreground,Centre,"SB\Astreachan.png",320,240 M,0,516,,99.19999,416.64 S,0,516,,0.376 R,0,516,,1.5744 F,0,516,858,0,1 F,0,858,74175,1,0.9941521 F,0,74175,74499,0.9941521,0
Sprite,Foreground,Centre,"SB\murutattack.png",320,240 M,0,74499,,426.56,88.31999 S,0,74499,,0.4623998 R,0,74499,,1.5744 F,0,74499,74824,0,1 F,0,74824,135472,1 F,0,135472,136445,1,0
Sprite,Foreground,Centre,"SB\wwwww.png",320,240 M,0,136445,,457.28,416.64 S,0,136445,,0.4144 R,0,136445,,1.574399 F,0,136770,189634,1 F,0,189634,189959,1,0
Sprite,Foreground,Centre,"SB\Azu-.png",320,240 M,0,239256,,138.5599,426.2401 S,0,239256,,0.3952004 R,0,239256,,1.5744 F,0,239256,239580,0,1 F,0,239580,269094,1 F,0,269094,271688,1,0
Sprite,Foreground,Centre,"SB\Fl4ndre Scarlet.png",320,240 M,0,189959,,70.39999,71.04 S,0,189959,,0.5200001 R,0,189959,,1.5744 F,0,189959,190283,0,1 F,0,190283,237634,1 F,0,237634,237959,1,0
//Storyboard Layer 4 (Overlay)
//Storyboard Sound Samples

[TimingPoints]
516,342.857142857143,4,1,1,60,1,0
516,-133.333333333333,4,2,1,70,0,0
10802,-100,4,1,1,70,0,0
26509,324.324324324324,4,1,1,70,1,0
34779,-50,4,1,1,70,0,0
35427,-100,4,1,1,70,0,0
39968,-50,4,1,1,70,0,0
40454,-100,4,1,1,70,0,0
74508,-100,4,1,1,70,0,1
101752,-100,4,1,1,70,0,0
103049,-100,4,1,1,70,0,1
120238,-100,4,1,1,70,0,0
121211,-100,4,1,1,70,0,1
123806,-100,4,1,1,70,0,0
136454,-76.9230769230769,4,1,1,70,0,1
136779,-100,4,1,1,70,0,1
158833,-100,4,1,1,70,0,0
161427,-100,4,1,1,70,0,0
167914,-333.333333333333,4,1,1,70,0,0
168887,-100,4,1,1,70,0,0
189968,-100,4,1,1,70,0,1
217211,-100,4,1,1,70,0,0
218508,-100,4,1,1,70,0,1
235698,-100,4,1,1,70,0,0
236671,-100,4,1,1,70,0,1
237968,-100,4,1,1,70,0,0
239265,-100,4,1,1,70,0,1
256454,-100,4,1,1,70,0,0
257427,-100,4,1,1,70,0,1
260022,-100,4,1,1,70,0,0
268454,-100,4,1,1,5,0,0

[Colours]
Combo1 : 255,128,192
Combo2 : 255,0,0

[HitObjects]
400,160,516,6,0,P|424:112|376:72,1,105.000004005432,2|0,0:0|0:0,0:0:0:0:
184,72,1201,2,0,P|152:112|192:128,1,105.000004005432,2|0,0:0|0:0,0:0:0:0:
432,128,1887,2,0,L|320:128,1,105.000004005432,2|0,0:0|0:0,0:0:0:0:
152,128,2573,2,0,L|272:128,1,105.000004005432,2|0,0:0|0:0,0:0:0:0:
456,144,3258,2,0,L|136:144,1,315.000012016297,2|2,0:0|0:0,0:0:0:0:
48,120,4630,2,0,L|432:120,1,367.500014019013,2|0,0:0|0:0,0:0:0:0:
96,216,6001,6,0,P|64:184|112:136,1,105.000004005432,2|0,0:0|0:0,0:0:0:0:
344,88,6687,2,0,P|368:104|336:176,1,105.000004005432,2|0,0:0|0:0,0:0:0:0:
112,168,7373,2,0,L|240:168,1,105.000004005432,2|0,0:0|0:0,0:0:0:0:
328,176,8058,2,0,L|208:176,1,105.000004005432,2|0,0:0|0:0,0:0:0:0:
72,176,8744,2,0,L|400:176,1,315.000012016297,2|2,0:0|0:0,0:0:0:0:
296,208,10116,2,0,L|184:208,1,105.000004005432,2|0,0:0|0:0,0:0:0:0:
376,224,10630,1,0,0:0:0:0:
144,224,10801,2,0,P|224:200|352:216,1,210.000008010865,4|12,0:0|0:0,0:0:0:0:
232,224,11830,5,0,0:0:0:0:
392,232,12516,2,0,L|304:232,1,70
114,184,13201,2,0,L|184:184,1,70
384,224,13887,2,0,L|456:224,1,70
304,200,14230,2,0,P|256:192|152:208,1,140,12|0,0:0|0:0,0:0:0:0:
392,168,15259,2,0,L|480:168,2,70
208,176,15944,2,0,L|136:176,2,70
440,208,16630,6,0,L|368:208,1,70
224,192,16973,2,0,B|144:176|144:176|80:232,1,140,12|0,0:0|0:0,0:0:0:0:
328,208,18001,6,0,L|408:208,2,70
168,184,18687,2,0,L|96:184,1,70
272,192,19373,2,0,L|352:192,1,70
240,168,19716,2,0,P|168:128|120:160,1,140,12|0,0:0|0:0,0:0:0:0:
304,200,20744,6,0,L|384:200,2,70
120,184,21430,2,0,L|40:184,2,70
320,184,22116,2,0,L|408:184,1,70
248,184,22459,5,4,0:0:0:0:
256,192,22573,12,0,31373,0:0:0:0:
88,216,31698,5,2,2:0:0:0:
256,208,31860,1,2,2:0:0:0:
448,208,32022,1,2,2:0:0:0:
256,208,32184,1,2,2:0:0:0:
128,208,32508,6,8,L|56:176,1,70
264,200,32752,1,8,0:0:0:0:
352,176,32833,1,0,0:0:0:0:
128,192,32995,6,0,L|48:184,1,70,4|0,0:0|0:0,0:0:0:0:
176,160,33319,1,8,0:0:0:0:
400,160,33481,1,0,0:0:0:0:
456,160,33643,2,0,L|368:160,1,70
312,152,33968,1,8,0:0:0:0:
176,152,34130,2,0,L|88:152,1,70
176,152,34454,1,0,0:0:0:0:
264,152,34616,1,8,0:0:0:0:
400,152,34779,6,0,L|96:152,1,280
56,152,35184,1,0,0:0:0:0:
376,104,35265,1,8,0:0:0:0:
400,128,35346,1,8,0:0:0:0:
368,152,35427,1,8,0:0:0:0:
208,160,35589,6,0,L|72:160,1,70
208,160,35914,1,8,0:0:0:0:
368,168,36076,2,0,L|416:168,2,35
256,160,36400,2,0,L|160:160,1,70,0|8,0:0|0:0,0:0:0:0:
64,168,36725,2,0,L|152:168,1,70,0|8,0:0|0:0,0:0:0:0:
200,168,37049,2,8,L|144:168,1,35
456,184,37211,5,12,0:0:0:0:
360,184,37373,1,0,0:0:0:0:
128,176,37535,2,8,L|72:176,3,35,12|8|8|8,0:0|0:0|0:0|0:0,0:0:0:0:
400,192,37860,2,8,L|448:192,3,35,12|8|8|8,0:0|0:0|0:0|0:0,0:0:0:0:
120,184,38184,6,0,L|32:184,2,70,4|0|8,0:0|0:0|0:0,0:0:0:0:
208,184,38670,1,8,0:0:0:0:
240,184,38752,1,8,0:0:0:0:
352,192,38833,2,0,L|424:192,2,70,8|0|8,0:0|0:0|0:0,0:0:0:0:
240,184,39319,1,0,0:0:0:0:
360,184,39481,6,0,L|432:184,2,70,0|0|8,0:0|0:0|0:0,0:0:0:0:
280,176,39968,2,0,P|48:176|240:176,1,420,0|8,0:0|0:0,0:0:0:0:
288,176,40535,1,8,0:0:0:0:
336,176,40616,1,8,0:0:0:0:
128,160,40779,6,0,L|48:160,2,70,0|0|8,0:0|0:0|0:0,0:0:0:0:
336,168,41265,1,0,0:0:0:0:
384,168,41346,1,0,0:0:0:0:
448,176,41427,2,0,L|352:176,2,70,0|0|8,0:0|0:0|0:0,0:0:0:0:
280,168,41914,1,0,0:0:0:0:
96,216,42076,5,12,0:0:0:0:
72,208,42157,1,8,0:0:0:0:
56,184,42238,1,8,0:0:0:0:
48,144,42319,1,8,0:0:0:0:
392,248,42400,1,12,0:0:0:0:
408,224,42481,1,8,0:0:0:0:
416,192,42562,1,8,0:0:0:0:
408,152,42643,1,8,0:0:0:0:
144,264,42725,5,12,0:0:0:0:
104,248,42806,1,8,0:0:0:0:
72,224,42887,1,8,0:0:0:0:
64,192,42968,1,8,0:0:0:0:
408,272,43049,1,12,0:0:0:0:
432,256,43130,1,8,0:0:0:0:
448,224,43211,1,8,0:0:0:0:
440,192,43292,1,8,0:0:0:0:
136,184,43373,6,0,L|48:184,2,70,12|0|8,0:0|0:0|0:0,0:0:0:0:
320,208,43860,1,8,0:0:0:0:
360,200,43941,1,8,0:0:0:0:
408,192,44022,2,0,L|320:192,2,70,8|0|8,0:0|0:0|0:0,0:0:0:0:
152,192,44508,6,8,L|96:192,1,35
64,192,44670,2,0,L|152:192,2,70,8|0|8,0:0|0:0|0:0,0:0:0:0:
432,192,45157,2,0,L|480:192,2,35,8|8|8,0:0|0:0|0:0,0:0:0:0:
144,184,45481,2,8,L|96:184,2,35
320,216,45806,1,8,0:0:0:0:
352,208,45887,1,8,0:0:0:0:
400,192,45968,6,8,L|328:192,1,70,8|0,0:0|0:0,0:0:0:0:
264,184,46211,1,0,0:0:0:0:
208,184,46292,1,8,0:0:0:0:
96,184,46454,2,0,L|32:184,1,35
96,184,46616,2,0,L|168:184,1,70,8|0,0:0|0:0,0:0:0:0:
208,192,46860,1,0,0:0:0:0:
264,200,46941,1,8,0:0:0:0:
384,208,47103,2,0,L|432:208,1,35
136,200,47265,6,8,L|80:200,3,35,12|8|8|8,0:0|0:0|0:0|0:0,0:0:0:0:
368,216,47589,2,8,L|424:216,3,35,12|8|8|8,0:0|0:0|0:0|0:0,0:0:0:0:
152,192,47914,6,8,L|88:192,3,35,12|8|8|8,0:0|0:0|0:0|0:0,0:0:0:0:
416,200,48238,2,8,L|464:200,3,35,12|8|8|8,0:0|0:0|0:0|0:0,0:0:0:0:
110,195,48562,6,0,L|39:194,1,70,12|0,0:0|0:0,0:0:0:0:
76,192,48806,1,0,0:0:0:0:
123,195,48887,1,8,0:0:0:0:
354,203,49049,2,0,L|436:203,1,70,0|8,0:0|0:0,0:0:0:0:
354,203,49373,2,0,L|262:204,1,70,0|8,0:0|0:0,0:0:0:0:
96,208,49697,1,0,0:0:0:0:
45,205,49779,1,0,0:0:0:0:
96,208,49860,6,0,L|176:208,1,70,8|0,0:0|0:0,0:0:0:0:
304,200,50184,1,8,0:0:0:0:
392,192,50346,2,0,L|472:192,1,70,0|8,0:0|0:0,0:0:0:0:
264,192,50670,1,0,0:0:0:0:
168,192,50833,2,0,L|128:192,3,35,8|0|0|0,0:0|0:0|0:0|0:0,0:0:0:0:
360,192,51157,6,0,L|448:192,2,70,8|0|8,0:0|0:0|0:0,0:0:0:0:
120,192,51643,1,0,0:0:0:0:
80,192,51725,1,0,0:0:0:0:
128,192,51806,2,0,L|216:192,1,70,8|0,0:0|0:0,0:0:0:0:
312,192,52130,2,0,L|392:192,1,70,8|0,0:0|0:0,0:0:0:0:
416,192,52373,1,0,0:0:0:0:
448,192,52454,6,0,L|18:192,1,420,4|8,0:0|0:0,0:0:0:0:
72,192,53508,1,8,0:0:0:0:
112,192,53589,1,8,0:0:0:0:
160,192,53670,1,8,0:0:0:0:
360,200,53752,6,0,L|440:200,1,70,12|0,0:0|0:0,0:0:0:0:
328,200,54076,2,0,L|240:200,1,70,8|0,0:0|0:0,0:0:0:0:
160,200,54400,2,0,L|72:200,1,70
176,200,54725,2,0,L|272:200,1,70,8|0,0:0|0:0,0:0:0:0:
288,208,54968,1,0,0:0:0:0:
392,224,55049,2,0,P|424:192|384:120,1,140,0|8,0:0|0:0,0:0:0:0:
208,112,55535,1,0,0:0:0:0:
88,112,55697,2,0,P|48:168|80:232,1,140,0|8,0:0|0:0,0:0:0:0:
264,232,56184,5,0,0:0:0:0:
320,224,56265,1,0,0:0:0:0:
384,224,56346,2,0,P|416:200|368:120,1,140,0|8,0:0|0:0,0:0:0:0:
232,112,56833,1,0,0:0:0:0:
176,112,56914,1,0,0:0:0:0:
120,112,56995,2,0,L|40:112,1,70
120,112,57238,1,0,0:0:0:0:
192,112,57319,1,8,0:0:0:0:
400,96,57481,1,0,0:0:0:0:
448,112,57562,1,0,0:0:0:0:
168,88,57643,5,8,0:0:0:0:
112,112,57752,1,8,0:0:0:0:
64,144,57860,1,8,0:0:0:0:
336,248,57968,1,8,0:0:0:0:
360,224,58076,1,8,0:0:0:0:
384,192,58184,1,8,0:0:0:0:
184,88,58292,1,8,0:0:0:0:
160,112,58400,1,8,0:0:0:0:
136,144,58508,1,8,0:0:0:0:
304,224,58616,1,8,0:0:0:0:
328,208,58725,1,8,0:0:0:0:
352,192,58833,1,8,0:0:0:0:
96,96,58941,6,0,P|48:144|104:176,1,140,4|8,0:0|0:0,0:0:0:0:
248,192,59427,1,0,0:0:0:0:
296,192,59508,1,0,0:0:0:0:
352,200,59589,2,0,P|400:168|432:144,1,70
368,128,59833,1,0,0:0:0:0:
320,120,59914,2,0,L|240:120,1,70,8|0,0:0|0:0,0:0:0:0:
184,120,60157,1,0,0:0:0:0:
250,120,60238,6,0,L|344:120,1,70
464,120,60562,2,0,L|368:120,1,70,8|0,0:0|0:0,0:0:0:0:
336,120,60806,1,0,0:0:0:0:
280,112,60887,2,0,L|192:112,1,70
144,112,61130,1,0,0:0:0:0:
104,112,61211,1,8,0:0:0:0:
272,120,61373,1,0,0:0:0:0:
304,112,61454,1,0,0:0:0:0:
360,104,61535,6,0,L|448:104,1,70
352,104,61860,2,0,L|272:104,1,70,8|0,0:0|0:0,0:0:0:0:
240,104,62103,1,0,0:0:0:0:
112,96,62184,2,0,L|40:96,1,70
104,96,62427,1,0,0:0:0:0:
144,96,62508,1,8,0:0:0:0:
376,104,62670,1,0,0:0:0:0:
416,104,62752,1,0,0:0:0:0:
336,128,62833,5,8,0:0:0:0:
264,136,62941,1,8,0:0:0:0:
200,144,63049,1,8,0:0:0:0:
136,144,63157,1,8,0:0:0:0:
80,176,63265,1,8,0:0:0:0:
56,224,63373,1,8,0:0:0:0:
88,264,63481,1,8,0:0:0:0:
144,272,63589,1,8,0:0:0:0:
208,272,63697,1,8,0:0:0:0:
264,272,63806,1,8,0:0:0:0:
320,272,63914,1,8,0:0:0:0:
384,272,64022,1,8,0:0:0:0:
88,272,64130,6,0,P|48:240|80:152,1,140,4|8,0:0|0:0,0:0:0:0:
232,160,64616,1,0,0:0:0:0:
288,160,64697,1,0,0:0:0:0:
328,160,64779,2,0,L|416:160,1,70
344,160,65022,1,0,0:0:0:0:
296,160,65103,2,0,L|216:160,1,70,8|0,0:0|0:0,0:0:0:0:
176,160,65346,1,0,0:0:0:0:
400,160,65427,6,0,L|480:160,1,70
416,160,65670,1,0,0:0:0:0:
352,160,65752,1,8,0:0:0:0:
184,168,65914,2,0,L|144:168,1,35
88,168,66076,2,0,L|184:168,1,70
200,168,66319,1,0,0:0:0:0:
248,168,66400,2,0,L|336:168,1,70,8|0,0:0|0:0,0:0:0:0:
368,168,66643,1,0,0:0:0:0:
318,168,66725,6,0,L|240:168,1,70
184,168,66968,1,0,0:0:0:0:
128,168,67049,2,0,L|48:168,1,70,8|0,0:0|0:0,0:0:0:0:
112,168,67292,1,0,0:0:0:0:
368,184,67373,2,0,L|456:184,1,70
480,184,67616,1,0,0:0:0:0:
438,184,67697,2,0,L|368:184,1,70,8|0,0:0|0:0,0:0:0:0:
304,192,67941,1,0,0:0:0:0:
136,192,68022,6,8,L|56:192,1,46.6666666666667
296,200,68238,2,8,L|352:200,1,46.6666666666667
136,192,68454,2,8,L|64:192,1,46.6666666666667
280,192,68670,2,8,L|344:192,1,46.6666666666667
160,192,68887,2,8,L|96:192,1,46.6666666666667
312,192,69103,2,8,L|384:192,1,46.6666666666667
88,104,69319,6,0,P|48:160|88:232,1,140,4|8,0:0|0:0,0:0:0:0:
264,192,69806,1,0,0:0:0:0:
312,184,69887,1,0,0:0:0:0:
344,176,69968,2,0,L|416:176,1,70
304,168,70211,1,0,0:0:0:0:
240,168,70292,2,0,L|152:168,1,70,8|0,0:0|0:0,0:0:0:0:
104,168,70535,1,0,0:0:0:0:
416,112,70616,6,0,P|440:160|432:256,1,140,4|8,0:0|0:0,0:0:0:0:
160,184,71103,2,0,L|96:184,2,35
384,184,71427,2,0,L|432:184,2,35,0|0|8,0:0|0:0|0:0,0:0:0:0:
288,184,71752,1,0,0:0:0:0:
224,184,71833,1,0,0:0:0:0:
64,184,71914,6,0,B|32:224|32:224|144:224,1,140,4|8,0:0|0:0,0:0:0:0:
336,224,72400,2,0,L|384:224,1,35
440,224,72562,2,0,L|360:224,1,70
264,224,72806,1,0,0:0:0:0:
200,224,72887,2,0,L|104:224,1,70,8|0,0:0|0:0,0:0:0:0:
72,224,73130,1,0,0:0:0:0:
144,208,73211,5,8,0:0:0:0:
208,192,73319,1,8,0:0:0:0:
256,176,73427,1,8,0:0:0:0:
312,168,73535,1,8,0:0:0:0:
352,136,73643,1,8,0:0:0:0:
392,96,73752,1,8,0:0:0:0:
360,48,73860,1,8,0:0:0:0:
304,64,73968,1,8,0:0:0:0:
272,104,74076,1,8,0:0:0:0:
304,144,74184,1,8,0:0:0:0:
360,168,74292,1,8,0:0:0:0:
416,176,74400,1,8,0:0:0:0:
105,302,74508,6,0,L|174:298,1,70
217,295,74752,1,0,0:0:0:0:
258,292,74833,1,8,0:0:0:0:
71,236,74995,2,0,L|140:232,1,70
183,229,75239,1,0,0:0:0:0:
224,226,75320,1,8,0:0:0:0:
47,153,75481,2,0,L|117:162,1,70,8|0,0:0|0:0,0:0:0:0:
407,302,75806,6,0,L|338:298,1,70
295,295,76050,1,0,0:0:0:0:
254,292,76131,1,8,0:0:0:0:
441,236,76293,2,0,L|372:232,1,70
329,229,76535,1,0,0:0:0:0:
288,226,76616,1,8,0:0:0:0:
465,153,76779,2,0,L|395:162,1,70,8|0,0:0|0:0,0:0:0:0:
122,191,77103,6,0,L|53:187,1,70
9,184,77347,1,0,0:0:0:0:
52,186,77428,1,8,0:0:0:0:
192,121,77589,2,0,L|123:117,1,70
79,114,77833,1,0,0:0:0:0:
122,116,77914,1,8,0:0:0:0:
212,32,78076,2,0,L|142:41,1,70,8|0,0:0|0:0,0:0:0:0:
390,191,78400,6,0,L|459:187,1,70
503,184,78644,1,0,0:0:0:0:
460,186,78725,1,8,0:0:0:0:
320,121,78886,2,0,L|389:117,1,70
433,114,79130,1,0,0:0:0:0:
390,116,79211,1,8,0:0:0:0:
300,32,79373,1,8,0:0:0:0:
334,36,79454,1,0,0:0:0:0:
345,71,79535,1,8,0:0:0:0:
308,82,79616,1,0,0:0:0:0:
98,84,79697,6,0,L|17:94,1,70
211,128,80022,2,0,L|199:216,1,70,8|0,0:0|0:0,0:0:0:0:
75,161,80346,1,0,0:0:0:0:
37,210,80427,2,0,L|106:206,1,70
72,252,80670,1,8,0:0:0:0:
192,242,80833,1,0,0:0:0:0:
414,84,80995,6,0,L|495:94,1,70
309,123,81320,2,0,L|321:211,1,70,8|0,0:0|0:0,0:0:0:0:
437,161,81644,1,0,0:0:0:0:
475,210,81725,2,0,L|406:206,1,70
440,252,81968,1,8,0:0:0:0:
327,242,82131,1,0,0:0:0:0:
65,147,82292,6,0,L|10:222,1,70
186,183,82616,2,0,L|216:265,1,70,8|0,0:0|0:0,0:0:0:0:
45,235,82941,1,0,0:0:0:0:
263,241,83022,2,0,L|286:162,1,70
228,121,83265,1,8,0:0:0:0:
45,235,83427,1,0,0:0:0:0:
355,59,83589,5,8,0:0:0:0:
385,77,83670,1,0,0:0:0:0:
397,109,83751,1,0,0:0:0:0:
389,142,83832,1,0,0:0:0:0:
216,181,83914,1,8,0:0:0:0:
187,199,83995,1,0,0:0:0:0:
175,231,84076,1,0,0:0:0:0:
183,264,84157,1,0,0:0:0:0:
396,246,84238,2,0,L|451:209,1,35,8|0,0:0|0:0,0:0:0:0:
234,145,84400,2,0,L|201:108,1,35,8|0,0:0|0:0,0:0:0:0:
380,134,84562,2,0,L|435:97,1,35,8|0,0:0|0:0,0:0:0:0:
201,104,84724,2,0,L|168:67,1,35,8|0,0:0|0:0,0:0:0:0:
338,298,84887,6,0,L|407:302,1,70
365,300,85131,1,0,0:0:0:0:
323,297,85212,1,8,0:0:0:0:
472,232,85374,2,0,L|403:228,1,70
168,200,85616,1,0,0:0:0:0:
129,197,85697,1,8,0:0:0:0:
379,145,85860,2,0,L|449:136,1,70,8|0,0:0|0:0,0:0:0:0:
174,298,86184,6,0,L|105:302,1,70
147,300,86428,1,0,0:0:0:0:
189,297,86509,1,8,0:0:0:0:
40,232,86671,2,0,L|109:228,1,70
331,190,86915,1,0,0:0:0:0:
370,187,86996,1,8,0:0:0:0:
133,145,87157,2,0,L|63:136,1,70,8|0,0:0|0:0,0:0:0:0:
390,191,87482,6,0,L|459:187,1,70
503,184,87726,1,0,0:0:0:0:
460,186,87807,1,8,0:0:0:0:
320,121,87968,2,0,L|389:117,1,70
173,131,88212,1,0,0:0:0:0:
130,133,88293,1,8,0:0:0:0:
370,41,88455,2,0,L|300:32,1,70,8|0,0:0|0:0,0:0:0:0:
122,191,88779,6,0,L|53:187,1,70
9,184,89023,1,0,0:0:0:0:
52,186,89104,1,8,0:0:0:0:
192,121,89265,2,0,L|123:117,1,70
315,124,89509,1,0,0:0:0:0:
358,126,89590,1,8,0:0:0:0:
132,33,89752,1,8,0:0:0:0:
98,37,89833,1,0,0:0:0:0:
87,72,89914,1,8,0:0:0:0:
124,83,89995,1,0,0:0:0:0:
414,84,90076,6,0,L|495:94,1,70
301,128,90401,2,0,L|313:216,1,70,8|0,0:0|0:0,0:0:0:0:
437,161,90725,1,0,0:0:0:0:
475,210,90806,2,0,L|406:206,1,70
440,252,91049,1,8,0:0:0:0:
320,242,91212,1,0,0:0:0:0:
98,84,91374,6,0,L|17:94,1,70
203,123,91697,2,0,L|191:211,1,70,8|0,0:0|0:0,0:0:0:0:
75,161,92023,1,0,0:0:0:0:
37,210,92104,2,0,L|106:206,1,70
72,252,92347,1,8,0:0:0:0:
185,242,92508,1,0,0:0:0:0:
447,147,92671,6,0,L|502:222,1,70
345,176,92995,2,0,L|315:258,1,70,8|0,0:0|0:0,0:0:0:0:
470,199,93320,1,0,0:0:0:0:
267,173,93401,2,0,L|248:241,1,70
276,269,93644,1,8,0:0:0:0:
470,199,93806,1,0,0:0:0:0:
104,74,93968,5,8,0:0:0:0:
74,92,94049,1,0,0:0:0:0:
62,124,94130,1,0,0:0:0:0:
70,157,94211,1,0,0:0:0:0:
305,224,94293,1,8,0:0:0:0:
334,242,94374,1,0,0:0:0:0:
346,274,94455,1,0,0:0:0:0:
338,307,94536,1,0,0:0:0:0:
103,338,94617,2,0,L|48:301,1,35,8|0,0:0|0:0,0:0:0:0:
224,240,94779,2,0,L|257:203,1,35,8|0,0:0|0:0,0:0:0:0:
73,318,94941,2,0,L|18:281,1,35,8|0,0:0|0:0,0:0:0:0:
224,240,95103,2,0,L|257:203,1,35,8|0,0:0|0:0,0:0:0:0:
416,40,95265,5,8,0:0:0:0:
442,62,95346,1,0,0:0:0:0:
452,95,95427,1,0,0:0:0:0:
441,128,95508,1,0,0:0:0:0:
284,203,95589,2,0,L|238:242,1,35,8|0,0:0|0:0,0:0:0:0:
408,264,95752,2,0,L|454:303,1,35,8|0,0:0|0:0,0:0:0:0:
144,64,95914,5,8,0:0:0:0:
117,86,95995,1,0,0:0:0:0:
107,119,96076,1,0,0:0:0:0:
118,152,96157,1,0,0:0:0:0:
258,226,96238,2,0,L|304:265,1,35,8|0,0:0|0:0,0:0:0:0:
136,296,96401,2,0,L|90:335,1,35,8|0,0:0|0:0,0:0:0:0:
391,316,96562,6,0,L|408:256,1,35,8|0,0:0|0:0,0:0:0:0:
336,264,96725,2,0,L|320:208,1,35,8|0,0:0|0:0,0:0:0:0:
391,316,96887,2,0,L|408:256,1,35,8|0,0:0|0:0,0:0:0:0:
258,226,97050,2,0,L|245:175,1,35,8|0,0:0|0:0,0:0:0:0:
416,77,97211,5,8,0:0:0:0:
462,93,97292,1,0,0:0:0:0:
504,129,97373,1,0,0:0:0:0:
462,93,97454,1,0,0:0:0:0:
248,96,97535,2,0,L|189:99,1,35,8|0,0:0|0:0,0:0:0:0:
384,144,97698,2,0,L|439:147,1,35,8|0,0:0|0:0,0:0:0:0:
128,152,97860,5,12,0:0:0:0:
256,192,98184,12,0,101589,0:0:0:0:
135,154,101752,6,0,L|270:155,2,105,0|8|8,0:0|0:0|0:0,0:0:0:0:
372,55,102400,2,0,L|237:56,2,105,0|8|8,0:0|0:0|0:0,0:0:0:0:
40,64,103049,6,0,L|16:160,1,70
64,128,103292,1,0,0:0:0:0:
112,128,103373,2,0,L|88:208,1,70,8|0,0:0|0:0,0:0:0:0:
352,168,103697,2,0,L|376:264,1,70
328,232,103940,1,0,0:0:0:0:
280,232,104021,2,0,L|304:312,1,70,8|0,0:0|0:0,0:0:0:0:
376,296,104346,5,8,0:0:0:0:
128,216,104508,1,0,0:0:0:0:
112,264,104589,1,0,0:0:0:0:
300,299,104670,2,0,L|324:211,1,70,8|0,0:0|0:0,0:0:0:0:
168,224,104995,1,8,0:0:0:0:
336,168,105157,1,0,0:0:0:0:
352,128,105238,1,0,0:0:0:0:
144,120,105319,2,0,L|128:48,1,70,8|0,0:0|0:0,0:0:0:0:
472,64,105643,6,0,L|496:160,1,70
448,128,105886,1,0,0:0:0:0:
400,128,105967,2,0,L|424:208,1,70,8|0,0:0|0:0,0:0:0:0:
160,168,106291,2,0,L|136:264,1,70
184,232,106534,1,0,0:0:0:0:
232,232,106616,2,0,L|208:312,1,70,8|0,0:0|0:0,0:0:0:0:
136,296,106941,5,0,0:0:0:0:
384,216,107103,1,0,0:0:0:0:
400,264,107184,1,0,0:0:0:0:
212,299,107265,2,0,L|188:211,1,70,8|0,0:0|0:0,0:0:0:0:
344,224,107590,1,0,0:0:0:0:
176,168,107752,1,0,0:0:0:0:
160,128,107833,1,0,0:0:0:0:
368,120,107914,2,0,L|384:48,1,70,8|0,0:0|0:0,0:0:0:0:
80,72,108238,6,0,L|56:168,1,70
104,136,108481,1,0,0:0:0:0:
152,136,108562,2,0,L|128:216,1,70,8|0,0:0|0:0,0:0:0:0:
304,176,108887,2,0,L|280:272,1,70
328,240,109130,1,0,0:0:0:0:
376,240,109211,2,0,L|352:320,1,70,8|0,0:0|0:0,0:0:0:0:
104,304,109535,6,0,L|32:248,1,70
96,240,109779,1,0,0:0:0:0:
144,224,109860,2,0,L|48:224,1,70,8|0,0:0|0:0,0:0:0:0:
304,160,110184,2,0,L|376:112,1,70,8|0,0:0|0:0,0:0:0:0:
56,64,110508,2,0,L|-8:8,1,70,8|0,0:0|0:0,0:0:0:0:
384,48,110833,5,8,0:0:0:0:
416,80,110914,1,0,0:0:0:0:
384,112,110995,1,0,0:0:0:0:
240,112,111157,1,0,0:0:0:0:
312,200,111319,1,0,0:0:0:0:
128,48,111481,5,8,0:0:0:0:
96,80,111562,1,0,0:0:0:0:
128,112,111643,1,0,0:0:0:0:
280,112,111805,1,0,0:0:0:0:
184,200,111967,1,0,0:0:0:0:
424,64,112130,5,0,0:0:0:0:
480,104,112211,1,0,0:0:0:0:
480,160,112292,1,0,0:0:0:0:
424,208,112373,1,0,0:0:0:0:
88,64,112454,5,0,0:0:0:0:
32,104,112535,1,0,0:0:0:0:
32,160,112616,1,0,0:0:0:0:
88,208,112697,1,0,0:0:0:0:
320,304,112779,2,0,L|360:264,1,35
136,176,112941,2,0,L|112:136,1,35
320,304,113103,2,0,L|360:264,1,35
136,176,113265,2,0,L|112:136,1,35
407,302,113427,6,0,L|338:298,1,70
295,295,113671,1,0,0:0:0:0:
254,292,113752,1,8,0:0:0:0:
448,200,113914,1,0,0:0:0:0:
192,152,114076,2,0,L|120:120,1,70,8|0,0:0|0:0,0:0:0:0:
360,80,114400,2,0,L|432:40,1,70,8|0,0:0|0:0,0:0:0:0:
174,298,114725,6,0,L|105:302,1,70
72,304,114969,1,0,0:0:0:0:
104,302,115050,1,8,0:0:0:0:
328,224,115212,1,0,0:0:0:0:
56,216,115374,2,0,L|128:184,1,70,8|0,0:0|0:0,0:0:0:0:
456,120,115698,2,0,L|384:80,1,70,8|0,0:0|0:0,0:0:0:0:
152,56,116022,6,0,L|96:56,1,35
176,112,116184,2,0,L|232:112,1,35
120,112,116346,1,8,0:0:0:0:
352,104,116508,1,0,0:0:0:0:
96,128,116670,2,0,L|176:152,1,70,8|0,0:0|0:0,0:0:0:0:
40,184,116995,2,0,L|112:208,1,70,8|0,0:0|0:0,0:0:0:0:
360,56,117319,6,0,L|416:56,1,35
336,112,117481,2,0,L|280:112,1,35
392,112,117643,1,8,0:0:0:0:
144,112,117807,1,0,0:0:0:0:
392,112,117969,2,0,L|312:136,1,70,8|0,0:0|0:0,0:0:0:0:
72,224,118292,2,0,L|144:248,1,70,8|0,0:0|0:0,0:0:0:0:
408,120,118616,6,0,L|424:216,1,70
344,176,118860,1,0,0:0:0:0:
280,160,118941,1,8,0:0:0:0:
408,120,119103,1,0,0:0:0:0:
136,96,119265,2,0,L|96:160,1,70,8|0,0:0|0:0,0:0:0:0:
352,112,119589,2,0,L|360:200,1,70,8|0,0:0|0:0,0:0:0:0:
80,120,119914,1,4,0:0:0:0:
64,168,120562,5,8,0:0:0:0:
488,192,120887,1,8,0:0:0:0:
40,336,121211,6,0,B|32:288|144:32|144:32|256:208|256:208|392:16|392:16|424:104|464:368,1,1120
48,64,127697,6,0,L|40:120,1,35
120,112,127860,2,0,L|160:120,1,35
248,136,128022,2,0,L|296:144,1,35
368,176,128184,2,0,L|336:224,1,35
88,288,128346,6,0,L|56:200,1,70
144,224,128589,1,0,0:0:0:0:
352,288,128833,2,0,L|376:208,1,70
448,184,129076,1,0,0:0:0:0:
280,120,129319,2,0,L|360:96,2,70
192,152,129806,1,0,0:0:0:0:
432,64,129968,2,0,L|400:160,1,70
160,112,130292,5,0,0:0:0:0:
152,160,130373,1,0,0:0:0:0:
144,208,130454,1,0,0:0:0:0:
395,188,130616,2,0,L|416:256,1,70
320,152,130859,1,0,0:0:0:0:
136,128,131103,1,0,0:0:0:0:
24,208,131265,2,0,L|0:288,1,70
208,272,131589,2,0,L|152:192,1,70
424,288,131914,6,0,L|456:200,1,70
368,224,132157,1,0,0:0:0:0:
160,288,132401,2,0,L|136:208,1,70
64,184,132644,1,0,0:0:0:0:
232,120,132887,2,0,L|152:96,2,70
320,152,133374,1,0,0:0:0:0:
80,64,133536,6,0,L|112:160,1,70
352,112,133860,5,0,0:0:0:0:
360,160,133941,1,0,0:0:0:0:
368,208,134022,1,0,0:0:0:0:
116,188,134184,2,0,L|96:256,1,70
192,152,134427,1,0,0:0:0:0:
376,128,134671,1,0,0:0:0:0:
488,208,134833,2,0,L|512:288,1,70
240,288,135157,2,0,L|296:208,1,70
0,192,135481,5,12,0:0:0:0:
448,176,136454,5,0,0:0:0:0:
452,146,136508,1,0,0:0:0:0:
446,115,136562,1,0,0:0:0:0:
432,89,136616,1,0,0:0:0:0:
409,70,136670,1,0,0:0:0:0:
380,60,136724,1,0,0:0:0:0:
128,64,136779,5,8,0:0:0:0:
86,79,136860,1,0,0:0:0:0:
70,120,136941,1,0,0:0:0:0:
88,160,137022,1,0,0:0:0:0:
200,168,137103,1,8,0:0:0:0:
208,211,137184,1,0,0:0:0:0:
186,249,137265,1,0,0:0:0:0:
143,262,137346,1,0,0:0:0:0:
392,256,137427,6,0,L|416:320,1,35,8|0,0:0|0:0,0:0:0:0:
256,262,137589,1,0,0:0:0:0:
213,249,137670,1,0,0:0:0:0:
190,210,137751,1,8,0:0:0:0:
199,167,137832,1,0,0:0:0:0:
280,160,137914,1,0,0:0:0:0:
360,152,137995,1,0,0:0:0:0:
128,64,138076,5,8,0:0:0:0:
84,71,138157,1,0,0:0:0:0:
63,109,138238,1,0,0:0:0:0:
80,150,138319,1,0,0:0:0:0:
176,176,138400,1,8,0:0:0:0:
215,195,138481,1,0,0:0:0:0:
231,237,138562,1,0,0:0:0:0:
214,278,138643,1,0,0:0:0:0:
105,257,138725,5,8,0:0:0:0:
99,212,138806,1,0,0:0:0:0:
127,178,138887,1,0,0:0:0:0:
171,173,138968,1,0,0:0:0:0:
272,80,139049,1,8,0:0:0:0:
315,87,139130,1,0,0:0:0:0:
336,125,139211,1,0,0:0:0:0:
319,166,139292,1,0,0:0:0:0:
72,256,139373,6,0,L|64:304,1,35,8|0,0:0|0:0,0:0:0:0:
232,280,139535,2,0,L|240:328,1,35
96,208,139697,2,0,L|96:264,1,35,8|0,0:0|0:0,0:0:0:0:
272,224,139860,2,0,L|312:272,1,35
128,152,140022,2,0,L|176:176,1,35,8|0,0:0|0:0,0:0:0:0:
328,192,140184,2,0,L|376:208,1,35
176,112,140346,2,0,L|216:120,1,35,8|0,0:0|0:0,0:0:0:0:
368,144,140508,2,0,L|424:144,1,35
176,112,140670,6,0,L|176:168,1,35,8|0,0:0|0:0,0:0:0:0:
240,176,140833,1,0,0:0:0:0:
268,210,140914,1,0,0:0:0:0:
269,255,140995,1,8,0:0:0:0:
244,291,141076,1,0,0:0:0:0:
201,304,141157,1,0,0:0:0:0:
159,289,141238,1,0,0:0:0:0:
128,256,141319,5,8,0:0:0:0:
119,211,141400,1,0,0:0:0:0:
127,166,141481,1,0,0:0:0:0:
149,127,141562,1,0,0:0:0:0:
184,98,141643,1,8,0:0:0:0:
227,83,141724,1,0,0:0:0:0:
272,84,141805,1,0,0:0:0:0:
314,100,141886,1,0,0:0:0:0:
432,160,141968,6,0,L|440:208,1,35,8|0,0:0|0:0,0:0:0:0:
360,232,142130,2,0,L|304:232,1,35
384,296,142292,1,8,0:0:0:0:
168,304,142373,2,0,L|120:304,2,35
376,232,142616,2,0,L|384:184,1,35,8|0,0:0|0:0,0:0:0:0:
200,176,142779,2,0,L|192:128,1,35
384,152,142941,2,0,L|392:104,1,35,8|0,0:0|0:0,0:0:0:0:
208,96,143103,2,0,L|200:40,1,35
416,288,143265,6,0,L|472:288,1,35,8|0,0:0|0:0,0:0:0:0:
240,288,143427,2,0,L|184:288,1,35
288,264,143589,1,8,0:0:0:0:
311,226,143670,1,0,0:0:0:0:
301,183,143751,1,0,0:0:0:0:
264,160,143832,1,0,0:0:0:0:
160,192,143914,5,8,0:0:0:0:
143,150,143995,1,0,0:0:0:0:
160,109,144076,1,0,0:0:0:0:
201,92,144157,1,0,0:0:0:0:
304,88,144238,1,8,0:0:0:0:
348,90,144319,1,0,0:0:0:0:
382,119,144400,1,0,0:0:0:0:
390,163,144481,1,0,0:0:0:0:
152,299,144562,5,8,0:0:0:0:
112,276,144643,1,0,0:0:0:0:
86,239,144724,1,0,0:0:0:0:
77,195,144805,1,0,0:0:0:0:
87,151,144886,1,8,0:0:0:0:
115,115,144967,1,0,0:0:0:0:
154,94,145048,1,0,0:0:0:0:
200,91,145129,1,0,0:0:0:0:
311,91,145211,5,8,0:0:0:0:
357,94,145292,1,0,0:0:0:0:
396,115,145373,1,0,0:0:0:0:
424,151,145454,1,0,0:0:0:0:
434,195,145535,1,8,0:0:0:0:
425,239,145616,1,0,0:0:0:0:
399,276,145697,1,0,0:0:0:0:
359,299,145778,1,0,0:0:0:0:
88,296,145860,6,0,L|80:248,1,35,8|0,0:0|0:0,0:0:0:0:
168,248,146022,2,0,L|176:192,1,35
256,192,146184,1,8,0:0:0:0:
282,157,146265,1,0,0:0:0:0:
266,117,146346,1,0,0:0:0:0:
223,110,146427,1,0,0:0:0:0:
424,296,146508,6,0,L|432:240,1,35,8|0,0:0|0:0,0:0:0:0:
344,248,146670,2,0,L|336:192,1,35
256,192,146832,1,8,0:0:0:0:
229,157,146913,1,0,0:0:0:0:
245,117,146994,1,0,0:0:0:0:
288,110,147075,1,0,0:0:0:0:
440,112,147157,6,0,L|448:168,1,35,12|0,0:0|0:0,0:0:0:0:
384,184,147319,1,0,0:0:0:0:
200,192,147400,2,0,L|192:248,1,35
256,256,147562,1,0,0:0:0:0:
440,264,147643,2,0,L|448:320,1,35
72,112,147806,6,0,L|64:168,1,35,12|0,0:0|0:0,0:0:0:0:
128,184,147968,1,0,0:0:0:0:
312,192,148049,2,0,L|320:248,1,35
256,256,148211,1,0,0:0:0:0:
72,272,148292,2,0,L|64:320,1,35
256,88,148454,6,0,L|264:152,1,35,12|0,0:0|0:0,0:0:0:0:
200,160,148616,1,0,0:0:0:0:
433,96,148697,2,0,L|440:152,1,35
384,160,148859,1,0,0:0:0:0:
214,267,148941,2,0,L|208:320,1,35
410,250,149103,5,12,0:0:0:0:
447,225,149184,1,0,0:0:0:0:
446,182,149265,1,0,0:0:0:0:
408,160,149346,1,0,0:0:0:0:
216,256,149427,2,0,L|208:192,1,35,8|0,0:0|0:0,0:0:0:0:
295,249,149589,2,0,L|304:192,1,35
136,64,149752,5,12,0:0:0:0:
113,60,149792,1,0,0:0:0:0:
92,67,149833,1,0,0:0:0:0:
77,84,149873,1,0,0:0:0:0:
73,106,149914,1,0,0:0:0:0:
79,127,149954,1,0,0:0:0:0:
96,142,149995,1,0,0:0:0:0:
118,148,150035,1,0,0:0:0:0:
144,152,150076,5,8,0:0:0:0:
166,150,150116,1,0,0:0:0:0:
186,160,150157,1,0,0:0:0:0:
196,180,150197,1,0,0:0:0:0:
194,202,150238,1,0,0:0:0:0:
180,220,150278,1,0,0:0:0:0:
159,226,150319,1,0,0:0:0:0:
376,64,150400,5,12,0:0:0:0:
399,60,150440,1,0,0:0:0:0:
420,67,150481,1,0,0:0:0:0:
435,84,150521,1,0,0:0:0:0:
439,106,150562,1,0,0:0:0:0:
433,127,150602,1,0,0:0:0:0:
416,142,150643,1,0,0:0:0:0:
394,148,150683,1,0,0:0:0:0:
368,152,150724,5,8,0:0:0:0:
346,150,150764,1,0,0:0:0:0:
326,160,150805,1,0,0:0:0:0:
316,180,150845,1,0,0:0:0:0:
318,202,150886,1,0,0:0:0:0:
332,220,150926,1,0,0:0:0:0:
353,226,150967,1,0,0:0:0:0:
136,288,151049,5,12,0:0:0:0:
80,288,151130,1,0,0:0:0:0:
136,288,151211,1,0,0:0:0:0:
192,288,151292,1,0,0:0:0:0:
136,288,151373,1,8,0:0:0:0:
64,288,151454,1,0,0:0:0:0:
136,288,151535,1,0,0:0:0:0:
208,288,151616,1,0,0:0:0:0:
360,288,151697,5,12,0:0:0:0:
404,289,151778,1,0,0:0:0:0:
446,271,151859,1,0,0:0:0:0:
477,239,151940,1,0,0:0:0:0:
493,197,152021,1,8,0:0:0:0:
489,152,152102,1,0,0:0:0:0:
467,113,152183,1,0,0:0:0:0:
431,85,152264,1,0,0:0:0:0:
235,79,152346,6,0,L|224:136,1,35,12|0,0:0|0:0,0:0:0:0:
288,152,152508,1,0,0:0:0:0:
80,80,152589,2,0,L|72:136,1,35
136,152,152751,1,0,0:0:0:0:
280,200,152833,2,0,L|288:256,1,35
88,248,152995,6,0,L|80:304,1,35,12|0,0:0|0:0,0:0:0:0:
144,320,153157,1,0,0:0:0:0:
424,248,153238,2,0,L|432:304,1,35
368,320,153400,1,0,0:0:0:0:
216,248,153481,2,0,L|208:192,1,35
280,80,153643,6,0,L|288:136,1,35,12|0,0:0|0:0,0:0:0:0:
224,152,153805,1,0,0:0:0:0:
432,80,153886,2,0,L|440:136,1,35
376,152,154048,1,0,0:0:0:0:
225,200,154130,2,0,L|209:256,1,35
424,248,154292,6,0,L|432:304,1,35,12|0,0:0|0:0,0:0:0:0:
368,320,154454,1,0,0:0:0:0:
88,248,154535,2,0,L|80:304,1,35
144,320,154697,1,0,0:0:0:0:
328,248,154778,2,0,L|336:200,1,35
104,184,154941,5,12,0:0:0:0:
86,170,154981,1,0,0:0:0:0:
74,150,155022,1,0,0:0:0:0:
71,128,155062,1,0,0:0:0:0:
75,106,155103,1,0,0:0:0:0:
88,87,155143,1,0,0:0:0:0:
106,74,155184,1,0,0:0:0:0:
128,68,155224,1,0,0:0:0:0:
150,71,155265,5,8,0:0:0:0:
170,82,155305,1,0,0:0:0:0:
185,99,155346,1,0,0:0:0:0:
192,121,155386,1,0,0:0:0:0:
191,143,155427,1,0,0:0:0:0:
181,164,155468,1,0,0:0:0:0:
165,180,155508,1,0,0:0:0:0:
408,184,155589,5,12,0:0:0:0:
425,170,155629,1,0,0:0:0:0:
437,150,155670,1,0,0:0:0:0:
440,128,155710,1,0,0:0:0:0:
436,106,155751,1,0,0:0:0:0:
423,87,155791,1,0,0:0:0:0:
405,74,155832,1,0,0:0:0:0:
383,68,155872,1,0,0:0:0:0:
361,71,155913,5,8,0:0:0:0:
341,82,155953,1,0,0:0:0:0:
326,99,155994,1,0,0:0:0:0:
319,121,156034,1,0,0:0:0:0:
320,143,156075,1,0,0:0:0:0:
330,164,156116,1,0,0:0:0:0:
346,180,156156,1,0,0:0:0:0:
152,296,156238,5,12,0:0:0:0:
96,296,156319,1,0,0:0:0:0:
152,296,156400,1,0,0:0:0:0:
200,296,156481,1,0,0:0:0:0:
152,296,156562,1,8,0:0:0:0:
88,296,156643,1,0,0:0:0:0:
152,296,156725,1,0,0:0:0:0:
208,296,156806,1,0,0:0:0:0:
152,232,156887,5,8,0:0:0:0:
80,232,156968,1,0,0:0:0:0:
152,232,157049,1,0,0:0:0:0:
224,232,157130,1,0,0:0:0:0:
152,232,157211,1,8,0:0:0:0:
72,232,157292,1,0,0:0:0:0:
152,232,157373,1,0,0:0:0:0:
232,232,157454,1,0,0:0:0:0:
392,232,157535,5,12,0:0:0:0:
425,202,157616,1,0,0:0:0:0:
442,160,157697,1,0,0:0:0:0:
439,115,157778,1,0,0:0:0:0:
416,76,157859,1,8,0:0:0:0:
378,51,157940,1,0,0:0:0:0:
333,46,158021,1,0,0:0:0:0:
291,61,158102,1,0,0:0:0:0:
152,128,158184,5,12,0:0:0:0:
118,157,158265,1,0,0:0:0:0:
101,199,158346,1,0,0:0:0:0:
104,244,158427,1,0,0:0:0:0:
127,283,158508,1,8,0:0:0:0:
165,308,158589,1,0,0:0:0:0:
210,313,158670,1,0,0:0:0:0:
252,298,158751,1,0,0:0:0:0:
424,280,158833,6,0,L|432:208,1,70,12|0,0:0|0:0,0:0:0:0:
304,160,159157,1,8,0:0:0:0:
440,136,159319,1,0,0:0:0:0:
160,160,159481,6,0,L|152:240,1,70,8|0,0:0|0:0,0:0:0:0:
280,264,159806,1,8,0:0:0:0:
144,288,159968,1,0,0:0:0:0:
408,264,160130,6,0,L|312:264,2,70,8|0|8,0:0|0:0|0:0,0:0:0:0:
144,288,160616,2,0,P|88:256|160:152,1,210,0|8,0:0|0:0,0:0:0:0:
413,100,161427,6,0,L|421:172,1,70,12|0,0:0|0:0,0:0:0:0:
293,220,161751,1,8,0:0:0:0:
429,244,161913,1,0,0:0:0:0:
149,220,162075,6,0,L|141:140,1,70,8|0,0:0|0:0,0:0:0:0:
269,116,162400,1,8,0:0:0:0:
133,92,162562,1,0,0:0:0:0:
304,256,162725,5,12,0:0:0:0:
332,237,162806,1,8,0:0:0:0:
332,203,162887,1,8,0:0:0:0:
305,184,162968,1,8,0:0:0:0:
208,184,163049,1,12,0:0:0:0:
180,166,163130,1,8,0:0:0:0:
180,133,163211,1,8,0:0:0:0:
208,116,163292,1,8,0:0:0:0:
360,256,163373,5,12,0:0:0:0:
388,237,163454,1,8,0:0:0:0:
388,203,163535,1,8,0:0:0:0:
361,184,163616,1,8,0:0:0:0:
152,184,163697,1,12,0:0:0:0:
124,166,163778,1,8,0:0:0:0:
124,133,163859,1,8,0:0:0:0:
152,116,163940,1,8,0:0:0:0:
424,280,164022,6,0,L|432:208,1,70,12|0,0:0|0:0,0:0:0:0:
304,160,164346,1,8,0:0:0:0:
440,136,164508,1,0,0:0:0:0:
160,160,164670,6,0,L|152:240,1,70,8|0,0:0|0:0,0:0:0:0:
280,264,164995,1,8,0:0:0:0:
144,288,165157,1,0,0:0:0:0:
408,264,165319,6,0,L|312:264,2,70,8|0|8,0:0|0:0|0:0,0:0:0:0:
144,288,165805,2,0,P|88:256|160:152,1,210,0|8,0:0|0:0,0:0:0:0:
413,100,166616,6,0,L|421:172,1,70,12|0,0:0|0:0,0:0:0:0:
293,220,166940,1,8,0:0:0:0:
429,244,167102,1,0,0:0:0:0:
149,220,167264,6,0,L|141:140,1,70,8|0,0:0|0:0,0:0:0:0:
269,116,167589,1,8,0:0:0:0:
133,92,167751,1,0,0:0:0:0:
416,248,167914,6,0,L|416:120,1,125.999996154785,12|8,0:0|0:0,0:0:0:0:
304,120,168968,1,8,0:0:0:0:
360,120,169049,1,8,0:0:0:0:
416,120,169130,1,8,0:0:0:0:
104,120,169211,6,0,L|32:192,1,70,8|0,0:0|0:0,0:0:0:0:
152,120,169535,1,8,0:0:0:0:
256,120,169697,2,0,L|296:120,2,35
152,208,170022,2,0,L|96:208,2,35,0|0|8,0:0|0:0|0:0,0:0:0:0:
256,288,170346,6,0,L|208:288,1,35
408,288,170508,6,0,L|488:288,1,70
360,288,170832,1,8,0:0:0:0:
256,288,170994,2,0,L|216:288,2,35
360,200,171319,2,0,L|416:200,2,35,0|0|8,0:0|0:0|0:0,0:0:0:0:
256,120,171643,6,0,L|304:120,1,35
104,120,171806,6,0,L|24:120,1,70
152,120,172130,1,8,0:0:0:0:
256,120,172292,2,0,L|296:120,2,35
152,208,172617,2,0,L|96:208,2,35,0|0|8,0:0|0:0|0:0,0:0:0:0:
256,288,172941,6,0,L|208:288,1,35
440,288,173103,1,8,0:0:0:0:
352,288,173211,1,8,0:0:0:0:
440,288,173319,1,8,0:0:0:0:
256,184,173427,1,8,0:0:0:0:
168,184,173535,1,8,0:0:0:0:
256,184,173643,1,8,0:0:0:0:
352,64,173752,5,8,0:0:0:0:
264,64,173860,1,8,0:0:0:0:
352,64,173968,1,8,0:0:0:0:
24,64,174076,1,8,0:0:0:0:
112,64,174184,1,8,0:0:0:0:
24,64,174292,1,8,0:0:0:0:
352,64,174400,6,0,P|392:120|344:168,1,140,12|8,0:0|0:0,0:0:0:0:
192,200,174887,2,0,L|144:200,2,35
320,288,175211,2,0,L|368:288,2,35,0|0|8,0:0|0:0|0:0,0:0:0:0:
176,336,175535,2,0,L|120:336,1,35
424,168,175697,6,0,P|456:152|416:72,1,140,0|8,0:0|0:0,0:0:0:0:
240,72,176184,2,0,L|200:72,2,35
389,168,176508,2,0,L|429:168,2,35,0|0|8,0:0|0:0|0:0,0:0:0:0:
256,272,176833,2,0,L|296:272,1,35
88,216,176995,6,0,P|56:232|96:312,1,140,0|8,0:0|0:0,0:0:0:0:
256,272,177481,2,0,L|296:272,2,35
112,144,177806,2,0,L|64:144,2,35,0|0|8,0:0|0:0|0:0,0:0:0:0:
216,144,178130,2,0,L|168:144,1,35
480,192,178292,5,8,0:0:0:0:
389,192,178400,1,8,0:0:0:0:
480,192,178508,1,8,0:0:0:0:
387,272,178616,1,8,0:0:0:0:
296,272,178724,1,8,0:0:0:0:
387,272,178832,1,8,0:0:0:0:
128,272,178941,5,8,0:0:0:0:
40,272,179049,1,8,0:0:0:0:
128,272,179157,1,8,0:0:0:0:
216,160,179265,1,8,0:0:0:0:
128,160,179373,1,8,0:0:0:0:
40,160,179481,1,8,0:0:0:0:
392,160,179589,6,0,P|424:112|376:40,1,140,12|8,0:0|0:0,0:0:0:0:
216,48,180076,2,0,L|264:48,2,35
352,160,180400,2,0,L|400:160,2,35,0|0|8,0:0|0:0|0:0,0:0:0:0:
208,272,180725,2,0,L|168:272,1,35
400,269,180887,2,0,P|432:221|384:157,1,140,0|8,0:0|0:0,0:0:0:0:
248,160,181373,6,0,L|208:160,2,35
112,56,181697,2,0,L|64:56,2,35,0|0|8,0:0|0:0|0:0,0:0:0:0:
288,56,182022,2,0,L|328:56,1,35
112,269,182184,2,0,P|80:221|128:157,1,140,0|8,0:0|0:0,0:0:0:0:
272,160,182670,6,0,L|232:160,2,35
408,160,182995,2,0,L|448:160,2,35,0|0|8,0:0|0:0|0:0,0:0:0:0:
256,288,183319,6,0,L|296:288,1,35
72,288,183481,1,8,0:0:0:0:
160,288,183589,1,8,0:0:0:0:
72,288,183697,1,8,0:0:0:0:
256,184,183805,1,8,0:0:0:0:
344,184,183913,1,8,0:0:0:0:
256,184,184021,1,8,0:0:0:0:
160,64,184130,5,8,0:0:0:0:
248,64,184238,1,8,0:0:0:0:
160,64,184346,1,8,0:0:0:0:
488,64,184454,1,8,0:0:0:0:
400,64,184562,1,8,0:0:0:0:
488,64,184670,1,8,0:0:0:0:
160,64,184779,6,0,P|120:112|168:168,1,140,12|8,0:0|0:0,0:0:0:0:
288,192,185265,2,0,L|328:192,2,35
168,272,185589,2,0,L|120:272,2,35,0|0|8,0:0|0:0|0:0,0:0:0:0:
320,272,185914,2,0,L|280:272,1,35
456,272,186076,2,0,P|488:224|448:152,1,140,0|8,0:0|0:0,0:0:0:0:
320,112,186562,6,0,L|368:112,2,35
168,112,186887,2,0,L|208:112,2,35,0|0|8,0:0|0:0|0:0,0:0:0:0:
304,192,187211,2,0,L|352:192,1,35
112,256,187373,2,0,P|80:208|120:136,1,140,0|8,0:0|0:0,0:0:0:0:
256,136,187860,6,0,L|221:136,2,35
368,136,188184,2,0,L|403:136,2,35,0|0|8,0:0|0:0|0:0,0:0:0:0:
256,200,188508,2,0,L|296:200,1,35
32,192,188670,5,8,0:0:0:0:
123,192,188778,1,8,0:0:0:0:
32,192,188886,1,8,0:0:0:0:
125,272,188994,1,8,0:0:0:0:
216,272,189102,1,8,0:0:0:0:
125,272,189210,1,8,0:0:0:0:
384,272,189319,5,8,0:0:0:0:
472,272,189427,1,8,0:0:0:0:
384,272,189535,1,8,0:0:0:0:
296,160,189643,1,8,0:0:0:0:
384,160,189751,1,8,0:0:0:0:
472,160,189859,1,8,0:0:0:0:
150,85,189968,5,4,0:0:0:0:
103,129,190049,1,0,0:0:0:0:
80,185,190130,1,0,0:0:0:0:
109,251,190211,1,0,0:0:0:0:
334,224,190292,5,8,0:0:0:0:
381,180,190373,1,0,0:0:0:0:
404,124,190454,1,0,0:0:0:0:
375,58,190535,1,0,0:0:0:0:
118,30,190616,5,0,0:0:0:0:
67,67,190697,1,0,0:0:0:0:
26,114,190778,1,8,0:0:0:0:
63,164,190859,1,0,0:0:0:0:
231,284,190941,5,8,0:0:0:0:
282,247,191022,1,0,0:0:0:0:
323,200,191103,1,0,0:0:0:0:
286,150,191184,1,0,0:0:0:0:
155,84,191265,5,4,0:0:0:0:
99,82,191346,1,0,0:0:0:0:
155,151,191427,1,0,0:0:0:0:
102,152,191508,1,0,0:0:0:0:
260,219,191589,5,8,0:0:0:0:
316,217,191670,1,0,0:0:0:0:
260,286,191751,1,0,0:0:0:0:
313,287,191832,1,0,0:0:0:0:
104,314,191914,6,0,L|36:314,3,35,0|0|8|0,0:0|0:0|0:0|0:0,0:0:0:0:
332,287,192238,2,0,L|379:289,3,35,8|0|0|0,0:0|0:0|0:0|0:0,0:0:0:0:
182,248,192562,5,4,0:0:0:0:
125,226,192643,1,0,0:0:0:0:
89,178,192724,1,0,0:0:0:0:
83,125,192805,1,0,0:0:0:0:
280,164,192887,5,8,0:0:0:0:
337,142,192968,1,0,0:0:0:0:
373,94,193049,1,0,0:0:0:0:
379,41,193130,1,0,0:0:0:0:
93,180,193211,5,0,0:0:0:0:
99,233,193292,1,0,0:0:0:0:
135,281,193373,1,8,0:0:0:0:
192,303,193454,1,0,0:0:0:0:
389,96,193536,5,8,0:0:0:0:
383,149,193617,1,0,0:0:0:0:
347,197,193698,1,0,0:0:0:0:
290,219,193779,1,0,0:0:0:0:
200,220,193860,6,0,L|138:202,3,35,4|0|0|0,0:0|0:0|0:0|0:0,0:0:0:0:
243,297,194184,2,0,L|305:279,3,35,8|0|0|0,0:0|0:0|0:0|0:0,0:0:0:0:
155,84,194508,5,0,0:0:0:0:
99,82,194589,1,0,0:0:0:0:
154,152,194670,1,8,0:0:0:0:
98,150,194751,1,0,0:0:0:0:
331,258,194833,5,8,0:0:0:0:
387,256,194914,1,0,0:0:0:0:
332,326,194995,1,0,0:0:0:0:
388,324,195076,1,0,0:0:0:0:
84,240,195157,6,0,L|184:244,1,70,4|0,0:0|0:0,0:0:0:0:
428,240,195481,2,0,L|328:244,1,70,8|0,0:0|0:0,0:0:0:0:
153,242,195806,2,0,L|55:240,1,70,0|8,0:0|0:0,0:0:0:0:
335,230,196130,2,0,L|420:229,1,70,8|0,0:0|0:0,0:0:0:0:
126,236,196454,5,0,0:0:0:0:
63,224,196535,1,0,0:0:0:0:
43,167,196616,1,0,0:0:0:0:
93,120,196697,1,0,0:0:0:0:
350,55,196779,5,8,0:0:0:0:
413,67,196860,1,0,0:0:0:0:
433,124,196941,1,0,0:0:0:0:
383,171,197022,1,0,0:0:0:0:
225,43,197103,6,0,L|207:127,1,70,0|8,0:0|0:0,0:0:0:0:
345,304,197427,2,0,L|357:220,1,70,8|0,0:0|0:0,0:0:0:0:
16,104,197752,6,0,L|112:112,1,70
496,104,198076,2,0,L|400:112,1,70,8|0,0:0|0:0,0:0:0:0:
104,176,198400,2,0,L|192:184,1,70,0|8,0:0|0:0,0:0:0:0:
408,176,198725,2,8,L|320:184,1,70,8|0,0:0|0:0,0:0:0:0:
104,56,199049,6,0,L|91:151,1,70
342,323,199373,2,0,L|356:250,1,70,8|0,0:0|0:0,0:0:0:0:
79,218,199697,2,0,L|73:295,1,70,0|8,0:0|0:0,0:0:0:0:
365,265,200022,2,0,L|434:263,1,70,12|0,0:0|0:0,0:0:0:0:
194,273,200346,5,4,0:0:0:0:
158,237,200427,1,0,0:0:0:0:
140,185,200508,1,0,0:0:0:0:
164,130,200589,1,0,0:0:0:0:
335,192,200670,5,8,0:0:0:0:
371,156,200751,1,0,0:0:0:0:
389,104,200832,1,0,0:0:0:0:
370,53,200913,1,0,0:0:0:0:
208,288,200995,5,0,0:0:0:0:
165,241,201076,1,0,0:0:0:0:
128,189,201157,1,8,0:0:0:0:
141,123,201238,1,0,0:0:0:0:
399,230,201319,5,8,0:0:0:0:
442,183,201400,1,0,0:0:0:0:
479,131,201481,1,0,0:0:0:0:
460,73,201562,1,0,0:0:0:0:
208,84,201643,5,4,0:0:0:0:
150,121,201724,1,0,0:0:0:0:
109,166,201805,1,0,0:0:0:0:
85,223,201886,1,0,0:0:0:0:
306,336,201968,5,8,0:0:0:0:
343,301,202049,1,0,0:0:0:0:
384,256,202130,1,0,0:0:0:0:
408,199,202211,1,0,0:0:0:0:
160,52,202292,5,0,0:0:0:0:
101,60,202373,1,0,0:0:0:0:
57,100,202454,1,8,0:0:0:0:
93,156,202535,1,0,0:0:0:0:
242,339,202616,5,8,0:0:0:0:
301,331,202697,1,0,0:0:0:0:
345,291,202778,1,0,0:0:0:0:
321,235,202859,1,0,0:0:0:0:
139,53,202941,6,0,L|83:88,1,35,4|0,0:0|0:0,0:0:0:0:
277,127,203103,2,0,L|244:161,1,35
70,135,203265,2,0,L|54:176,1,35,8|0,0:0|0:0,0:0:0:0:
250,185,203427,2,0,L|242:223,1,35
39,228,203589,2,0,L|-3:247,1,35
246,264,203752,2,0,L|208:294,1,35,8|0,0:0|0:0,0:0:0:0:
46,299,203914,2,0,L|-8:329,1,35,8|0,0:0|0:0,0:0:0:0:
244,353,204076,2,0,L|276:397,1,35
373,53,204238,6,0,L|429:88,1,35,4|0,0:0|0:0,0:0:0:0:
235,127,204400,2,0,L|268:161,1,35
442,135,204562,2,0,L|458:176,1,35,8|0,0:0|0:0,0:0:0:0:
262,185,204724,2,0,L|270:223,1,35
473,228,204886,2,0,L|515:247,1,35
266,264,205049,2,0,L|304:294,1,35,8|0,0:0|0:0,0:0:0:0:
466,299,205211,2,0,L|520:329,1,35,8|0,0:0|0:0,0:0:0:0:
280,355,205373,2,0,L|334:374,1,35
471,127,205535,6,0,L|376:136,1,70,4|0,0:0|0:0,0:0:0:0:
147,127,205860,2,0,L|230:134,1,70,8|0,0:0|0:0,0:0:0:0:
496,113,206184,2,0,L|400:132,1,70,0|8,0:0|0:0,0:0:0:0:
79,115,206508,2,0,L|170:131,1,70,8|0,0:0|0:0,0:0:0:0:
439,204,206833,6,0,L|427:286,1,70
127,286,207157,2,0,L|142:192,1,70,8|0,0:0|0:0,0:0:0:0:
409,186,207481,2,0,L|391:277,1,70,0|8,0:0|0:0,0:0:0:0:
118,285,207806,2,0,L|125:188,1,70,8|0,0:0|0:0,0:0:0:0:
395,213,208130,5,4,0:0:0:0:
340,204,208211,1,0,0:0:0:0:
294,188,208292,1,0,0:0:0:0:
263,143,208373,1,0,0:0:0:0:
302,105,208454,5,8,0:0:0:0:
357,77,208535,1,0,0:0:0:0:
322,36,208616,1,0,0:0:0:0:
263,23,208697,1,0,0:0:0:0:
209,35,208778,1,0,0:0:0:0:
233,74,208860,5,0,0:0:0:0:
270,92,208941,1,8,0:0:0:0:
315,110,209022,1,0,0:0:0:0:
358,143,209103,1,8,0:0:0:0:
383,191,209184,1,0,0:0:0:0:
349,227,209265,1,0,0:0:0:0:
299,243,209346,1,0,0:0:0:0:
255,227,209427,1,0,0:0:0:0:
198,198,209508,5,0,0:0:0:0:
239,188,209589,1,0,0:0:0:0:
270,147,209670,1,0,0:0:0:0:
293,91,209751,1,8,0:0:0:0:
262,48,209832,1,0,0:0:0:0:
210,26,209913,1,0,0:0:0:0:
155,43,209994,1,0,0:0:0:0:
111,78,210075,1,0,0:0:0:0:
158,118,210156,5,0,0:0:0:0:
199,159,210237,1,8,0:0:0:0:
151,195,210319,1,0,0:0:0:0:
195,254,210400,5,8,0:0:0:0:
253,255,210481,1,0,0:0:0:0:
195,254,210563,1,0,0:0:0:0:
253,255,210644,1,0,0:0:0:0:
128,240,210725,5,4,0:0:0:0:
72,210,210806,1,0,0:0:0:0:
40,150,210887,1,0,0:0:0:0:
65,103,210968,1,0,0:0:0:0:
103,58,211049,5,8,0:0:0:0:
155,84,211130,1,0,0:0:0:0:
196,122,211211,1,0,0:0:0:0:
240,163,211292,1,0,0:0:0:0:
258,205,211373,5,0,0:0:0:0:
221,244,211454,1,0,0:0:0:0:
190,264,211535,1,8,0:0:0:0:
230,307,211616,1,0,0:0:0:0:
289,289,211697,5,8,0:0:0:0:
321,238,211778,1,0,0:0:0:0:
287,183,211859,1,0,0:0:0:0:
237,157,211940,1,0,0:0:0:0:
178,132,212022,5,0,0:0:0:0:
223,104,212103,1,0,0:0:0:0:
270,77,212184,1,0,0:0:0:0:
251,15,212265,1,0,0:0:0:0:
194,4,212346,5,8,0:0:0:0:
143,39,212427,1,0,0:0:0:0:
99,81,212508,1,0,0:0:0:0:
87,128,212589,1,0,0:0:0:0:
124,175,212670,5,0,0:0:0:0:
184,193,212751,1,0,0:0:0:0:
238,150,212832,1,8,0:0:0:0:
205,100,212913,1,0,0:0:0:0:
139,81,212995,5,8,0:0:0:0:
174,25,213076,1,0,0:0:0:0:
228,0,213157,1,0,0:0:0:0:
289,16,213238,1,0,0:0:0:0:
448,168,213319,6,0,L|283:165,1,140,4|8,0:0|0:0,0:0:0:0:
203,168,213806,1,0,0:0:0:0:
450,162,213968,2,0,L|277:158,1,140,0|8,0:0|0:0,0:0:0:0:
203,168,214454,1,0,0:0:0:0:
448,148,214616,6,0,L|351:148,2,70,0|0|8,0:0|0:0|0:0,0:0:0:0:
243,149,215103,1,0,0:0:0:0:
43,130,215265,2,0,L|137:139,1,70
336,108,215589,2,0,L|233:115,1,70,8|0,0:0|0:0,0:0:0:0:
30,156,215914,6,0,L|178:158,1,140,0|8,0:0|0:0,0:0:0:0:
254,152,216400,1,0,0:0:0:0:
35,156,216562,2,0,L|197:131,1,140,0|8,0:0|0:0,0:0:0:0:
254,152,217049,1,0,0:0:0:0:
48,152,217211,5,12,0:0:0:0:
175,155,217454,1,8,0:0:0:0:
88,153,217616,2,8,L|46:154,3,35,8|8|8|12,0:0|0:0|0:0|0:0,0:0:0:0:
219,159,218103,2,8,L|317:166,1,70
106,248,218508,5,12,0:0:0:0:
54,216,218589,1,0,0:0:0:0:
28,170,218670,1,0,0:0:0:0:
43,113,218751,1,0,0:0:0:0:
93,84,218833,5,8,0:0:0:0:
133,139,218914,1,0,0:0:0:0:
185,180,218995,1,0,0:0:0:0:
244,142,219076,1,0,0:0:0:0:
221,72,219157,5,8,0:0:0:0:
266,26,219238,1,0,0:0:0:0:
327,54,219319,1,0,0:0:0:0:
368,118,219400,1,0,0:0:0:0:
312,173,219481,5,8,0:0:0:0:
252,202,219562,1,0,0:0:0:0:
210,254,219643,1,0,0:0:0:0:
254,306,219724,1,0,0:0:0:0:
316,267,219806,5,8,0:0:0:0:
288,218,219887,1,0,0:0:0:0:
245,166,219968,1,0,0:0:0:0:
187,143,220049,1,0,0:0:0:0:
39,71,220130,6,0,L|131:73,1,70,8|0,0:0|0:0,0:0:0:0:
293,63,220454,2,0,L|210:59,1,70,8|0,0:0|0:0,0:0:0:0:
146,50,220697,1,0,0:0:0:0:
223,59,220779,2,0,L|316:71,1,70,8|0,0:0|0:0,0:0:0:0:
180,311,221103,5,8,0:0:0:0:
136,274,221184,1,0,0:0:0:0:
110,218,221265,1,0,0:0:0:0:
140,168,221346,1,0,0:0:0:0:
204,170,221427,5,8,0:0:0:0:
248,133,221508,1,0,0:0:0:0:
144,96,221589,1,0,0:0:0:0:
208,96,221670,1,0,0:0:0:0:
144,96,221752,1,8,0:0:0:0:
208,96,221833,1,0,0:0:0:0:
128,96,221914,1,0,0:0:0:0:
88,120,221995,1,0,0:0:0:0:
115,153,222076,5,8,0:0:0:0:
141,206,222157,1,0,0:0:0:0:
187,240,222238,1,0,0:0:0:0:
233,252,222319,1,0,0:0:0:0:
287,221,222400,5,8,0:0:0:0:
346,189,222481,1,0,0:0:0:0:
385,137,222562,1,0,0:0:0:0:
359,79,222643,1,0,0:0:0:0:
262,68,222725,6,0,L|178:70,1,70,8|0,0:0|0:0,0:0:0:0:
262,68,222968,1,0,0:0:0:0:
320,70,223049,2,0,L|456:80,1,70,8|0,0:0|0:0,0:0:0:0:
368,48,223292,2,0,L|288:88,1,70
224,56,223535,1,0,0:0:0:0:
150,56,223697,5,8,0:0:0:0:
93,81,223778,1,0,0:0:0:0:
56,124,223860,1,0,0:0:0:0:
76,177,223940,1,0,0:0:0:0:
118,223,224022,5,8,0:0:0:0:
165,205,224103,1,0,0:0:0:0:
216,218,224184,1,0,0:0:0:0:
174,264,224265,1,0,0:0:0:0:
219,314,224346,5,8,0:0:0:0:
268,305,224427,1,0,0:0:0:0:
309,264,224508,1,0,0:0:0:0:
323,205,224589,1,0,0:0:0:0:
271,156,224670,5,8,0:0:0:0:
295,101,224751,1,0,0:0:0:0:
330,63,224833,1,0,0:0:0:0:
380,42,224913,1,0,0:0:0:0:
286,24,224995,6,0,L|256:60,1,35,8|0,0:0|0:0,0:0:0:0:
117,18,225157,2,0,L|99:58,1,35
252,101,225319,2,0,L|238:145,1,35,8|0,0:0|0:0,0:0:0:0:
59,126,225481,2,0,L|48:170,1,35
237,185,225643,2,0,L|223:239,1,35,8|0,0:0|0:0,0:0:0:0:
35,228,225806,2,0,L|28:273,1,35
248,253,225968,2,0,L|231:310,1,35,8|0,0:0|0:0,0:0:0:0:
29,291,226130,2,0,L|23:342,1,35
487,325,226292,6,0,L|483:291,1,35,12|0,0:0|0:0,0:0:0:0:
274,286,226454,2,0,L|264:253,1,35
482,262,226616,2,0,L|477:228,1,35,8|0,0:0|0:0,0:0:0:0:
283,218,226779,2,0,L|275:185,1,35
461,159,226941,2,0,L|453:126,1,35,12|0,0:0|0:0,0:0:0:0:
270,134,227103,2,0,L|260:101,1,35
409,49,227265,2,0,L|395:18,1,35,8|0,0:0|0:0,0:0:0:0:
248,50,227427,2,0,L|226:24,1,35
139,24,227589,5,12,0:0:0:0:
94,61,227670,1,0,0:0:0:0:
54,103,227751,1,0,0:0:0:0:
82,156,227832,1,0,0:0:0:0:
136,188,227914,5,8,0:0:0:0:
181,151,227995,1,0,0:0:0:0:
221,109,228076,1,0,0:0:0:0:
193,56,228157,1,0,0:0:0:0:
136,96,228238,6,0,L|48:96,1,70,8|0,0:0|0:0,0:0:0:0:
104,32,228481,2,0,L|200:32,1,70
64,104,228725,1,0,0:0:0:0:
316,305,228887,5,12,0:0:0:0:
368,264,228968,1,0,0:0:0:0:
400,200,229049,1,0,0:0:0:0:
408,128,229130,1,0,0:0:0:0:
360,160,229211,1,0,0:0:0:0:
336,88,229292,1,0,0:0:0:0:
288,32,229373,1,0,0:0:0:0:
232,0,229454,1,0,0:0:0:0:
196,305,229535,5,12,0:0:0:0:
144,264,229616,1,0,0:0:0:0:
112,200,229697,1,0,0:0:0:0:
104,128,229778,1,0,0:0:0:0:
152,160,229859,1,0,0:0:0:0:
176,88,229940,1,0,0:0:0:0:
224,32,230021,1,0,0:0:0:0:
280,0,230102,1,0,0:0:0:0:
184,72,230184,5,8,0:0:0:0:
142,104,230265,1,0,0:0:0:0:
84,88,230346,1,0,0:0:0:0:
128,40,230427,1,0,0:0:0:0:
304,72,230508,6,8,L|400:64,1,70
448,48,230752,2,0,L|352:32,1,70
272,32,230995,2,0,L|208:96,1,70,0|8,0:0|0:0,0:0:0:0:
155,68,231238,1,0,0:0:0:0:
32,48,231319,1,0,0:0:0:0:
260,49,231481,5,8,0:0:0:0:
305,84,231562,1,0,0:0:0:0:
342,140,231643,1,0,0:0:0:0:
312,193,231724,1,0,0:0:0:0:
257,227,231806,5,8,0:0:0:0:
200,257,231887,1,0,0:0:0:0:
133,225,231968,1,0,0:0:0:0:
187,165,232049,1,0,0:0:0:0:
245,146,232130,5,8,0:0:0:0:
291,116,232211,1,0,0:0:0:0:
315,61,232292,1,0,0:0:0:0:
268,18,232373,1,0,0:0:0:0:
199,6,232454,5,8,0:0:0:0:
141,29,232535,1,0,0:0:0:0:
94,72,232616,1,0,0:0:0:0:
73,127,232697,1,0,0:0:0:0:
112,178,232779,5,8,0:0:0:0:
156,163,232860,1,0,0:0:0:0:
209,186,232941,1,0,0:0:0:0:
246,239,233022,1,0,0:0:0:0:
299,297,233103,6,0,L|426:298,1,105,8|0,0:0|0:0,0:0:0:0:
361,233,233427,2,0,L|289:234,1,70,8|0,0:0|0:0,0:0:0:0:
189,169,233670,2,0,L|276:175,1,70
333,172,233914,1,0,0:0:0:0:
232,171,234076,5,12,0:0:0:0:
189,169,234157,1,0,0:0:0:0:
138,128,234238,1,0,0:0:0:0:
131,72,234319,1,0,0:0:0:0:
170,29,234400,5,8,0:0:0:0:
207,70,234481,1,0,0:0:0:0:
244,98,234562,1,0,0:0:0:0:
287,68,234643,1,0,0:0:0:0:
331,109,234725,5,8,0:0:0:0:
377,146,234806,1,0,0:0:0:0:
409,195,234887,1,0,0:0:0:0:
370,246,234968,1,0,0:0:0:0:
303,251,235049,5,8,0:0:0:0:
285,209,235130,1,0,0:0:0:0:
253,169,235211,1,0,0:0:0:0:
207,148,235292,1,0,0:0:0:0:
143,154,235373,5,8,0:0:0:0:
179,191,235454,1,0,0:0:0:0:
213,240,235535,1,0,0:0:0:0:
173,285,235616,1,0,0:0:0:0:
432,264,236022,5,2,2:0:0:0:
256,254,236346,2,0,L|336:256,1,70,2|0,2:0|2:0,2:0:0:0:
56,256,236670,5,12,0:0:0:0:
24,208,236752,1,0,0:0:0:0:
40,152,236833,1,0,0:0:0:0:
96,136,236914,1,0,0:0:0:0:
312,136,236995,2,0,L|368:136,1,35,8|0,0:0|0:0,0:0:0:0:
408,136,237157,2,0,L|360:136,1,35
120,160,237319,5,8,0:0:0:0:
104,224,237400,1,0,0:0:0:0:
88,288,237481,1,0,0:0:0:0:
72,352,237562,1,0,0:0:0:0:
280,352,237643,1,8,0:0:0:0:
328,312,237725,1,0,0:0:0:0:
304,256,237806,1,0,0:0:0:0:
248,288,237887,1,0,0:0:0:0:
40,288,237968,5,12,0:0:0:0:
160,280,238184,1,0,0:0:0:0:
272,272,238400,1,0,0:0:0:0:
216,280,238508,1,0,0:0:0:0:
160,280,238616,1,12,0:0:0:0:
272,272,238833,1,0,0:0:0:0:
384,264,239049,1,0,0:0:0:0:
328,272,239157,1,0,0:0:0:0:
104,280,239265,6,0,L|56:280,1,35,12|0,0:0|0:0,0:0:0:0:
256,272,239427,2,0,L|304:264,1,35
56,272,239589,1,8,0:0:0:0:
40,208,239670,1,0,0:0:0:0:
72,160,239752,1,0,0:0:0:0:
128,152,239833,1,0,0:0:0:0:
328,152,239914,5,8,0:0:0:0:
384,176,239995,1,0,0:0:0:0:
408,232,240076,1,0,0:0:0:0:
384,288,240157,1,0,0:0:0:0:
184,304,240238,1,8,0:0:0:0:
168,240,240319,1,0,0:0:0:0:
232,224,240400,1,0,0:0:0:0:
256,160,240481,1,0,0:0:0:0:
64,152,240562,5,8,0:0:0:0:
40,208,240643,1,0,0:0:0:0:
72,264,240725,1,0,0:0:0:0:
128,280,240806,1,0,0:0:0:0:
336,280,240887,2,0,L|320:240,1,35,8|0,0:0|0:0,0:0:0:0:
472,232,241049,2,0,L|424:232,1,35
240,232,241211,5,8,0:0:0:0:
208,176,241292,1,0,0:0:0:0:
208,120,241373,1,0,0:0:0:0:
256,80,241454,1,0,0:0:0:0:
344,240,241535,1,8,0:0:0:0:
392,192,241616,1,0,0:0:0:0:
392,128,241697,1,0,0:0:0:0:
344,96,241779,1,0,0:0:0:0:
136,104,241860,6,0,L|112:152,1,35,8|0,0:0|0:0,0:0:0:0:
280,192,242022,1,0,0:0:0:0:
336,224,242103,1,0,0:0:0:0:
352,288,242184,1,8,0:0:0:0:
304,336,242265,1,0,0:0:0:0:
240,328,242346,1,0,0:0:0:0:
192,288,242427,1,0,0:0:0:0:
16,272,242508,5,8,0:0:0:0:
0,216,242589,1,0,0:0:0:0:
24,160,242670,1,0,0:0:0:0:
80,136,242752,1,0,0:0:0:0:
280,136,242833,2,0,L|320:136,1,35,8|0,0:0|0:0,0:0:0:0:
368,136,242995,2,0,L|320:136,1,35
112,192,243157,5,8,0:0:0:0:
64,224,243238,1,0,0:0:0:0:
64,280,243319,1,0,0:0:0:0:
112,312,243400,1,0,0:0:0:0:
320,312,243481,2,0,L|336:272,1,35,8|0,0:0|0:0,0:0:0:0:
376,280,243643,2,0,L|368:240,1,35
144,240,243806,6,0,L|128:144,1,70,8|0,0:0|0:0,0:0:0:0:
176,160,244049,2,0,L|176:88,1,70
120,88,244292,1,0,0:0:0:0:
176,90,244373,1,0,0:0:0:0:
408,88,244454,5,8,0:0:0:0:
456,128,244535,1,0,0:0:0:0:
464,192,244616,1,0,0:0:0:0:
432,248,244697,1,0,0:0:0:0:
208,256,244779,1,8,0:0:0:0:
152,272,244860,1,0,0:0:0:0:
152,336,244941,1,0,0:0:0:0:
208,352,245022,1,0,0:0:0:0:
400,328,245103,5,8,0:0:0:0:
456,328,245184,1,0,0:0:0:0:
512,328,245265,1,0,0:0:0:0:
456,328,245346,1,0,0:0:0:0:
280,336,245427,1,8,0:0:0:0:
240,288,245508,1,0,0:0:0:0:
296,264,245589,1,0,0:0:0:0:
320,208,245670,1,0,0:0:0:0:
120,192,245752,5,8,0:0:0:0:
56,168,245834,1,0,0:0:0:0:
56,104,245915,1,0,0:0:0:0:
120,96,245996,1,0,0:0:0:0:
352,96,246076,1,8,0:0:0:0:
368,160,246157,1,0,0:0:0:0:
376,224,246238,1,0,0:0:0:0:
336,272,246319,1,0,0:0:0:0:
112,304,246400,6,0,L|64:296,1,35,8|0,0:0|0:0,0:0:0:0:
232,304,246562,2,0,L|272:296,1,35
56,288,246725,1,8,0:0:0:0:
32,224,246806,1,0,0:0:0:0:
64,168,246887,1,0,0:0:0:0:
120,160,246968,1,0,0:0:0:0:
368,64,247049,6,0,L|376:112,1,35,12|0,0:0|0:0,0:0:0:0:
432,136,247211,2,0,L|416:176,1,35
368,216,247373,2,0,L|320:224,1,35,8|0,0:0|0:0,0:0:0:0:
272,200,247535,2,0,L|240:176,1,35
24,96,247697,6,0,L|16:152,1,35,12|0,0:0|0:0,0:0:0:0:
56,176,247860,2,0,L|88:200,1,35
136,216,248022,2,0,L|144:264,1,35,8|0,0:0|0:0,0:0:0:0:
112,304,248184,2,0,L|152:336,1,35
368,336,248346,5,12,0:0:0:0:
432,320,248427,1,0,0:0:0:0:
464,264,248508,1,0,0:0:0:0:
448,200,248589,1,0,0:0:0:0:
392,176,248670,1,8,0:0:0:0:
448,144,248752,1,0,0:0:0:0:
464,80,248833,1,0,0:0:0:0:
416,32,248914,1,0,0:0:0:0:
160,48,248995,6,0,L|104:128,1,70,12|0,0:0|0:0,0:0:0:0:
64,104,249238,2,0,L|88:192,1,70
128,200,249481,2,0,L|168:208,1,35
400,216,249643,5,12,0:0:0:0:
464,224,249725,1,0,0:0:0:0:
496,160,249806,1,0,0:0:0:0:
464,104,249887,1,0,0:0:0:0:
400,112,249968,1,8,0:0:0:0:
224,112,250049,1,0,0:0:0:0:
160,112,250130,1,0,0:0:0:0:
224,112,250211,1,0,0:0:0:0:
432,168,250292,5,8,0:0:0:0:
456,232,250373,1,0,0:0:0:0:
400,264,250454,1,0,0:0:0:0:
384,328,250535,1,0,0:0:0:0:
320,336,250616,1,8,0:0:0:0:
296,280,250697,1,0,0:0:0:0:
344,248,250779,1,0,0:0:0:0:
360,192,250860,1,0,0:0:0:0:
104,240,250941,5,8,0:0:0:0:
48,216,251022,1,0,0:0:0:0:
48,160,251103,1,0,0:0:0:0:
104,144,251184,1,0,0:0:0:0:
48,160,251265,1,8,0:0:0:0:
104,144,251346,1,0,0:0:0:0:
160,128,251427,1,0,0:0:0:0:
104,144,251508,1,0,0:0:0:0:
264,192,251589,6,0,L|304:192,1,35,8|0,0:0|0:0,0:0:0:0:
464,192,251752,2,0,L|416:192,1,35
248,256,251914,2,0,L|240:296,1,35,8|0,0:0|0:0,0:0:0:0:
256,344,252076,1,0,0:0:0:0:
320,352,252157,1,0,0:0:0:0:
496,320,252238,5,8,0:0:0:0:
512,256,252319,1,0,0:0:0:0:
472,200,252400,1,0,0:0:0:0:
408,192,252481,1,0,0:0:0:0:
320,184,252562,1,8,0:0:0:0:
336,120,252643,1,0,0:0:0:0:
296,64,252725,1,0,0:0:0:0:
232,72,252806,1,0,0:0:0:0:
8,80,252887,6,0,L|16:136,1,35,8|0,0:0|0:0,0:0:0:0:
64,136,253049,2,0,L|72:176,1,35
120,200,253211,2,0,L|152:224,1,35,8|0,0:0|0:0,0:0:0:0:
184,256,253373,2,0,L|224:272,1,35
432,288,253535,5,8,0:0:0:0:
472,240,253616,1,0,0:0:0:0:
440,184,253697,1,0,0:0:0:0:
376,192,253779,1,0,0:0:0:0:
416,136,253860,1,8,0:0:0:0:
448,80,253941,1,0,0:0:0:0:
392,48,254022,1,0,0:0:0:0:
336,32,254103,1,0,0:0:0:0:
40,48,254184,6,0,L|32:144,1,70,8|0,0:0|0:0,0:0:0:0:
80,136,254427,2,0,L|80:216,1,70
104,248,254670,2,0,L|128:296,1,35
344,288,254833,5,12,0:0:0:0:
400,256,254914,1,0,0:0:0:0:
392,192,254995,1,0,0:0:0:0:
448,168,255076,1,0,0:0:0:0:
224,192,255157,1,8,0:0:0:0:
168,176,255238,1,0,0:0:0:0:
192,120,255319,1,0,0:0:0:0:
136,104,255400,1,0,0:0:0:0:
352,64,255481,5,8,0:0:0:0:
416,80,255562,1,0,0:0:0:0:
448,136,255643,1,0,0:0:0:0:
440,200,255725,1,0,0:0:0:0:
400,240,255806,1,8,0:0:0:0:
344,256,255887,1,0,0:0:0:0:
144,256,255968,2,0,L|88:256,1,35
320,336,256130,5,12,0:0:0:0:
104,328,256779,6,0,P|72:296|128:248,1,105,2|0,2:0|2:0,2:0:0:0:
96,248,257103,2,0,P|144:240|160:184,1,105,2|0,2:0|2:0,2:0:0:0:
384,144,257427,5,12,0:0:0:0:
440,184,257508,1,8,0:0:0:0:
480,240,257589,1,8,0:0:0:0:
344,280,257752,1,8,0:0:0:0:
280,288,257833,1,8,0:0:0:0:
344,280,257914,1,8,0:0:0:0:
72,304,258076,2,8,L|48:224,1,70
144,192,258400,2,8,L|168:160,2,35
448,192,258725,6,8,L|472:272,1,70
376,320,259049,1,8,0:0:0:0:
368,264,259130,1,0,0:0:0:0:
360,208,259211,1,8,0:0:0:0:
352,152,259292,1,8,0:0:0:0:
344,96,259373,2,8,L|248:112,1,70
176,128,259697,2,0,L|256:112,1,70,12|8,0:0|0:0,0:0:0:0:
288,104,259941,1,8,0:0:0:0:
56,144,260022,6,0,L|88:224,1,70,12|8,0:0|0:0,0:0:0:0:
208,208,260346,1,8,0:0:0:0:
200,264,260427,1,8,0:0:0:0:
192,320,260508,1,8,0:0:0:0:
312,312,260670,2,8,L|392:296,1,70
272,288,260995,2,0,L|264:232,1,35,8|0,0:0|0:0,0:0:0:0:
304,224,261157,2,8,L|296:176,1,35
72,160,261319,5,8,0:0:0:0:
48,216,261400,1,8,0:0:0:0:
80,272,261481,1,8,0:0:0:0:
224,232,261643,1,8,0:0:0:0:
288,216,261725,1,8,0:0:0:0:
344,200,261806,1,8,0:0:0:0:
120,216,261968,5,8,0:0:0:0:
128,152,262049,1,8,0:0:0:0:
136,88,262130,1,8,0:0:0:0:
280,96,262292,1,8,0:0:0:0:
336,120,262373,1,8,0:0:0:0:
368,176,262454,1,8,0:0:0:0:
344,232,262535,1,8,0:0:0:0:
104,256,262616,6,8,L|192:296,1,70,12|8,0:0|0:0,0:0:0:0:
304,304,262941,1,8,0:0:0:0:
240,312,263022,1,8,0:0:0:0:
184,320,263103,1,8,0:0:0:0:
336,296,263265,2,8,L|368:232,1,70
272,208,263589,1,8,0:0:0:0:
232,160,263670,1,8,0:0:0:0:
272,112,263752,1,8,0:0:0:0:
24,152,263914,6,8,L|48:232,1,70
176,232,264238,1,8,0:0:0:0:
168,288,264319,1,8,0:0:0:0:
160,344,264400,1,8,0:0:0:0:
280,264,264562,2,8,L|184:240,1,70
104,232,264887,2,0,L|56:232,1,35,8|0,0:0|0:0,0:0:0:0:
56,184,265049,2,0,L|104:184,1,35,8|0,0:0|0:0,0:0:0:0:
344,176,265211,5,8,0:0:0:0:
408,152,265292,1,8,0:0:0:0:
472,120,265373,1,8,0:0:0:0:
328,80,265535,2,8,L|280:136,1,70
176,144,265860,1,8,0:0:0:0:
200,200,265941,1,8,0:0:0:0:
224,256,266022,1,8,0:0:0:0:
112,288,266184,2,8,L|192:280,1,70
456,288,266508,5,8,0:0:0:0:
496,240,266589,1,8,0:0:0:0:
472,176,266670,1,8,0:0:0:0:
408,192,266752,1,8,0:0:0:0:
184,208,266833,1,8,0:0:0:0:
120,208,266914,1,8,0:0:0:0:
120,144,266995,1,8,0:0:0:0:
184,144,267076,1,8,0:0:0:0:
392,136,267157,6,8,L|440:112,1,35
240,136,267319,2,8,L|184:120,1,35
408,224,267481,2,8,L|448:216,1,35
232,248,267643,2,8,L|184:240,1,35
456,320,267806,5,12,0:0:0:0:
192,336,267968,1,12,0:0:0:0:
456,320,268130,1,12,0:0:0:0:
184,336,268292,2,0,P|176:248|216:224,1,140,12|0,0:0|0:0,0:0:0:0:
