osu file format v14

[General]
AudioFilename: audio.mp3
AudioLeadIn: 0
PreviewTime: 21770
Countdown: 1
SampleSet: None
StackLeniency: 0.7
Mode: 0
LetterboxInBreaks: 0
WidescreenStoryboard: 0

[Editor]
DistanceSpacing: 1.8
BeatDivisor: 4
GridSize: 8
TimelineZoom: 1.6

[Metadata]
Title:Sorry For Everything
TitleUnicode:Sorry For Everything
Artist:Dead by April
ArtistUnicode:Dead by April
Creator:Drummer
Version:Tragedy
Source:
Tags:
BeatmapID:1928653
BeatmapSetID:923529

[Difficulty]
HPDrainRate:5
CircleSize:4
OverallDifficulty:8.8
ApproachRate:9.2
SliderMultiplier:1.8
SliderTickRate:1

[Events]
//Background and Video events
0,0,"bg.jpg",0,0
//Break Periods
//Storyboard Layer 0 (Background)
//Storyboard Layer 1 (Fail)
//Storyboard Layer 2 (Pass)
//Storyboard Layer 3 (Foreground)
//Storyboard Sound Samples

[TimingPoints]
604,333.333333333333,4,2,1,10,1,0
604,-200,4,2,1,10,0,0
1103,-166.666666666667,4,2,1,10,0,0
1437,-200,4,2,1,10,0,0
1770,-166.666666666667,4,2,1,10,0,0
2103,-200,4,2,1,10,0,0
2103,-200,4,2,1,10,0,0
2437,-166.666666666667,4,2,1,10,0,0
2770,-200,4,2,1,10,0,0
3270,-166.666666666667,4,2,1,10,0,0
3770,-142.857142857143,4,2,1,10,0,0
4103,-166.666666666667,4,2,1,10,0,0
4437,-142.857142857143,4,2,1,10,0,0
4770,-166.666666666667,4,2,1,10,0,0
5103,-142.857142857143,4,2,1,10,0,0
5437,-166.666666666667,4,2,1,10,0,0
5937,-200,4,2,1,20,0,0
6437,-166.666666666667,4,2,1,20,0,0
6770,-200,4,2,1,20,0,0
7103,-166.666666666667,4,2,1,20,0,0
7437,-200,4,2,1,20,0,0
7770,-166.666666666667,4,2,1,20,0,0
8103,-200,4,2,1,20,0,0
8603,-166.666666666667,4,2,1,10,0,0
8770,-166.666666666667,4,2,1,10,0,0
8937,-166.666666666667,4,2,1,15,0,0
9270,-166.666666666667,4,2,1,20,0,0
9603,-166.666666666667,4,2,1,30,0,0
9937,-166.666666666667,4,2,1,40,0,0
10437,-166.666666666667,4,2,1,50,0,0
10937,-166.666666666667,4,2,1,60,0,0
11103,-166.666666666667,4,2,1,20,0,0
11270,-71.4285714285714,4,2,1,80,0,1
13853,-71.4285714285714,4,2,1,5,0,1
13937,-71.4285714285714,4,2,1,80,0,1
19187,-71.4285714285714,4,2,1,5,0,1
19270,-71.4285714285714,4,2,1,80,0,0
21937,-71.4285714285714,4,2,1,80,0,1
24520,-71.4285714285714,4,2,1,5,0,1
24603,-71.4285714285714,4,2,1,80,0,1
26937,-71.4285714285714,4,2,1,80,0,0
27270,-71.4285714285714,4,2,1,80,0,1
29853,-71.4285714285714,4,2,1,5,0,1
29937,-83.3333333333333,4,2,1,80,0,0
35270,-125,4,2,1,35,0,0
47270,-125,4,2,1,10,0,0
48603,-100,4,2,1,70,0,0
57270,-100,4,2,2,70,0,0
57437,-100,4,2,1,70,0,0
57603,-100,4,2,1,50,0,0
57937,-100,4,2,1,70,0,0
58103,-100,4,2,2,70,0,0
58603,-100,4,2,1,70,0,0
59270,-100,4,2,1,80,0,1
73187,-100,4,2,1,5,0,1
73270,-100,4,2,1,80,0,1
73937,-90.9090909090909,4,2,1,80,0,0
74437,-90.9090909090909,4,2,2,70,0,0
74937,-90.9090909090909,4,2,1,80,0,0
75270,-100,4,2,1,80,0,1
79853,-100,4,2,1,5,0,1
79937,-100,4,2,1,80,0,1
84603,-90.9090909090909,4,2,1,80,0,1
85270,-90.9090909090909,4,2,1,80,0,0
85937,-83.3333333333333,4,2,1,80,0,1
86270,-83.3333333333333,4,2,2,80,0,0
86437,-83.3333333333333,4,2,1,80,0,0
87270,-83.3333333333333,4,2,1,50,0,0
87437,-83.3333333333333,4,2,1,80,0,0
88520,-83.3333333333333,4,2,1,5,0,0
88603,-71.4285714285714,4,2,1,80,0,1
90937,-71.4285714285714,4,2,1,80,0,0
91270,-71.4285714285714,4,2,1,80,0,1
93853,-71.4285714285714,4,2,1,5,0,1
93937,-71.4285714285714,4,2,1,80,0,0
99103,-71.4285714285714,4,2,2,80,0,0

[HitObjects]
95,139,604,6,0,L|139:143,1,45,2|2,0:0|0:3,0:0:0:0:
169,137,937,1,0,0:0:0:0:
311,193,1103,6,0,P|338:187|362:175,1,53.9999983520508,2|0,0:3|0:0,0:0:0:0:
192,218,1437,2,0,P|217:226|244:227,1,45,2|0,0:0|0:0,0:0:0:0:
238,92,1770,6,0,P|263:83|290:82,1,53.9999983520508,2|0,0:3|0:0,0:0:0:0:
169,137,2103,2,0,P|160:116|156:94,1,45,2|0,0:0|0:0,0:0:0:0:
235,228,2437,6,0,P|233:254|225:280,1,53.9999983520508,2|0,0:3|0:0,0:0:0:0:
156,223,2770,1,2,0:3:0:0:
264,109,2937,1,2,0:0:0:0:
311,193,3103,1,0,0:0:0:0:
360,42,3270,6,0,L|368:109,1,53.9999983520508,0|2,0:0|0:3,0:0:0:0:
360,124,3603,1,0,0:0:0:0:
466,0,3770,6,0,P|477:39|477:65,1,62.9999980773926,2|0,0:3|0:0,0:0:0:0:
449,223,4103,2,0,P|438:184|438:158,1,53.9999983520508,2|0,0:0|0:0,0:0:0:0:
360,42,4437,6,0,P|371:81|371:107,1,62.9999980773926,2|0,0:3|0:0,0:0:0:0:
314,225,4770,2,0,P|340:227|366:236,1,53.9999983520508,2|0,0:0|0:0,0:0:0:0:
218,272,5103,6,0,P|207:233|207:207,1,62.9999980773926,2|0,0:3|0:0,0:0:0:0:
273,72,5437,1,2,0:3:0:0:
314,225,5603,1,2,0:0:0:0:
360,124,5770,1,0,0:0:0:0:
399,278,5937,6,0,L|401:212,1,45,2|2,0:0|0:3,0:0:0:0:
394,200,6270,1,0,0:0:0:0:
319,340,6437,6,0,P|295:347|247:344,1,53.9999983520508,2|0,0:3|0:0,0:0:0:0:
139,338,6770,2,0,P|117:332|83:309,1,45,2|0,0:0|0:0,0:0:0:0:
270,264,7103,6,0,P|246:271|198:268,1,53.9999983520508,2|0,0:3|0:0,0:0:0:0:
108,186,7436,2,0,P|102:207|79:241,1,53.9999983520508,2|0,0:0|0:0,0:0:0:0:
97,82,7770,6,0,P|123:82|149:89,1,53.9999983520508,2|0,0:3|0:0,0:0:0:0:
258,234,8103,1,2,0:3:0:0:
108,186,8270,1,2,0:0:0:0:
219,135,8437,1,0,0:0:0:0:
181,267,8603,5,2,0:0:0:0:
256,192,8770,12,0,11103,0:0:0:0:
204,59,11270,6,0,B|230:50|256:55|256:55|268:49|268:49|296:64|337:56,1,125.999996154785,4|0,3:0|3:0,3:0:0:0:
482,14,11603,1,10,0:1:0:0:
274,185,11770,1,0,3:0:0:0:
398,0,11937,5,2,3:1:0:0:
339,256,12103,1,0,3:0:0:0:
508,99,12270,1,10,0:1:0:0:
204,59,12437,2,0,P|180:103|192:185,1,125.999996154785,0|2,3:0|0:1,0:0:0:0:
412,203,12770,5,0,3:0:0:0:
204,59,12937,2,0,L|74:70,1,125.999996154785,10|0,0:1|0:0,0:0:0:0:
246,305,13270,1,2,3:1:0:0:
326,57,13437,1,0,3:0:0:0:
86,167,13603,2,0,B|121:183|150:170|150:170|188:182|188:182|220:161|272:174,1,188.999994232178,10|0,0:1|0:0,0:0:0:0:
314,238,13937,6,0,P|254:216|188:231,1,125.999996154785,2|0,3:1|3:0,3:0:0:0:
69,331,14270,1,10,0:1:0:0:
224,85,14437,1,0,3:0:0:0:
0,181,14603,5,2,3:1:0:0:
286,138,14770,1,0,3:0:0:0:
8,53,14937,1,10,0:1:0:0:
176,258,15103,2,0,P|236:280|302:265,1,125.999996154785,0|2,3:0|0:1,0:0:0:0:
117,84,15437,5,0,3:0:0:0:
372,48,15603,2,0,L|243:52,1,125.999996154785,10|0,0:1|0:0,0:0:0:0:
54,243,15937,1,2,3:1:0:0:
286,138,16103,1,0,3:0:0:0:
81,9,16270,1,10,0:1:0:0:
176,258,16437,1,0,0:0:0:0:
372,48,16603,6,0,B|382:92|382:92|384:135|368:174,1,125.999996154785,4|0,3:0|3:0,3:0:0:0:
264,303,16937,1,10,0:1:0:0:
469,148,17103,1,0,3:0:0:0:
246,51,17270,5,2,3:1:0:0:
421,242,17437,1,0,3:0:0:0:
358,21,17603,1,10,0:1:0:0:
281,280,17770,2,0,P|235:299|152:290,1,125.999996154785,0|2,3:0|0:1,0:0:0:0:
246,51,18103,5,0,3:0:0:0:
22,141,18270,2,0,L|1:271,1,125.999996154785,10|0,0:1|0:0,0:0:0:0:
255,157,18603,1,2,3:1:0:0:
28,33,18770,1,0,3:0:0:0:
149,269,18937,2,0,B|163:225|163:225|153:195|153:195|176:144|144:142|164:83,1,188.999994232178,10|0,0:1|0:0,0:0:0:0:
230,26,19270,5,4,3:0:0:0:
230,26,19353,1,0,3:0:0:0:
230,26,19437,1,0,3:0:0:0:
312,269,19603,1,10,0:1:0:0:
162,86,19770,2,0,B|226:145|298:88|298:88|359:107|359:107|328:74,1,251.999992309571,0|0,3:0|0:0,0:0:0:0:
56,14,20270,5,10,0:1:0:0:
56,14,20353,1,0,3:0:0:0:
56,14,20437,2,0,B|42:82|42:82|76:150|76:150|50:205|50:205|30:151,1,251.999992309571,0|0,3:0|3:0,0:0:0:0:
138,0,20937,2,0,L|266:7,1,125.999996154785,10|0,0:1|0:0,0:0:0:0:
511,93,21270,5,2,3:1:0:0:
505,123,21353,1,0,3:0:0:0:
499,154,21436,1,0,3:0:0:0:
244,219,21603,5,10,0:1:0:0:
249,188,21686,1,0,3:0:0:0:
255,157,21769,1,0,3:0:0:0:
358,50,21937,5,4,3:0:0:0:
232,300,22103,1,0,3:0:0:0:
133,78,22270,1,10,0:1:0:0:
381,150,22437,1,0,3:0:0:0:
101,189,22603,5,2,3:1:0:0:
358,50,22770,1,0,3:0:0:0:
69,15,22937,1,10,0:1:0:0:
278,167,23103,2,0,P|288:203|269:292,1,125.999996154785,0|2,3:0|0:1,0:0:0:0:
22,230,23437,5,0,3:0:0:0:
278,167,23603,2,0,L|419:178,1,125.999996154785,10|0,0:1|0:0,0:0:0:0:
183,322,23937,1,2,3:1:0:0:
264,73,24103,1,0,3:0:0:0:
419,281,24270,2,0,B|279:344|279:344|298:296,1,188.999994232178,10|0,0:1|0:0,0:0:0:0:
313,280,24603,6,0,P|303:219|255:180,1,125.999996154785,2|0,3:1|3:0,3:0:0:0:
91,168,24937,1,10,0:1:0:0:
343,124,25103,1,0,3:0:0:0:
161,248,25270,5,2,3:1:0:0:
416,167,25437,1,0,3:0:0:0:
171,69,25603,1,10,0:1:0:0:
313,280,25770,2,0,P|374:302|447:286,1,125.999996154785,0|2,3:0|0:1,0:0:0:0:
372,43,26103,5,0,3:0:0:0:
126,162,26270,2,0,L|260:152,1,125.999996154785,10|0,0:1|0:0,0:0:0:0:
479,105,26603,1,2,3:1:0:0:
223,0,26770,5,8,0:1:0:0:
301,311,26937,1,12,0:1:0:0:
360,71,27103,1,0,3:0:0:0:
126,162,27270,5,4,3:0:0:0:
401,264,27437,1,0,3:0:0:0:
278,70,27603,1,10,0:1:0:0:
210,323,27770,1,0,3:0:0:0:
405,144,27937,5,2,3:1:0:0:
126,162,28103,1,0,3:0:0:0:
374,40,28270,1,10,0:1:0:0:
301,311,28437,2,0,P|276:266|282:186,1,125.999996154785,0|2,3:0|0:1,0:0:0:0:
483,25,28770,5,0,3:0:0:0:
512,285,28937,2,0,P|467:293|383:294,1,125.999996154785,10|0,0:1|0:0,0:0:0:0:
264,45,29270,1,2,3:1:0:0:
484,196,29437,1,0,3:0:0:0:
210,323,29603,2,0,B|63:333|63:333|97:299,1,188.999994232178,10|0,0:1|0:0,0:0:0:0:
160,246,29937,5,4,3:0:0:0:
160,246,30020,1,0,3:0:0:0:
160,246,30103,2,0,P|181:195|176:137,1,107.999996704102,0|2,3:0|0:1,0:0:0:0:
59,24,30437,1,0,3:0:0:0:
177,143,30603,2,0,L|298:149,1,107.999996704102,10|0,0:1|0:0,0:0:0:0:
448,99,30937,5,2,3:1:0:0:
448,99,31020,1,0,3:0:0:0:
448,99,31103,2,0,P|397:78|339:83,1,107.999996704102,0|2,3:0|0:1,3:0:0:0:
292,239,31437,1,0,3:0:0:0:
253,60,31603,2,0,L|145:54,1,107.999996704102,2|0,0:1|0:0,0:0:0:0:
16,160,31937,5,10,0:1:0:0:
42,155,32020,1,0,3:0:0:0:
69,151,32103,1,0,3:0:0:0:
311,144,32270,5,2,3:1:0:0:
284,148,32353,1,0,3:0:0:0:
258,153,32436,1,0,3:0:0:0:
143,223,32603,5,2,3:1:0:0:
143,223,32686,1,0,3:0:0:0:
143,223,32769,2,0,P|122:274|127:332,1,107.999996704102,0|2,3:0|0:1,0:0:0:0:
280,264,33103,1,0,3:0:0:0:
177,143,33270,2,0,L|57:152,1,107.999996704102,10|0,0:1|0:0,0:0:0:0:
10,338,33603,5,2,3:1:0:0:
10,338,33686,1,0,3:0:0:0:
10,338,33769,2,0,P|61:359|119:354,1,107.999996704102,0|2,3:0|0:1,0:0:0:0:
257,293,34103,1,0,3:0:0:0:
421,334,34270,2,0,L|412:214,1,107.999996704102,2|0,0:1|0:0,0:0:0:0:
213,11,34603,5,10,0:1:0:0:
216,37,34686,1,0,3:0:0:0:
220,64,34769,1,0,3:0:0:0:
151,277,34937,5,2,3:1:0:0:
147,250,35020,1,0,3:0:0:0:
143,223,35103,1,0,3:0:0:0:
220,64,35270,6,0,L|296:71,1,72,2|0,0:0|0:0,0:0:0:0:
293,148,35603,2,0,L|364:154,1,72,8|0,0:0|0:0,0:0:0:0:
143,223,35937,1,2,0:0:0:0:
181,143,36103,1,2,0:3:0:0:
220,64,36270,2,0,L|148:57,1,72,8|0,0:0|0:0,0:0:0:0:
71,216,36603,6,0,L|147:223,1,72,2|0,0:0|0:0,0:0:0:0:
293,148,36937,2,0,P|299:185|287:223,1,72,8|0,0:0|0:0,0:0:0:0:
419,256,37270,2,0,P|392:229|380:191,1,72,2|0,0:0|0:0,0:0:0:0:
464,92,37603,2,0,P|470:128|458:167,1,72,8|0,0:0|0:0,0:0:0:0:
309,62,37937,5,2,0:3:0:0:
220,64,38103,1,2,0:0:0:0:
181,143,38270,1,8,0:0:0:0:
232,213,38437,1,0,0:0:0:0:
71,216,38603,5,2,0:0:0:0:
181,143,38770,1,2,0:3:0:0:
137,65,38937,1,8,0:0:0:0:
51,67,39104,1,0,0:0:0:0:
71,216,39270,6,0,L|147:223,1,72,2|0,0:0|0:0,0:0:0:0:
217,368,39603,2,0,P|205:338|207:296,1,72,8|0,0:0|0:0,0:0:0:0:
323,221,39937,2,0,P|314:255|292:283,1,72,2|0,0:0|0:0,0:0:0:0:
381,380,40270,2,0,P|379:344|391:310,1,72,8|0,0:0|0:0,0:0:0:0:
460,161,40603,5,2,0:0:0:0:
440,68,40770,1,2,0:3:0:0:
353,29,40937,1,8,0:0:0:0:
265,72,41103,1,0,0:0:0:0:
323,221,41270,2,0,L|251:214,1,72,2|0,0:3|0:0,0:0:0:0:
132,153,41603,2,0,P|143:186|141:222,1,72,8|0,0:0|0:0,0:0:0:0:
0,145,41937,5,2,0:0:0:0:
51,67,42103,1,2,0:3:0:0:
163,40,42270,1,8,0:0:0:0:
279,98,42437,1,2,0:3:0:0:
96,0,42603,5,2,0:3:0:0:
138,123,42770,1,2,0:0:0:0:
241,175,42937,1,8,0:0:0:0:
342,146,43103,1,0,0:0:0:0:
277,305,43270,6,0,L|205:298,1,72,2|0,0:0|0:0,0:0:0:0:
139,230,43603,2,0,L|67:223,1,72,8|0,0:0|0:0,0:0:0:0:
241,175,43937,1,2,0:0:0:0:
279,98,44103,1,2,0:3:0:0:
320,18,44270,2,0,L|248:11,1,72,8|0,0:0|0:0,0:0:0:0:
344,175,44603,6,0,L|416:182,1,72,2|0,0:0|0:0,0:0:0:0:
503,129,44937,1,8,0:0:0:0:
408,43,45103,1,2,0:0:0:0:
415,181,45270,2,0,P|417:216|405:250,1,72,2|0,0:0|0:0,0:0:0:0:
321,362,45603,2,0,P|313:326|293:297,1,72,8|0,0:0|0:0,0:0:0:0:
139,230,45937,6,0,P|172:241|208:239,1,72,2|0,0:0|0:0,0:0:0:0:
110,311,46270,1,8,0:0:0:0:
60,184,46437,2,0,P|48:217|50:253,1,72,2|0,0:0|0:0,0:0:0:0:
134,150,46770,1,0,0:0:0:0:
41,59,46937,2,0,P|74:70|110:68,1,72,8|0,0:0|0:0,0:0:0:0:
256,192,47270,12,0,48437,0:0:0:0:
401,68,48603,6,0,L|307:77,1,90,4|0,3:0|3:0,3:0:0:0:
134,150,48937,1,10,0:1:0:0:
279,221,49103,2,0,P|281:265|267:307,1,90,0|2,3:0|0:1,0:0:0:0:
355,164,49437,1,0,3:0:0:0:
238,37,49603,1,10,0:1:0:0:
58,108,49770,6,0,P|134:149|214:116,1,180,0|0,3:0|3:0,3:0:0:0:
415,38,50270,2,0,B|351:30|351:30|303:46|303:46|239:38,1,180,10|2,0:1|0:1,0:0:0:0:
355,164,50770,1,0,3:0:0:0:
150,264,50937,2,0,L|239:272,1,90,10|0,0:1|0:0,0:0:0:0:
431,207,51270,5,2,3:1:0:0:
214,116,51437,1,0,3:0:0:0:
331,279,51603,1,10,0:1:0:0:
401,85,51770,2,0,L|311:76,1,90,0|2,3:0|0:1,0:0:0:0:
134,150,52103,1,0,3:0:0:0:
331,279,52270,1,10,0:1:0:0:
238,37,52437,1,0,3:0:0:0:
150,264,52603,6,0,P|107:278|63:275,1,90,2|0,0:1|3:0,0:0:0:0:
249,183,52937,2,0,B|323:167|388:180|388:180|375:164|354:163,1,180,10|2,0:1|0:1,0:0:0:0:
147,72,53437,1,0,3:0:0:0:
147,72,53520,1,0,3:0:0:0:
147,72,53603,1,12,0:1:0:0:
240,272,53770,1,0,3:0:0:0:
311,76,53937,5,4,3:0:0:0:
157,238,54103,1,0,3:0:0:0:
51,74,54270,1,10,0:1:0:0:
238,37,54437,2,0,L|229:126,1,90,0|2,3:0|0:1,0:0:0:0:
63,275,54770,1,0,3:0:0:0:
242,358,54937,1,10,0:1:0:0:
354,163,55103,6,0,L|362:252,1,90,0|2,3:0|0:1,0:0:0:0:
229,126,55437,1,0,3:0:0:0:
435,26,55603,2,0,L|452:208,1,180,10|2,0:1|0:1,0:0:0:0:
438,302,56103,1,0,3:0:0:0:
274,197,56270,2,0,L|282:286,1,90,10|0,0:1|0:0,0:0:0:0:
347,71,56603,5,4,3:1:0:0:
176,216,56770,2,0,P|132:220|74:191,1,90,0|2,3:0|0:1,0:0:0:0:
229,126,57103,1,0,3:0:0:0:
162,315,57270,5,12,0:1:0:0:
77,103,57437,1,0,3:0:0:0:
231,103,57603,1,8,0:3:0:0:
230,108,57686,1,8,0:3:0:0:
229,114,57769,1,8,0:3:0:0:
229,119,57853,1,8,0:3:0:0:
228,125,57936,5,8,0:1:0:0:
63,275,58103,1,8,0:3:0:0:
260,310,58270,1,2,0:3:0:0:
176,216,58437,1,0,3:0:0:0:
328,90,58603,5,8,3:1:0:0:
356,352,58770,1,8,3:1:0:0:
87,193,59270,6,0,B|116:218|165:204|165:204|176:216|176:216|218:196|255:206,1,180,4|2,3:0|3:1,0:0:0:0:
482,261,59937,1,10,0:1:0:0:
270,18,60270,1,2,3:1:0:0:
512,132,60603,6,0,B|472:156|472:156|447:150|447:150|411:180|329:170,1,180,2|2,3:1|3:1,3:0:0:0:
105,88,61270,1,10,0:1:0:0:
431,28,61603,1,2,3:1:0:0:
260,310,61937,6,0,B|246:184|246:184|279:240,1,180,2|2,3:1|3:1,3:0:0:0:
105,88,62603,2,0,B|119:214|119:214|91:168,1,180,10|2,0:1|3:1,0:0:0:0:
270,18,63270,5,2,3:1:0:0:
162,315,63603,1,2,3:1:0:0:
431,127,63937,1,10,0:1:0:0:
130,3,64270,1,2,3:1:0:0:
273,229,64603,6,0,B|325:249|325:249|409:231|409:231|357:220,1,180,4|2,3:1|3:1,3:0:0:0:
162,315,65270,1,10,0:1:0:0:
348,57,65603,1,2,3:1:0:0:
155,235,65937,6,0,B|136:276|136:276|145:307|130:357|130:357|163:312,1,180,2|2,3:1|3:1,3:0:0:0:
105,88,66603,1,10,0:1:0:0:
339,326,66937,1,2,3:1:0:0:
270,18,67270,6,0,B|250:76|250:143|250:143|234:112|233:80,1,180,2|2,3:1|3:1,3:0:0:0:
69,163,67937,2,0,B|88:104|88:37|88:37|104:68|104:87,1,180,10|2,0:1|3:1,0:0:0:0:
161,314,68603,5,2,3:1:0:0:
377,135,68937,1,2,3:1:0:0:
104,87,69270,1,10,0:1:0:0:
256,322,69603,1,2,3:1:0:0:
270,18,69937,5,4,3:0:0:0:
155,235,70270,2,0,P|181:248|249:239,1,90,2|0,3:1|0:0,0:0:0:0:
377,135,70603,2,0,P|353:182|369:307,1,180,10|2,0:1|3:1,0:0:0:0:
436,62,71270,5,2,3:1:0:0:
283,115,71437,1,0,0:0:0:0:
461,190,71603,2,0,B|486:253|486:253|484:316|484:316|463:270,1,180,2|10,3:1|0:1,0:0:0:0:
319,0,72270,1,2,3:1:0:0:
155,235,72603,5,2,3:1:0:0:
283,115,72770,1,8,0:1:0:0:
147,13,72937,2,0,B|136:29|136:29|139:51|139:51|102:88|113:152,1,135,2|0,3:1|0:0,0:0:0:0:
121,158,73270,5,10,0:1:0:0:
299,19,73437,1,8,0:1:0:0:
327,216,73603,2,0,L|226:223,1,90,2|0,3:1|3:0,3:0:0:0:
15,170,73937,5,8,0:1:0:0:
260,98,74103,1,0,3:0:0:0:
21,153,74270,1,8,0:1:0:0:
237,222,74437,5,8,0:3:0:0:
240,238,74520,1,8,0:3:0:0:
241,254,74603,1,2,0:3:0:0:
241,270,74686,1,2,0:3:0:0:
238,287,74770,1,0,3:0:0:0:
233,302,74853,1,0,3:0:0:0:
225,317,74936,1,8,0:1:0:0:
111,136,75103,1,0,3:0:0:0:
405,201,75270,6,0,B|360:197|331:215|331:215|313:203|313:203|278:235|220:217,1,180,4|2,3:0|3:1,3:0:0:0:
461,292,75937,1,10,0:1:0:0:
299,19,76270,1,2,3:1:0:0:
143,209,76603,6,0,P|190:139|141:62,1,180,2|2,3:1|3:1,3:0:0:0:
56,266,77270,1,10,0:1:0:0:
340,128,77603,1,2,3:1:0:0:
61,37,77937,6,0,B|112:54|112:54|141:45|190:47|190:47|133:68,1,180,2|2,3:1|3:1,3:0:0:0:
273,219,78603,2,0,B|222:202|222:202|193:211|144:209|144:209|201:188,1,180,10|2,0:1|3:1,0:0:0:0:
433,109,79270,5,2,3:1:0:0:
353,257,79437,1,8,0:1:0:0:
301,36,79603,2,0,B|346:9|346:9|370:17|399:15|399:15|367:32,1,135,2|0,3:1|0:0,0:0:0:0:
348,101,79937,1,10,0:1:0:0:
61,37,80270,1,2,3:1:0:0:
179,372,80603,6,0,L|189:177,1,180,4|2,3:0|3:1,0:0:0:0:
43,369,81270,1,10,0:1:0:0:
353,257,81603,1,2,3:1:0:0:
153,99,81937,6,0,B|221:68|291:101|291:101|275:95|249:102,1,180,2|2,3:1|3:1,3:0:0:0:
83,187,82603,1,10,0:1:0:0:
418,152,82937,1,2,3:1:0:0:
212,237,83270,6,0,B|285:261|269:220|355:245|355:245|323:229,1,180,2|2,3:1|3:1,3:0:0:0:
157,145,83937,2,0,P|105:215|125:300,1,180,10|2,0:1|3:1,3:0:0:0:
276,138,84437,1,0,3:0:0:0:
50,39,84603,5,12,0:1:0:0:
213,237,84770,2,0,B|257:207|275:152|254:101|254:101|278:142,1,198.000006042481,0|0,3:0|3:0,0:0:0:0:
341,231,85270,5,8,0:1:0:0:
53,144,85437,1,8,0:1:0:0:
357,208,85603,5,8,0:1:0:0:
69,121,85770,1,8,0:1:0:0:
279,32,85937,6,0,P|284:68|272:150,1,107.999996704102,4|0,3:0|3:0,3:0:0:0:
213,237,86270,1,2,0:1:0:0:
172,47,86437,1,0,3:0:0:0:
275,138,86603,5,8,0:1:0:0:
77,30,86770,1,0,3:0:0:0:
104,226,86937,1,2,3:1:0:0:
172,47,87103,1,0,3:0:0:0:
113,250,87270,5,4,0:1:0:0:
181,71,87437,1,0,3:0:0:0:
257,314,87603,2,0,L|145:325,1,107.999996704102,10|0,0:1|0:0,0:0:0:0:
275,138,87937,1,2,3:1:0:0:
356,352,88103,1,0,3:0:0:0:
113,250,88270,2,0,B|88:217|103:182|103:182|92:158|92:158|111:127|107:88,1,161.999995056153,10|0,0:1|0:0,0:0:0:0:
50,39,88603,6,0,P|60:67|34:161,1,125.999996154785,4|0,3:0|3:0,3:0:0:0:
62,317,88937,1,10,0:1:0:0:
192,96,89103,1,0,3:0:0:0:
257,314,89270,5,2,3:1:0:0:
107,97,89437,1,0,3:0:0:0:
357,208,89603,1,10,0:1:0:0:
170,354,89770,2,0,P|163:296|200:237,1,125.999996154785,0|2,3:0|0:1,0:0:0:0:
430,248,90103,5,0,3:0:0:0:
279,32,90270,2,0,L|266:170,1,125.999996154785,10|0,0:1|3:0,0:0:0:0:
348,384,90603,1,2,3:1:0:0:
433,110,90770,5,8,0:1:0:0:
122,199,90937,1,12,0:1:0:0:
306,24,91103,1,0,3:0:0:0:
351,292,91270,5,4,3:0:0:0:
112,118,91437,1,0,3:0:0:0:
257,314,91603,1,10,0:1:0:0:
364,76,91770,1,0,3:0:0:0:
122,199,91937,5,2,3:1:0:0:
415,235,92103,1,0,3:0:0:0:
192,96,92270,1,10,0:1:0:0:
461,8,92437,2,0,P|483:49|465:132,1,125.999996154785,0|2,3:0|0:1,0:0:0:0:
219,227,92770,5,0,3:0:0:0:
497,320,92937,2,0,L|360:313,1,125.999996154785,10|0,0:1|0:0,0:0:0:0:
192,96,93270,1,2,3:1:0:0:
415,235,93437,1,0,3:0:0:0:
169,373,93603,2,0,B|130:313|130:313|136:233|136:233|137:248|147:269,1,188.999994232178,10|0,0:1|0:0,0:0:0:0:
219,227,93937,5,4,3:0:0:0:
219,227,94020,1,0,3:0:0:0:
219,227,94103,1,0,3:0:0:0:
2,362,94270,1,10,0:1:0:0:
48,98,94437,2,0,B|107:126|167:81|167:81|207:76|240:96|240:96|211:90|177:98,1,251.999992309571,0|0,3:0|0:0,0:0:0:0:
273,340,94937,5,10,0:1:0:0:
273,340,95020,1,0,3:0:0:0:
273,340,95103,2,0,B|314:273|314:273|296:204|296:204|310:153|310:153|322:204,1,251.999992309571,0|0,3:0|3:0,0:0:0:0:
461,8,95603,2,0,L|330:13,1,125.999996154785,10|0,0:1|0:0,0:0:0:0:
158,215,95937,5,2,3:1:0:0:
188,221,96020,1,0,3:0:0:0:
219,227,96103,1,0,3:0:0:0:
470,124,96270,5,10,0:1:0:0:
440,130,96353,1,0,3:0:0:0:
409,136,96436,1,0,3:0:0:0:
273,340,96603,5,4,3:0:0:0:
273,340,96687,1,0,3:0:0:0:
273,340,96770,1,0,3:0:0:0:
310,81,96937,1,10,0:1:0:0:
478,276,97103,2,0,B|509:218|476:175|476:175|488:164|488:164|472:127|489:83|489:83|470:103|467:136,1,251.999992309571,0|0,3:0|0:0,0:0:0:0:
237,22,97603,5,2,3:1:0:0:
237,22,97687,1,0,3:0:0:0:
237,22,97770,2,0,B|214:77|214:77|236:134|236:134|212:202|212:202|203:136,1,251.999992309571,0|0,3:0|3:0,0:0:0:0:
119,359,98270,2,0,L|250:364,1,125.999996154785,10|0,0:1|0:0,0:0:0:0:
322,142,98603,5,2,3:1:0:0:
316,112,98686,1,0,3:0:0:0:
310,81,98769,1,0,3:0:0:0:
84,214,98936,5,10,0:1:0:0:
90,244,99019,1,0,3:0:0:0:
96,275,99102,1,4,3:0:0:0:
