osu file format v14

[General]
AudioFilename: audio.mp3
AudioLeadIn: 0
PreviewTime: 18356
Countdown: 0
SampleSet: None
StackLeniency: 0.7
Mode: 0
LetterboxInBreaks: 0
WidescreenStoryboard: 0

[Editor]
DistanceSpacing: 3.3
BeatDivisor: 4
GridSize: 4
TimelineZoom: 1.7

[Metadata]
Title:Poroto en el pico
TitleUnicode:Poroto en el pico
Artist:Dead Egg Madness
ArtistUnicode:Dead Egg Madness
Creator:Tatan
Version:Chorizo
Source:
Tags:
BeatmapID:1919083
BeatmapSetID:919063

[Difficulty]
HPDrainRate:4.5
CircleSize:4.3
OverallDifficulty:9
ApproachRate:10
SliderMultiplier:1.7
SliderTickRate:1

[Events]
//Background and Video events
0,0,"Konachan.com - 242750 animal blonde_hair blood mitzvah nosebleed original short_hair signed.jpg",0,0
//Break Periods
//Storyboard Layer 0 (Background)
//Storyboard Layer 1 (Fail)
//Storyboard Layer 2 (Pass)
//Storyboard Layer 3 (Foreground)
//Storyboard Sound Samples

[TimingPoints]
10,230.769230769231,4,1,0,80,1,0
11086,-100,4,1,0,80,0,1
12702,-100,4,1,0,80,0,0
12933,-100,4,1,0,80,0,1
14779,-76.9230769230769,4,1,0,80,0,0
18471,-100,4,1,0,80,0,0
19394,-100,4,1,0,80,0,1
25913,-100,4,1,0,80,0,0

[HitObjects]
140,136,10,6,0,L|36:126,1,85
204,84,240,2,0,L|302:75,1,85
421,172,471,5,0,0:0:0:0:
324,143,586,1,0,0:0:0:0:
353,46,702,1,0,0:0:0:0:
450,76,817,1,0,0:0:0:0:
354,224,933,5,0,0:0:0:0:
274,78,1048,1,0,0:0:0:0:
420,0,1164,1,0,0:0:0:0:
498,144,1279,1,0,0:0:0:0:
340,232,1394,6,0,L|332:108,1,85
512,150,1625,2,0,L|505:254,1,85
310,306,1856,5,0,0:0:0:0:
310,306,1913,1,0,0:0:0:0:
310,306,1971,1,0,0:0:0:0:
482,307,2086,1,0,0:0:0:0:
326,210,2201,1,0,0:0:0:0:
423,246,2317,5,0,0:0:0:0:
326,90,2432,1,0,0:0:0:0:
243,245,2547,1,0,0:0:0:0:
407,150,2662,1,0,0:0:0:0:
165,143,2779,6,0,L|71:149,1,85
343,76,3010,2,0,L|433:82,1,85
243,245,3240,5,0,0:0:0:0:
264,71,3356,1,0,0:0:0:0:
410,166,3471,1,0,0:0:0:0:
418,194,3528,1,0,0:0:0:0:
419,224,3586,1,0,0:0:0:0:
412,253,3644,1,0,0:0:0:0:
399,279,3702,6,0,L|312:285,1,85
154,217,3933,2,0,L|238:222,1,85
121,311,4163,5,0,0:0:0:0:
76,127,4279,1,0,0:0:0:0:
214,308,4394,1,0,0:0:0:0:
254,147,4510,1,0,0:0:0:0:
76,208,4625,5,0,0:0:0:0:
214,308,4740,1,0,0:0:0:0:
165,143,4856,1,0,0:0:0:0:
36,285,4971,1,0,0:0:0:0:
272,162,5086,2,0,L|282:57,1,85
91,214,5317,2,0,L|99:298,1,85
338,260,5548,5,0,0:0:0:0:
338,260,5606,1,0,0:0:0:0:
338,260,5663,1,0,0:0:0:0:
195,228,5779,1,0,0:0:0:0:
362,147,5894,1,0,0:0:0:0:
214,308,6010,5,0,0:0:0:0:
272,162,6125,1,0,0:0:0:0:
418,220,6240,1,0,0:0:0:0:
360,366,6356,1,0,0:0:0:0:
195,228,6471,6,0,L|187:144,1,85
409,304,6702,2,0,L|417:220,1,85
292,83,6933,5,0,0:0:0:0:
335,256,7048,1,0,0:0:0:0:
458,80,7163,1,0,0:0:0:0:
439,56,7220,1,0,0:0:0:0:
414,40,7278,1,0,0:0:0:0:
386,31,7336,1,0,0:0:0:0:
356,32,7394,6,0,P|316:40|254:31,1,85
102,139,7625,2,0,P|142:146|204:137,1,85
69,52,7856,1,0,0:0:0:0:
37,207,7971,1,0,0:0:0:0:
155,32,8086,1,0,0:0:0:0:
0,0,8201,1,0,0:0:0:0:
185,142,8317,5,0,0:0:0:0:
37,207,8433,1,0,0:0:0:0:
162,25,8548,1,0,0:0:0:0:
259,212,8663,1,0,0:0:0:0:
76,136,8779,2,0,L|68:43,1,85
270,94,9010,2,0,L|277:9,1,85
162,213,9240,5,0,0:0:0:0:
162,213,9298,1,0,0:0:0:0:
162,213,9356,1,0,0:0:0:0:
162,25,9471,1,0,0:0:0:0:
259,212,9586,1,0,0:0:0:0:
76,136,9702,1,0,0:0:0:0:
270,94,9817,1,0,0:0:0:0:
58,229,9933,1,0,0:0:0:0:
68,51,10048,1,0,0:0:0:0:
162,213,10163,6,0,L|153:322,1,85
358,158,10394,2,0,L|351:73,1,85
259,212,10625,5,0,0:0:0:0:
465,182,10740,1,0,0:0:0:0:
247,225,10856,5,0,0:0:0:0:
453,195,10971,1,0,0:0:0:0:
294,299,11086,5,0,0:0:0:0:
268,313,11143,1,0,0:0:0:0:
238,318,11201,1,0,0:0:0:0:
209,314,11259,1,0,0:0:0:0:
183,300,11316,1,0,0:0:0:0:
163,278,11374,1,0,0:0:0:0:
150,251,11432,1,0,0:0:0:0:
147,222,11489,1,0,0:0:0:0:
154,193,11547,5,0,0:0:0:0:
172,169,11605,1,0,0:0:0:0:
182,142,11663,1,0,0:0:0:0:
182,112,11721,1,0,0:0:0:0:
173,84,11778,1,0,0:0:0:0:
156,60,11836,1,0,0:0:0:0:
132,42,11894,1,0,0:0:0:0:
104,33,11951,1,0,0:0:0:0:
74,34,12010,5,0,0:0:0:0:
47,47,12067,1,0,0:0:0:0:
28,69,12125,1,0,0:0:0:0:
19,97,12183,1,0,0:0:0:0:
22,127,12240,1,0,0:0:0:0:
36,153,12298,1,0,0:0:0:0:
59,171,12356,1,0,0:0:0:0:
87,179,12413,1,0,0:0:0:0:
116,176,12471,2,0,P|166:173|189:181,3,42.5
234,223,12702,5,0,0:0:0:0:
336,32,12933,5,0,0:0:0:0:
333,65,12990,1,0,0:0:0:0:
331,99,13048,1,0,0:0:0:0:
329,133,13106,1,0,0:0:0:0:
359,169,13163,5,0,0:0:0:0:
361,202,13220,1,0,0:0:0:0:
363,236,13278,1,0,0:0:0:0:
365,270,13336,1,0,0:0:0:0:
383,304,13394,5,0,0:0:0:0:
357,326,13451,1,0,0:0:0:0:
326,339,13509,1,0,0:0:0:0:
292,341,13567,1,0,0:0:0:0:
259,333,13624,1,0,0:0:0:0:
230,315,13682,1,0,0:0:0:0:
209,289,13740,1,0,0:0:0:0:
184,265,13797,1,0,0:0:0:0:
154,250,13855,5,0,0:0:0:0:
120,244,13913,1,0,0:0:0:0:
87,247,13970,1,0,0:0:0:0:
59,267,14028,1,0,0:0:0:0:
43,296,14086,1,0,0:0:0:0:
42,330,14144,1,0,0:0:0:0:
56,360,14201,1,0,0:0:0:0:
83,381,14259,1,0,0:0:0:0:
116,388,14317,5,0,0:0:0:0:
148,379,14374,1,0,0:0:0:0:
173,356,14432,1,0,0:0:0:0:
185,325,14490,1,0,0:0:0:0:
182,291,14547,1,0,0:0:0:0:
168,261,14605,1,0,0:0:0:0:
162,227,14663,1,0,0:0:0:0:
166,193,14721,1,0,0:0:0:0:
178,162,14779,6,0,P|266:154|320:167,1,110.499994941712
418,284,15010,5,0,0:0:0:0:
185,325,15125,1,0,0:0:0:0:
420,185,15240,5,0,0:0:0:0:
377,372,15356,1,0,0:0:0:0:
245,130,15471,5,0,0:0:0:0:
288,317,15587,1,0,0:0:0:0:
386,97,15702,5,0,0:0:0:0:
162,227,15817,1,0,0:0:0:0:
420,185,15933,5,0,0:0:0:0:
213,34,16048,1,0,0:0:0:0:
418,284,16163,5,0,0:0:0:0:
474,98,16279,1,0,0:0:0:0:
288,317,16394,5,0,0:0:0:0:
245,130,16510,1,0,0:0:0:0:
476,209,16625,6,0,L|349:219,1,110.499994941712
95,230,16856,2,0,L|222:240,1,110.499994941712
489,112,17086,6,0,L|362:122,1,110.499994941712
62,144,17317,2,0,L|189:154,1,110.499994941712
326,23,17548,5,0,0:0:0:0:
166,53,17663,1,0,0:0:0:0:
378,120,17779,1,0,0:0:0:0:
380,141,17836,1,0,0:0:0:0:
383,163,17894,1,0,0:0:0:0:
143,159,18010,1,0,0:0:0:0:
347,235,18125,1,0,0:0:0:0:
349,256,18182,1,0,0:0:0:0:
352,278,18240,1,0,0:0:0:0:
205,238,18356,5,0,0:0:0:0:
307,55,18471,6,0,B|265:90|212:100|212:100|275:146|365:163|365:163|250:168|250:168|313:206|313:206|262:256|300:370,1,595
416,369,19394,5,0,0:0:0:0:
457,371,19451,1,0,0:0:0:0:
494,350,19509,1,0,0:0:0:0:
512,312,19567,1,0,0:0:0:0:
508,271,19624,1,0,0:0:0:0:
481,239,19682,1,0,0:0:0:0:
440,227,19740,1,0,0:0:0:0:
400,238,19797,1,0,0:0:0:0:
373,270,19855,5,0,0:0:0:0:
340,297,19913,1,0,0:0:0:0:
299,305,19971,1,0,0:0:0:0:
259,292,20029,1,0,0:0:0:0:
231,261,20086,1,0,0:0:0:0:
221,220,20144,1,0,0:0:0:0:
233,179,20202,1,0,0:0:0:0:
251,142,20259,1,0,0:0:0:0:
252,99,20317,5,0,0:0:0:0:
236,61,20375,1,0,0:0:0:0:
205,32,20432,1,0,0:0:0:0:
165,19,20490,1,0,0:0:0:0:
123,25,20548,1,0,0:0:0:0:
87,47,20605,1,0,0:0:0:0:
63,82,20663,1,0,0:0:0:0:
57,123,20721,1,0,0:0:0:0:
68,164,20778,5,0,0:0:0:0:
109,163,20836,1,0,0:0:0:0:
151,166,20894,1,0,0:0:0:0:
194,169,20952,1,0,0:0:0:0:
222,145,21010,5,0,0:0:0:0:
251,142,21067,1,0,0:0:0:0:
281,140,21125,1,0,0:0:0:0:
310,138,21183,1,0,0:0:0:0:
340,135,21240,5,0,0:0:0:0:
259,292,21356,1,0,0:0:0:0:
306,60,21471,5,0,0:0:0:0:
440,227,21586,1,0,0:0:0:0:
216,54,21702,5,0,0:0:0:0:
160,328,21817,1,0,0:0:0:0:
376,146,21933,5,0,0:0:0:0:
102,90,22048,1,0,0:0:0:0:
308,293,22163,5,0,0:0:0:0:
344,321,22220,1,0,0:0:0:0:
390,328,22278,1,0,0:0:0:0:
433,311,22336,1,0,0:0:0:0:
462,276,22393,1,0,0:0:0:0:
471,230,22451,1,0,0:0:0:0:
455,187,22509,1,0,0:0:0:0:
421,156,22566,1,0,0:0:0:0:
376,146,22624,5,0,0:0:0:0:
331,161,22682,1,0,0:0:0:0:
287,177,22740,1,0,0:0:0:0:
243,192,22798,1,0,0:0:0:0:
199,208,22855,5,0,0:0:0:0:
162,181,22913,1,0,0:0:0:0:
140,140,22971,1,0,0:0:0:0:
138,94,23029,1,0,0:0:0:0:
157,51,23086,1,0,0:0:0:0:
192,21,23144,1,0,0:0:0:0:
237,10,23202,1,0,0:0:0:0:
283,19,23259,1,0,0:0:0:0:
309,63,23317,5,0,0:0:0:0:
301,104,23374,1,0,0:0:0:0:
294,146,23432,1,0,0:0:0:0:
287,188,23490,1,0,0:0:0:0:
280,230,23547,5,0,0:0:0:0:
307,273,23605,1,0,0:0:0:0:
343,303,23663,1,0,0:0:0:0:
388,316,23721,1,0,0:0:0:0:
434,310,23778,1,0,0:0:0:0:
474,286,23836,1,0,0:0:0:0:
501,249,23894,1,0,0:0:0:0:
511,203,23951,1,0,0:0:0:0:
503,158,24009,1,0,0:0:0:0:
476,119,24067,1,0,0:0:0:0:
437,95,24124,5,0,0:0:0:0:
435,129,24182,1,0,0:0:0:0:
432,162,24240,1,0,0:0:0:0:
430,196,24298,1,0,0:0:0:0:
427,230,24355,1,0,0:0:0:0:
425,264,24413,1,0,0:0:0:0:
422,298,24471,5,0,0:0:0:0:
384,279,24528,1,0,0:0:0:0:
343,268,24586,1,0,0:0:0:0:
301,266,24644,1,0,0:0:0:0:
259,274,24701,1,0,0:0:0:0:
220,290,24759,1,0,0:0:0:0:
186,315,24817,1,0,0:0:0:0:
154,342,24874,1,0,0:0:0:0:
113,355,24932,5,0,0:0:0:0:
71,351,24990,1,0,0:0:0:0:
34,331,25047,1,0,0:0:0:0:
8,298,25105,1,0,0:0:0:0:
0,257,25163,1,0,0:0:0:0:
3,215,25220,1,0,0:0:0:0:
25,179,25278,1,0,0:0:0:0:
59,154,25336,1,0,0:0:0:0:
100,145,25393,1,0,0:0:0:0:
142,153,25451,1,0,0:0:0:0:
177,176,25509,1,0,0:0:0:0:
364,113,25625,5,0,0:0:0:0:
322,123,25682,1,0,0:0:0:0:
288,147,25740,1,0,0:0:0:0:
264,182,25798,1,0,0:0:0:0:
255,223,25855,1,0,0:0:0:0:
256,192,25913,12,0,31394,0:0:0:0:
