osu file format v14

[General]
AudioFilename: audio.mp3
AudioLeadIn: 0
PreviewTime: 71396
Countdown: 0
SampleSet: None
StackLeniency: 0.6
Mode: 0
LetterboxInBreaks: 0
WidescreenStoryboard: 0

[Editor]
Bookmarks: 9153,17565,18546,71396,72518,118499,118780,126350,128032,128453,130836
DistanceSpacing: 3.1
BeatDivisor: 4
GridSize: 8
TimelineZoom: 1.6

[Metadata]
Title:Inside of Me
TitleUnicode:Inside of Me
Artist:Dead By Sunrise
ArtistUnicode:Dead By Sunrise
Creator:NeBuSC2
Version:What the hell is wrong with me?
Source:I feel all alone everyday
Tags:dead by sunrise inside of me nebu monstrata settia raikozen overmap extra jump training linkin park
BeatmapID:1193339
BeatmapSetID:564468

[Difficulty]
HPDrainRate:5.5
CircleSize:4
OverallDifficulty:9
ApproachRate:10
SliderMultiplier:1.7
SliderTickRate:1

[Events]
//Background and Video events
0,0,"maxresdefault (2).jpg",0,0
//Break Periods
2,48045,54359
//Storyboard Layer 0 (Background)
//Storyboard Layer 1 (Fail)
//Storyboard Layer 2 (Pass)
//Storyboard Layer 3 (Foreground)
//Storyboard Sound Samples

[TimingPoints]
182,280.373831775701,4,3,0,60,1,0
7682,-100,4,3,0,5,0,0
7752,-100,4,3,0,60,0,0
7962,-100,4,3,0,5,0,0
8032,-100,4,3,0,60,0,0
8242,-100,4,3,0,5,0,0
8312,-100,4,3,0,60,0,0
8523,-100,4,3,0,5,0,0
8593,-100,4,3,0,60,0,0
8803,-100,4,3,0,5,0,0
8873,-100,4,3,0,60,0,0
9083,-100,4,3,0,5,0,0
9153,-100,4,3,0,60,0,0
9574,-133.333333333333,4,3,0,60,0,0
12097,-133.333333333333,4,3,0,5,0,0
12238,-133.333333333333,4,3,0,60,0,0
14340,-133.333333333333,4,3,0,5,0,0
14481,-133.333333333333,4,3,0,60,0,0
15392,-133.333333333333,4,3,0,5,0,0
15462,-133.333333333333,4,3,0,60,0,0
18826,-133.333333333333,4,3,0,5,0,0
18967,-133.333333333333,4,3,0,60,0,0
25555,-133.333333333333,4,3,0,5,0,0
25696,-133.333333333333,4,3,0,60,0,0
27658,-80,4,3,0,70,0,1
47845,-133.333333333333,4,3,0,60,0,0
62635,-133.333333333333,4,3,0,5,0,0
62705,-133.333333333333,4,3,0,60,0,0
65999,-133.333333333333,4,3,0,5,0,0
66069,-133.333333333333,4,3,0,60,0,0
72518,-80,4,3,0,70,0,1
92705,-133.333333333333,4,3,0,60,0,0
110649,-66.6666666666667,4,3,0,70,0,1
114854,-100,4,3,0,70,0,1
115135,-66.6666666666667,4,3,0,70,0,1
132939,-66.6666666666667,4,3,0,70,0,0

[Colours]
Combo1 : 103,103,103
Combo2 : 0,0,64
Combo3 : 255,255,255
Combo4 : 242,24,57

[HitObjects]
168,112,182,5,0,0:0:0:0:
232,312,322,1,0,0:0:0:0:
168,112,462,5,0,0:0:0:0:
208,384,602,1,4,0:0:0:0:
168,112,1023,6,0,P|249:129|336:112,1,170
499,112,1583,2,0,P|418:129|331:112,1,170
192,168,2144,1,0,0:0:0:0:
328,328,2424,5,0,0:0:0:0:
200,184,2565,1,0,0:0:0:0:
384,136,2705,1,0,0:0:0:0:
328,328,2845,6,4,B|264:317|264:317|208:333|208:333|144:317|144:317|224:293,1,255
191,128,3546,6,0,L|207:304,1,170
240,256,4107,2,0,L|224:86,1,170
128,64,4667,1,0,0:0:0:0:
192,232,4808,1,0,0:0:0:0:
128,64,4948,1,0,0:0:0:0:
100,198,5088,6,4,P|106:279|253:309,1,255
149,138,5789,6,0,P|93:122|21:210,1,170
100,198,6350,2,0,B|76:294|123:256|100:366,1,170
320,184,6910,5,0,0:0:0:0:
216,32,7051,1,0,0:0:0:0:
240,224,7191,1,0,0:0:0:0:
94,143,7331,6,4,B|150:127|150:127|198:151|198:151|250:130|294:159|294:159,1,212.5
368,129,7752,6,0,P|364:199|319:239,1,127.5
352,304,8032,6,0,P|306:261|244:260,1,127.5
224,328,8312,6,0,P|223:265|180:220,1,127.5
104,189,8593,6,0,P|149:146|212:146,1,127.5
246,70,8873,6,0,P|288:115|289:177,1,127.5
184,336,9153,1,0,0:0:0:0:
344,224,9294,1,0,0:0:0:0:
56,240,9434,1,0,0:0:0:0:
304,320,9574,6,4,B|368:328|368:328|432:320|432:320|504:336,1,191.250007295609
232,368,10135,1,0,0:0:0:0:
240,152,10275,2,0,L|224:280,1,127.500004863739
192,88,10696,1,0,0:0:0:0:
224,278,10836,2,0,L|240:152,1,127.500004863739
304,320,11256,1,0,0:0:0:0:
136,190,11396,5,0,0:0:0:0:
320,94,11537,1,0,0:0:0:0:
224,278,11677,1,0,0:0:0:0:
304,320,11817,2,4,P|336:344|288:336,1,127.500004863739
336,248,12238,6,0,P|352:192|344:120,1,127.500004863739
216,264,12658,1,0,0:0:0:0:
256,56,12798,2,0,P|240:112|248:184,1,127.500004863739
288,352,13359,1,0,0:0:0:0:
184,64,13639,5,0,0:0:0:0:
256,280,13780,1,0,0:0:0:0:
264,104,13920,5,0,0:0:0:0:
178,309,14060,2,4,P|120:319|58:266,1,127.500004863739
137,236,14481,6,0,L|121:109,1,127.500004863739
224,144,14901,1,0,0:0:0:0:
320,104,15182,6,0,P|369:89|408:104,1,95.6250036478044
336,144,15462,2,0,P|328:208|360:264,1,127.500004863739
422,188,15882,1,0,0:0:0:0:
256,82,16023,1,0,0:0:0:0:
193,88,16163,2,0,L|281:80,1,63.7500024318696
136,264,16443,6,4,P|122:202|145:133,1,127.500004863739
280,224,16864,1,0,0:0:0:0:
169,75,17004,2,0,B|100:55|119:97|44:79,1,127.500004863739,0|0,0:2|0:2,0:2:0:0:
352,56,17424,1,0,0:0:0:0:
176,160,17565,5,4,0:0:0:0:
320,240,17705,1,0,0:0:0:0:
186,248,17845,5,4,0:0:0:0:
320,152,17985,1,0,0:0:0:0:
91,157,18125,5,4,0:0:0:0:
395,262,18265,1,0,0:0:0:0:
70,293,18406,5,4,0:0:0:0:
420,125,18546,6,4,P|441:67|420:5,1,127.500004863739
368,176,18967,1,0,0:0:0:0:
408,328,19107,1,0,0:0:0:0:
223,112,19247,6,0,L|232:184,1,63.7500024318696
120,280,19527,1,0,0:0:0:0:
296,288,19667,1,0,0:0:0:0:
71,210,19808,2,0,L|55:146,2,63.7500024318696
176,248,20228,1,0,0:0:0:0:
124,122,20368,2,0,P|99:89|69:77,1,63.7500024318696
48,272,20649,1,0,0:0:0:0:
336,96,20789,2,4,L|209:81,1,127.500004863739
240,352,21209,5,0,0:0:0:0:
336,96,21350,1,0,0:0:0:0:
296,288,21490,2,0,B|328:296|328:296|360:280,1,63.7500024318696
240,192,21770,1,0,0:0:0:0:
320,368,21910,1,0,0:0:0:0:
352,168,22051,1,0,0:0:0:0:
216,312,22191,1,0,0:0:0:0:
408,368,22331,2,0,L|480:384,1,63.7500024318696
224,136,22611,5,4,0:0:0:0:
336,384,22752,1,0,0:0:0:0:
224,136,22892,1,4,0:0:0:0:
200,336,23032,6,4,B|152:312|152:312|104:336|104:336|61:315|22:334,1,191.250007295609
264,376,23593,1,0,0:0:0:0:
168,152,23733,6,0,L|152:80,1,63.7500024318696
232,96,24013,2,0,L|240:32,1,63.7500024318696
344,152,24294,6,0,L|272:168,1,63.7500024318696
208,224,24574,2,0,L|272:240,1,63.7500024318696
304,352,24854,1,0,0:0:0:0:
120,240,24995,1,0,0:0:0:0:
281,165,25135,1,0,0:0:0:0:
97,311,25275,2,4,P|50:268|65:191,1,127.500004863739
152,176,25696,6,0,L|136:112,1,63.7500024318696
248,160,25976,2,0,L|232:232,1,63.7500024318696
160,104,26256,6,0,L|172:39,1,63.7500024318696
272,296,26537,5,4,0:0:0:0:
112,160,26677,1,0,0:0:0:0:
320,184,26817,1,4,0:0:0:0:
128,272,26957,1,0,0:0:0:0:
424,304,27097,5,4,0:0:0:0:
184,168,27238,1,0,0:0:0:0:
376,120,27378,5,4,0:0:0:0:
240,360,27519,1,0,0:0:0:0:
144,64,27658,6,4,B|152:136|152:136|168:168|168:168|160:200|160:200|175:274,1,212.5
456,320,28079,1,0,0:0:0:0:
296,104,28219,5,0,0:0:0:0:
216,376,28359,1,0,0:0:0:0:
424,184,28499,1,0,0:0:0:0:
144,64,28639,6,4,B|96:144|96:144|120:224|120:224|93:300|144:368,1,318.75
416,296,29200,1,0,0:0:0:0:
224,88,29340,5,8,0:0:0:0:
480,232,29481,1,0,0:0:0:0:
200,296,29621,1,8,0:0:0:0:
512,168,29761,1,0,0:0:0:0:
273,152,29901,6,4,P|221:169|158:134,1,106.25
448,32,30182,1,0,0:0:0:0:
248,256,30322,1,4,0:0:0:0:
343,34,30462,2,0,B|367:26|367:26|439:34|439:34|463:26,1,106.25
320,296,30742,1,0,0:0:0:0:
144,56,30882,1,4,0:0:0:0:
243,305,31023,5,0,0:0:0:0:
394,47,31163,1,4,0:0:0:0:
393,272,31303,5,0,0:0:0:0:
220,28,31443,1,4,0:0:0:0:
183,352,31583,2,0,L|71:368,2,106.25
393,272,32004,1,0,0:0:0:0:
216,40,32144,6,4,B|233:150|233:150|225:198|225:198|233:254|233:254,1,212.5
272,384,32565,1,0,0:0:0:0:
352,160,32705,5,8,0:0:0:0:
128,224,32845,1,0,0:0:0:0:
432,312,32985,1,8,0:0:0:0:
88,352,33125,6,4,B|80:304|80:304|96:248|96:248|88:224|88:224|96:200|96:200|80:88|80:88|88:40,1,318.75
368,200,33686,1,0,0:0:0:0:
208,352,33826,5,4,0:0:0:0:
336,56,33967,1,0,0:0:0:0:
304,368,34107,5,4,0:0:0:0:
176,72,34248,1,0,0:0:0:0:
312,232,34387,6,0,P|360:248|416:224,1,106.25
359,175,34667,2,0,P|375:127|351:71,1,106.25
300,128,34948,2,0,P|252:112|196:136,1,106.25
253,188,35228,2,0,P|237:236|261:292,1,106.25
384,176,35509,5,4,0:0:0:0:
72,104,35649,1,0,0:0:0:0:
320,224,35789,1,4,0:0:0:0:
176,72,35929,1,0,0:0:0:0:
240,352,36069,5,8,0:0:0:0:
336,80,36210,1,0,0:0:0:0:
216,256,36350,1,8,0:0:0:0:
304,8,36490,1,0,0:0:0:0:
451,336,36630,6,4,L|235:352,1,212.5
104,304,37051,1,0,0:0:0:0:
304,48,37191,5,0,0:0:0:0:
240,352,37331,1,0,0:0:0:0:
304,48,37471,1,0,0:0:0:0:
104,304,37611,6,4,B|80:216|80:216|104:72|104:72|95:30|95:30|128:56,1,318.75
416,128,38172,1,0,0:0:0:0:
310,120,38312,6,0,L|198:128,1,106.25
310,120,38593,2,0,L|422:128,1,106.25
207,331,38873,2,4,B|175:227|175:227|207:115,1,212.5
296,232,39294,5,0,0:0:0:0:
64,272,39434,1,4,0:0:0:0:
144,56,39574,1,0,0:0:0:0:
296,232,39714,1,4,0:0:0:0:
502,247,39854,2,0,B|398:263|398:263|295:231,1,212.5
64,272,40275,1,4,0:0:0:0:
295,231,40415,1,0,0:0:0:0:
200,16,40555,5,8,0:0:0:0:
256,312,40696,1,0,0:0:0:0:
320,16,40836,5,8,0:0:0:0:
349,315,40977,1,0,0:0:0:0:
296,88,41116,2,4,B|226:69|226:69|197:53|197:53|164:52|164:52|87:32,1,212.5
40,152,41537,1,0,0:0:0:0:
472,328,41677,5,0,0:0:0:0:
296,88,41817,1,0,0:0:0:0:
456,152,41957,5,0,0:0:0:0:
132,349,42097,2,4,L|92:29,1,318.75
456,152,42658,1,0,0:0:0:0:
88,240,42798,5,0,0:0:0:0:
472,168,42939,1,0,0:0:0:0:
92,32,43079,1,0,0:0:0:0:
224,384,43219,1,0,0:0:0:0:
328,288,43359,6,8,P|352:240|352:181,1,106.25
272,224,43639,2,8,P|248:176|248:117,1,106.25
392,40,43920,2,8,P|339:41|292:65,1,106.25
146,98,44200,2,8,P|198:99|245:123,1,106.25
58,307,44481,6,8,L|42:195,1,106.25
130,203,44761,2,8,L|146:91,1,106.25
312,64,45041,1,4,0:0:0:0:
256,216,45182,1,4,0:0:0:0:
145,97,45322,1,4,0:0:0:0:
312,64,45462,1,4,0:0:0:0:
256,216,45602,6,4,P|245:265|264:320,1,106.25
330,261,45882,2,4,P|346:211|336:160,1,106.25
392,83,46163,2,4,P|342:66|290:77,1,106.25
96,104,46443,2,4,P|145:87|197:98,1,106.25
295,328,46724,5,8,0:0:0:0:
197,98,46864,1,0,0:0:0:0:
411,226,47004,1,8,0:0:0:0:
162,248,47144,1,0,0:0:0:0:
351,85,47284,5,4,0:0:0:0:
288,320,47424,1,0,0:0:0:0:
201,102,47565,1,4,0:0:0:0:
411,226,47705,1,0,0:0:0:0:
162,248,47845,5,8,0:0:0:0:
120,192,54854,6,4,L|104:65,1,127.500004863739
104,65,55415,1,0,0:0:0:0:
119,191,55696,2,4,L|246:207,1,127.500004863739
304,64,56256,5,0,0:0:0:0:
368,280,56396,1,0,0:0:0:0:
256,128,56537,1,0,0:0:0:0:
224,312,56677,2,4,P|136:330|72:256,1,191.250007295609
146,125,57378,6,0,L|162:253,1,127.500004863739
224,312,57939,2,0,B|311:319|311:319|280:288,1,127.500004863739
168,272,58499,5,0,0:0:0:0:
344,216,58639,1,0,0:0:0:0:
160,176,58780,1,0,0:0:0:0:
280,40,58920,2,4,B|336:32|336:32|416:48|416:48|480:32,1,191.250007295609
504,216,59481,1,0,0:0:0:0:
336,136,59621,6,0,L|272:128,1,63.7500024318696
208,208,59901,2,0,L|272:200,1,63.7500024318696
168,136,60182,2,0,L|104:128,1,63.7500024318696
200,64,60462,2,0,L|272:56,1,63.7500024318696
344,104,60742,5,4,0:0:0:0:
338,135,60812,1,4,0:0:0:0:
333,166,60882,1,4,0:0:0:0:
328,198,60952,1,4,0:0:0:0:
352,224,61023,1,8,0:0:0:0:
357,255,61093,1,8,0:0:0:0:
362,286,61163,1,8,0:0:0:0:
367,318,61233,1,8,0:0:0:0:
352,344,61303,6,0,L|288:352,1,63.7500024318696
282,88,61583,2,0,L|346:104,1,63.7500024318696
216,320,61864,2,0,L|208:256,1,63.7500024318696
289,24,62144,2,0,L|281:88,1,63.7500024318696
216,320,62424,2,0,L|112:304,1,95.6250036478044
200,288,62705,2,0,L|264:304,1,63.7500024318696
344,344,62985,5,0,0:0:0:0:
184,80,63125,1,0,0:0:0:0:
120,384,63266,1,0,0:0:0:0:
256,128,63406,6,4,B|325:146|325:146|350:145|350:145|371:159|371:159|449:179,1,191.250007295609
480,384,63967,1,0,0:0:0:0:
184,224,64107,6,0,L|112:208,1,63.7500024318696
288,72,64387,1,0,0:0:0:0:
360,232,64527,1,0,0:0:0:0:
184,224,64667,6,0,L|192:160,1,63.7500024318696
232,280,64948,2,0,L|248:352,1,63.7500024318696
320,224,65228,5,0,0:0:0:0:
104,160,65368,1,0,0:0:0:0:
296,64,65509,1,0,0:0:0:0:
232,280,65649,2,4,L|72:296,1,159.375006079674
32,264,66069,6,0,L|104:256,1,63.7500024318696
295,287,66350,2,0,L|223:279,1,63.7500024318696
81,194,66630,2,0,L|97:266,1,63.7500024318696
247,341,66910,2,0,L|231:277,1,63.7500024318696
152,72,67191,2,0,L|136:136,1,63.7500024318696
352,216,67471,1,4,0:0:0:0:
176,360,67611,1,0,0:0:0:0:
136,133,67752,1,4,0:0:0:0:
365,27,67892,6,4,B|357:91|357:91|365:147|365:147|349:227,1,191.250007295609
392,368,68453,1,0,0:0:0:0:
167,271,68593,6,0,L|239:287,1,63.7500024318696
351,215,68873,2,0,L|287:231,1,63.7500024318696
133,116,69153,5,0,0:0:0:0:
229,284,69294,1,0,0:0:0:0:
269,68,69434,1,0,0:0:0:0:
304,304,69574,1,0,0:0:0:0:
133,116,69714,6,4,L|61:108,1,63.7500024318696
69,108,69995,1,0,0:0:0:0:
323,100,70135,2,4,L|123:116,1,191.250007295609
48,80,70696,1,0,0:0:0:0:
96,240,70836,6,0,L|80:304,1,63.7500024318696
146,177,71116,2,0,L|130:105,1,63.7500024318696
200,48,71396,5,4,0:0:0:0:
344,304,71537,1,0,0:0:0:0:
264,8,71677,5,4,0:0:0:0:
120,264,71818,1,0,0:0:0:0:
376,176,71957,5,4,0:0:0:0:
96,96,72097,1,0,0:0:0:0:
304,312,72238,1,4,0:0:0:0:
344,24,72378,1,0,0:0:0:0:
304,312,72518,6,4,B|256:336|256:336|216:320|216:320|152:352|104:304,1,212.5
108,308,72939,1,0,0:0:0:0:
192,104,73079,5,0,0:0:0:0:
440,200,73219,1,0,0:0:0:0:
240,248,73359,1,0,0:0:0:0:
504,132,73499,6,4,B|432:116|432:116|360:132|360:132|188:103,1,318.75
112,160,74060,1,0,0:0:0:0:
312,296,74200,6,0,L|424:320,1,106.25
328,64,74481,1,0,0:0:0:0:
272,360,74621,1,0,0:0:0:0:
256,32,74761,6,4,P|205:22|155:52,1,106.25
304,272,75041,1,0,0:0:0:0:
217,95,75182,1,0,0:0:0:0:
264,344,75322,2,4,L|376:360,1,106.25
304,272,75602,2,0,L|192:288,1,106.25
264,72,75882,5,4,0:0:0:0:
369,359,76023,1,0,0:0:0:0:
56,248,76163,2,0,B|40:192|40:192|64:128,1,106.25
416,88,76443,5,4,0:0:0:0:
208,312,76583,1,0,0:0:0:0:
512,240,76724,5,4,0:0:0:0:
110,326,76864,1,0,0:0:0:0:
488,28,77004,6,4,L|512:244,1,212.5
344,368,77424,1,0,0:0:0:0:
136,96,77565,5,4,0:0:0:0:
440,152,77705,1,0,0:0:0:0:
112,256,77845,1,4,0:0:0:0:
447,362,77985,6,4,B|439:314|439:314|447:194|447:194|439:146,1,212.5
472,80,78406,1,0,0:0:0:0:
224,0,78546,1,0,0:0:0:0:
264,224,78686,2,0,B|248:296|248:296|264:344,1,106.25
328,272,78967,2,0,L|352:160,1,106.25
88,112,79247,5,8,0:0:0:0:
288,360,79387,1,0,0:0:0:0:
320,40,79527,1,8,0:0:0:0:
224,240,79667,1,0,0:0:0:0:
512,88,79808,5,8,0:0:0:0:
248,0,79948,1,0,0:0:0:0:
224,240,80088,2,8,L|208:120,1,106.25
280,64,80368,5,4,0:0:0:0:
360,240,80509,1,0,0:0:0:0:
344,128,80649,5,4,0:0:0:0:
276,309,80790,1,0,0:0:0:0:
432,168,80929,5,8,0:0:0:0:
136,88,81069,1,0,0:0:0:0:
472,104,81210,5,8,0:0:0:0:
45,258,81350,1,0,0:0:0:0:
478,312,81490,6,4,B|494:208|494:208|470:96,1,212.5
304,64,81910,1,0,0:0:0:0:
372,327,82051,2,0,L|484:311,2,106.25
88,280,82471,5,4,0:0:0:0:
352,240,82611,1,0,0:0:0:0:
176,160,82752,1,4,0:0:0:0:
312,384,82892,1,0,0:0:0:0:
392,0,83032,1,4,0:0:0:0:
160,54,83172,6,8,L|176:166,1,106.25
256,152,83453,2,8,L|232:256,1,106.25
112,304,83733,6,4,B|189:324|189:324|210:338|210:338|235:337|235:337|320:359,1,212.5
431,105,84153,1,0,0:0:0:0:
420,344,84294,2,0,L|300:360,1,106.25
80,192,84574,1,0,0:0:0:0:
240,384,84714,1,0,0:0:0:0:
416,0,84854,6,4,L|432:112,1,106.25
416,210,85135,2,0,L|432:98,1,106.25
264,48,85415,5,4,0:0:0:0:
80,224,85555,1,0,0:0:0:0:
256,128,85696,1,4,0:0:0:0:
304,360,85836,1,0,0:0:0:0:
64,12,85976,6,0,L|80:228,1,212.5
24,384,86396,1,0,0:0:0:0:
169,27,86537,2,0,L|57:11,1,106.25
0,64,86817,1,0,0:0:0:0:
224,128,86957,1,0,0:0:0:0:
64,280,87097,6,4,B|56:344|56:344|72:392,1,106.25
152,336,87378,2,0,B|216:344|216:344|264:328,1,106.25
200,104,87658,1,0,0:0:0:0:
152,336,87798,1,0,0:0:0:0:
288,240,87939,1,0,0:0:0:0:
56,192,88079,1,0,0:0:0:0:
424,288,88219,6,8,P|432:232|416:184,1,106.25
359,244,88499,2,8,P|333:193|292:163,1,106.25
275,246,88780,2,8,P|225:219|174:217,1,106.25
208,295,89060,2,8,P|151:301|109:329,1,106.25
176,217,89340,6,8,L|192:89,1,106.25
272,144,89621,2,8,L|256:24,1,106.25
104,112,89901,5,8,0:0:0:0:
320,208,90041,1,0,0:0:0:0:
352,136,90182,5,8,0:0:0:0:
136,232,90322,1,0,0:0:0:0:
392,344,90462,6,8,P|417:298|400:240,1,106.25
338,87,90742,2,8,P|327:138|352:184,1,106.25
368,328,91023,2,8,P|393:282|376:224,1,106.25
314,71,91303,2,8,P|303:122|328:168,1,106.25
419,58,91583,6,0,L|291:74,1,106.25,0|8,0:0|0:0,0:0:0:0:
222,154,91864,2,8,L|350:170,1,106.25
400,56,92144,5,4,0:0:0:0:
176,216,92284,1,0,0:0:0:0:
432,264,92424,1,4,0:0:0:0:
312,112,92565,1,0,0:0:0:0:
360,376,92705,6,0,B|296:384|296:384|232:368,1,127.500004863739
40,320,93266,2,0,B|104:328|104:328|168:312,1,127.500004863739
360,376,93826,6,0,B|296:384|296:384|232:368,1,127.500004863739
40,320,94387,2,0,B|104:328|104:328|168:312,1,127.500004863739
312,144,94948,6,0,L|296:16,1,127.500004863739
296,270,95509,2,0,L|312:142,1,127.500004863739
85,68,96069,6,0,P|145:68|202:111,1,127.500004863739
311,143,96630,2,0,P|251:143|194:100,1,127.500004863739
85,68,97051,1,8,0:0:0:0:
120,304,97191,6,0,B|104:272|104:272|120:208|120:208|104:176,1,127.500004863739
119,64,97752,2,0,B|108:88|108:88|124:152|124:152|108:184,1,127.500004863739
362,184,98312,6,0,L|226:200,1,127.500004863739
108,184,98873,2,0,L|244:200,1,127.500004863739
368,296,99434,6,0,P|304:312|248:288,1,127.500004863739
436,241,99995,2,0,P|452:305|428:361,1,127.500004863739
249,289,100555,2,0,L|233:225,1,63.7500024318696
281,145,100836,1,8,0:0:0:0:
233,227,101116,2,0,L|105:243,1,127.500004863739
41,203,101537,1,8,0:0:0:0:
287,173,101677,6,4,P|309:229|272:292,1,127.500004863739
224,128,102097,1,0,0:0:0:0:
277,96,102238,2,0,P|239:112|212:147,1,63.7500024318696
133,264,102518,1,0,0:0:0:0:
45,128,102658,1,0,0:0:0:0:
277,96,102798,6,0,L|349:112,1,63.7500024318696
392,176,103079,2,0,L|320:192,1,63.7500024318696
197,96,103359,2,0,L|205:160,1,63.7500024318696
277,96,103639,2,0,L|285:32,1,63.7500024318696
95,336,103920,6,4,L|231:360,1,127.500004863739
295,328,104340,1,0,0:0:0:0:
224,216,104481,2,0,L|232:280,1,63.7500024318696
308,265,104761,2,0,L|292:337,1,63.7500024318696
304,184,105041,5,0,0:0:0:0:
464,176,105182,1,0,0:0:0:0:
324,303,105322,1,0,0:0:0:0:
496,344,105462,1,0,0:0:0:0:
304,184,105602,2,0,L|296:112,1,63.7500024318696
384,168,105882,2,0,L|368:240,1,63.7500024318696
40,232,106163,6,4,B|78:242|78:242|99:256|99:256|125:254|125:254|171:267,1,127.500004863739
344,208,106583,1,0,0:0:0:0:
269,49,106724,6,0,L|277:121,1,63.7500024318696
357,145,107004,2,0,L|341:217,1,63.7500024318696
184,312,107284,5,0,0:0:0:0:
288,152,107424,1,0,0:0:0:0:
264,368,107565,1,0,0:0:0:0:
232,224,107705,1,0,0:0:0:0:
480,272,107845,5,0,0:0:0:0:
261,295,107985,1,0,0:0:0:0:
432,208,108125,1,0,0:0:0:0:
200,152,108266,1,0,0:0:0:0:
328,384,108406,6,4,L|344:320,1,63.7500024318696
200,152,108686,1,0,0:0:0:0:
405,308,108826,6,4,L|333:324,1,63.7500024318696
296,0,109107,1,0,0:0:0:0:
200,152,109247,6,4,L|216:224,1,63.7500024318696
88,384,109527,1,0,0:0:0:0:
336,312,109667,1,0,0:0:0:0:
24,128,109808,1,4,0:0:0:0:
382,249,109948,1,0,0:0:0:0:
168,344,110088,5,8,0:0:0:0:
163,301,110158,1,8,0:0:0:0:
158,259,110228,1,8,0:0:0:0:
153,217,110298,1,8,0:0:0:0:
176,176,110368,5,4,0:0:0:0:
180,133,110439,1,4,0:0:0:0:
185,91,110508,1,4,0:0:0:0:
190,49,110578,1,4,0:0:0:0:
168,8,110649,6,8,B|240:0|240:0|360:24|360:24|424:8,1,255.000009727478
512,264,111069,1,0,0:0:0:0:
240,72,111210,5,4,0:0:0:0:
336,376,111350,1,0,0:0:0:0:
408,136,111490,1,4,0:0:0:0:
168,8,111630,1,0,0:0:0:0:
207,380,111770,2,4,B|184:296|224:336|200:256,1,127.500004863739
296,192,112051,1,0,0:0:0:0:
80,296,112191,1,4,0:0:0:0:
384,376,112331,5,4,0:0:0:0:
432,48,112471,1,0,0:0:0:0:
185,21,112611,5,4,0:0:0:0:
233,349,112751,1,0,0:0:0:0:
432,48,112892,2,8,P|312:9|174:24,1,255.000009727478
128,248,113312,1,0,0:0:0:0:
61,19,113453,2,4,B|117:35|117:35|189:19,1,127.500004863739
376,168,113733,1,0,0:0:0:0:
136,120,113873,1,0,0:0:0:0:
320,64,114013,5,4,0:0:0:0:
200,336,114153,1,0,0:0:0:0:
464,124,114294,1,4,0:0:0:0:
56,240,114434,1,0,0:0:0:0:
472,272,114574,5,4,0:0:0:0:
152,112,114714,1,0,0:0:0:0:
424,136,114854,6,8,L|480:120,1,42.5
192,125,114995,2,8,L|144:109,1,42.5
409,262,115135,6,0,L|425:126,1,127.500004863739
120,72,115415,1,0,0:0:0:0:
232,344,115555,1,0,0:0:0:0:
245,64,115696,2,0,B|181:56|181:56|117:72,1,127.500004863739
320,320,115976,1,0,0:0:0:0:
416,40,116116,1,0,0:0:0:0:
208,144,116256,5,4,0:0:0:0:
480,240,116396,1,0,0:0:0:0:
64,320,116537,1,4,0:0:0:0:
368,216,116677,1,0,0:0:0:0:
144,56,116817,5,4,0:0:0:0:
296,336,116957,1,0,0:0:0:0:
368,0,117097,5,4,0:0:0:0:
224,376,117237,1,0,0:0:0:0:
160,72,117378,2,4,L|32:88,1,127.500004863739
408,208,117658,1,0,0:0:0:0:
408,208,117798,1,0,0:0:0:0:
33,87,117939,2,4,L|9:215,1,127.500004863739
224,384,118219,1,0,0:0:0:0:
224,384,118359,1,0,0:0:0:0:
400,120,118499,5,8,0:0:0:0:
345,113,118569,1,4,0:0:0:0:
291,106,118639,1,8,0:0:0:0:
237,100,118710,1,4,0:0:0:0:
186,91,118780,2,4,L|114:107,1,63.7500024318696
56,168,118920,1,8,0:0:0:0:
232,344,119060,5,4,0:0:0:0:
123,104,119200,1,0,0:0:0:0:
96,384,119340,1,4,0:0:0:0:
440,296,119481,1,0,0:0:0:0:
344,40,119621,6,8,B|288:16|288:16|232:32|232:32|160:-8|101:21,1,255.000009727478
160,376,120041,1,0,0:0:0:0:
366,165,120182,6,4,L|342:29,1,127.500004863739
88,160,120462,1,0,0:0:0:0:
416,224,120602,1,0,0:0:0:0:
208,56,120742,6,4,P|144:40|72:72,1,127.500004863739
304,56,121023,2,0,P|368:40|440:72,1,127.500004863739
193,362,121303,2,4,P|209:298|177:226,1,127.500004863739
321,362,121583,2,0,P|305:298|337:226,1,127.500004863739
132,157,121864,6,4,P|220:133|324:245,1,255.000009727478
224,384,122284,1,0,0:0:0:0:
144,64,122424,1,4,0:0:0:0:
320,240,122565,5,0,0:0:0:0:
6,156,122705,1,4,0:0:0:0:
368,104,122845,1,0,0:0:0:0:
8,280,122985,2,4,B|-8:216|-8:216|8:152,1,127.500004863739
504,280,123266,2,4,B|520:216|520:216|504:152,1,127.500004863739
88,128,123546,5,8,0:0:0:0:
496,0,123686,1,0,0:0:0:0:
98,27,123826,5,8,0:0:0:0:
505,156,123966,1,0,0:0:0:0:
121,280,124107,6,4,L|97:24,1,255.000009727478
424,152,124527,1,0,0:0:0:0:
184,352,124667,5,4,0:0:0:0:
296,40,124808,1,0,0:0:0:0:
376,296,124948,1,4,0:0:0:0:
200,16,125088,1,0,0:0:0:0:
252,294,125228,6,8,B|316:310|316:310|380:294,1,127.500004863739
304,32,125509,1,4,0:0:0:0:
194,343,125649,1,0,0:0:0:0:
430,16,125789,2,8,L|302:32,1,127.500004863739
176,16,126069,2,8,L|304:32,1,127.500004863739
224,352,126350,5,4,0:0:0:0:
128,48,126490,1,0,0:0:0:0:
104,304,126630,1,4,0:0:0:0:
200,128,126770,1,0,0:0:0:0:
24,328,126910,5,4,0:0:0:0:
392,256,127051,1,0,0:0:0:0:
392,256,127191,1,4,0:0:0:0:
88,120,127331,1,0,0:0:0:0:
232,312,127471,5,4,0:0:0:0:
160,16,127611,1,0,0:0:0:0:
120,368,127752,1,4,0:0:0:0:
280,120,127892,1,0,0:0:0:0:
64,208,128032,5,8,0:0:0:0:
101,212,128102,1,8,0:0:0:0:
139,217,128172,1,4,0:0:0:0:
177,222,128242,1,8,0:0:0:0:
215,226,128312,1,4,0:0:0:0:
253,231,128382,1,8,0:0:0:0:
272,224,128453,1,4,0:0:0:0:
288,216,128523,1,8,0:0:0:0:
303,208,128593,5,4,0:0:0:0:
208,8,128733,1,0,0:0:0:0:
288,344,128873,1,4,0:0:0:0:
416,64,129013,5,0,0:0:0:0:
120,120,129153,1,4,0:0:0:0:
400,256,129294,1,0,0:0:0:0:
240,16,129434,5,4,0:0:0:0:
312,312,129574,1,0,0:0:0:0:
368,64,129714,1,4,0:0:0:0:
8,128,129854,5,0,0:0:0:0:
400,256,129995,1,4,0:0:0:0:
56,336,130135,1,0,0:0:0:0:
170,19,130275,5,4,0:0:0:0:
400,256,130415,1,0,0:0:0:0:
74,199,130555,1,4,0:0:0:0:
371,55,130696,1,0,0:0:0:0:
216,345,130836,5,8,0:0:0:0:
288,24,130976,1,4,0:0:0:0:
328,382,131116,5,8,0:0:0:0:
371,55,131256,1,4,0:0:0:0:
440,384,131396,5,8,3:0:0:0:
454,54,131536,1,4,3:0:0:0:
328,382,131677,5,8,0:0:0:0:
371,55,131817,1,4,0:0:0:0:
168,384,131957,5,8,0:0:0:0:
294,79,132097,1,4,0:0:0:0:
128,279,132238,5,8,0:0:0:0:
371,55,132378,1,4,0:0:0:0:
24,192,132518,5,8,0:0:0:0:
456,54,132658,1,4,0:0:0:0:
112,0,132798,5,8,0:0:0:0:
256,368,132939,1,14,0:0:0:0:
