osu file format v14

[General]
AudioFilename: audio.mp3
AudioLeadIn: 0
PreviewTime: 199940
Countdown: 0
SampleSet: Soft
StackLeniency: 0
Mode: 0
LetterboxInBreaks: 0
WidescreenStoryboard: 0

[Editor]
Bookmarks: 35896
DistanceSpacing: 1.2
BeatDivisor: 4
GridSize: 8
TimelineZoom: 1

[Metadata]
Title:Samidare Koi Uta
TitleUnicode:五月雨恋歌
Artist:DeZI:R feat. Hatsune Miku
ArtistUnicode:DeZI:R feat. 初音ミク
Creator:Lunala
Version:Rain Dance
Source:
Tags:japanese folk vocaloid ボーカロイド KaguraP かぐらP
BeatmapID:4504763
BeatmapSetID:2140390

[Difficulty]
HPDrainRate:5
CircleSize:4.5
OverallDifficulty:7.2
ApproachRate:8.2
SliderMultiplier:1.6
SliderTickRate:1

[Events]
//Background and Video events
0,0,"wyy.jpg",0,0
//Break Periods
//Storyboard Layer 0 (Background)
//Storyboard Layer 1 (Fail)
//Storyboard Layer 2 (Pass)
//Storyboard Layer 3 (Foreground)
//Storyboard Layer 4 (Overlay)
//Storyboard Sound Samples

[TimingPoints]
3018,588.235294117647,4,2,1,40,1,0
11841,-100,4,2,1,40,0,0
31253,-76.9230769230769,4,2,1,60,0,0
47577,-76.9230769230769,4,2,1,5,0,0
47724,-76.9230769230769,4,2,1,60,0,0
49488,-100,4,2,1,40,0,0
68900,-83.3333333333333,4,2,1,50,0,0
86547,-76.9230769230769,4,2,1,60,0,0
87135,-76.9230769230769,4,2,1,70,0,1
87724,-62.5,4,2,1,70,0,1
106547,-76.9230769230769,4,2,1,60,0,0
122870,-76.9230769230769,4,2,1,5,0,0
123017,-76.9230769230769,4,2,1,60,0,0
124782,-76.9230769230769,4,2,1,40,0,0
125370,-100,4,2,1,40,0,0
144194,-83.3333333333333,4,2,1,50,0,0
163017,-62.5,4,2,1,70,0,1
181841,-100,4,2,1,50,0,0
199488,-76.9230769230769,4,2,1,60,0,0
200665,-62.5,4,2,1,70,0,1
219488,-55.5555555555556,4,2,1,75,0,1
238312,-76.9230769230769,4,2,1,60,0,0
254635,-76.9230769230769,4,2,1,5,0,0
254782,-76.9230769230769,4,2,1,60,0,0
257135,-76.9230769230769,4,2,1,50,0,0
261841,-76.9230769230769,4,2,1,40,0,0
266547,-100,4,2,1,30,0,0
268900,-100,4,2,1,20,0,0

[Colours]
Combo1 : 0,219,55
Combo2 : 193,132,255
Combo3 : 0,230,230
Combo4 : 128,128,255

[HitObjects]
78,94,12429,6,0,P|145:158|213:115,1,160,6|0,0:0|0:0,0:0:0:0:
203,128,13312,1,0,0:0:0:0:
384,77,13606,2,0,B|321:42|321:42|274:104|318:154,1,160,2|0,0:0|0:0,0:0:0:0:
304,137,14488,1,0,0:0:0:0:
398,158,14782,2,0,L|373:268,1,80,2|0,0:0|0:0,0:0:0:0:
259,227,15370,2,0,L|295:329,1,80
388,359,15959,2,0,P|285:330|213:371,1,160,2|2,0:0|0:1,0:0:0:0:
235,360,16841,1,0,0:0:0:0:
103,345,17135,6,0,P|71:231|102:211,1,160,2|0,0:0|0:0,0:0:0:0:
142,159,18017,1,0,0:0:0:0:
146,153,18312,2,0,B|238:131|203:230|320:191,1,160,2|0,0:0|0:0,0:0:0:0:
385,156,19194,1,0,0:0:0:0:
395,154,19488,2,0,P|393:74|347:56,1,120,2|0,0:0|0:0,0:0:0:0:
280,32,20076,2,0,L|263:113,2,80,0|0|2,0:0|0:0|0:0,0:0:0:0:
109,255,21253,2,0,L|202:241,1,80,2|0,0:1|0:0,0:0:0:0:
276,169,21841,6,0,P|207:126|140:175,1,160,2|0,0:0|0:0,0:0:0:0:
139,172,22723,1,0,0:0:0:0:
94,255,23017,2,0,B|164:246|147:333|249:307,1,160,2|0,0:0|0:0,0:0:0:0:
245,317,23900,1,0,0:0:0:0:
332,247,24194,2,0,L|305:151,1,80,2|0,0:0|0:0,0:0:0:0:
366,87,24782,2,0,P|412:80|450:117,1,80
460,187,25370,1,2,0:0:0:0:
463,197,25959,6,0,L|451:293,2,80,2|0|2,0:1|0:0|0:0,0:0:0:0:
480,50,27135,2,0,L|376:89,1,80
313,72,27723,2,0,P|334:-12|340:-14,2,80,2|0|0,0:0|0:0|0:0,0:0:0:0:
322,79,28606,1,0,0:0:0:0:
372,192,28900,5,6,0:0:0:0:
401,115,29194,1,0,0:0:0:0:
420,265,29488,1,8,0:0:0:0:
368,196,29782,1,0,0:0:0:0:
329,307,30076,1,4,0:2:0:0:
41,184,30665,5,4,0:3:0:0:
89,168,30812,1,4,0:3:0:0:
114,213,30959,1,4,0:3:0:0:
83,253,31106,1,4,0:3:0:0:
37,234,31253,6,0,L|11:67,1,155.999992858887,4|0,3:2|0:0,0:0:0:0:
71,7,31841,2,0,B|146:9|126:98|257:66,1,155.999992858887,8|0,0:0|0:0,0:0:0:0:
362,18,32430,2,0,P|338:92|273:101,1,103.999995239258,0|0,3:0|0:0,0:0:0:0:
293,105,32871,1,0,0:0:0:0:
276,90,33018,1,8,0:0:0:0:
382,210,33312,1,0,0:0:0:0:
244,330,33606,5,0,3:0:0:0:
364,176,33900,1,0,0:0:0:0:
388,183,33998,1,0,0:0:0:0:
382,210,34096,1,0,0:0:0:0:
355,209,34194,2,0,P|319:157|327:108,1,103.999995239258,8|0,0:0|0:0,0:0:0:0:
437,47,34635,1,0,0:0:0:0:
459,40,34782,2,0,L|511:64,2,51.999997619629
287,195,35371,5,8,0:0:0:0:
322,28,35665,1,0,0:0:0:0:
144,100,35959,6,0,P|215:104|336:115,1,155.999992858887
441,117,36547,2,0,P|432:55|357:42,1,103.999995239258,8|0,0:0|0:0,0:0:0:0:
331,50,36988,1,0,0:0:0:0:
323,52,37135,2,0,P|360:177|373:217,1,155.999992858887,0|0,3:0|0:0,0:0:0:0:
450,290,37724,1,8,0:0:0:0:
512,171,38018,1,0,0:0:0:0:
348,335,38312,5,0,3:0:0:0:
202,155,38606,1,0,0:0:0:0:
248,176,38753,1,0,0:0:0:0:
209,204,38900,1,8,0:0:0:0:
272,41,39194,1,0,0:0:0:0:
113,141,39488,2,0,L|66:161,2,51.999997619629,0|0|0,3:0|0:0|0:0,0:0:0:0:
424,85,40077,5,8,0:0:0:0:
418,126,40224,1,0,0:0:0:0:
412,161,40371,1,0,0:0:0:0:
188,215,40665,6,0,B|274:192|231:296|369:255,1,155.999992858887,4|0,0:0|0:0,0:0:0:0:
349,75,41253,2,0,P|366:155|378:201,1,103.999995239258,8|0,0:0|0:0,0:0:0:0:
455,329,41694,1,0,0:0:0:0:
474,324,41841,2,0,P|517:279|474:192,1,155.999992858887,0|0,3:0|0:0,0:0:0:0:
359,275,42430,1,8,0:0:0:0:
334,384,42724,1,0,0:0:0:0:
213,228,43018,5,0,3:0:0:0:
395,173,43312,1,0,0:0:0:0:
423,186,43410,1,0,0:0:0:0:
410,208,43508,1,0,0:0:0:0:
381,196,43606,2,0,P|369:83|369:82,1,103.999995239258,8|0,0:0|0:0,0:0:0:0:
449,18,44047,1,0,0:0:0:0:
458,44,44194,2,0,P|366:78|277:10,1,207.999990478516,0|8,3:0|0:0,0:0:0:0:
218,148,45077,1,0,0:0:0:0:
67,14,45371,6,0,P|118:51|97:115,1,103.999995239258,0|0,3:0|0:0,0:0:0:0:
22,307,45959,1,8,0:0:0:0:
177,193,46253,1,0,0:0:0:0:
179,219,46400,1,0,0:0:0:0:
185,241,46547,2,0,P|124:251|78:215,1,103.999995239258,0|0,3:0|0:0,0:0:0:0:
58,107,46988,1,0,0:0:0:0:
71,87,47135,2,0,P|145:68|219:154,1,155.999992858887,8|0,0:0|0:0,0:0:0:0:
387,103,47724,6,0,L|372:24,1,51.999997619629,4|0,3:2|0:0,0:0:0:0:
265,238,48018,1,0,0:0:0:0:
274,217,48165,1,0,0:0:0:0:
281,196,48312,2,0,L|295:121,1,51.999997619629,8|0,0:0|0:0,0:0:0:0:
441,269,48606,2,0,L|415:177,1,51.999997619629
332,353,48900,1,4,3:2:0:0:
159,231,49488,5,4,0:3:0:0:
185,266,49635,1,4,0:3:0:0:
154,305,49782,1,4,0:3:0:0:
110,289,49929,1,4,0:3:0:0:
106,244,50077,6,0,L|140:78,1,160,6|0,0:0|0:0,0:0:0:0:
47,136,50959,1,0,0:0:0:0:
134,80,51253,2,0,B|216:69|192:162|298:130,1,160
426,28,52429,6,0,P|449:88|420:113,2,80
369,143,53312,1,0,0:0:0:0:
292,42,53606,2,0,L|339:53,2,40
161,147,54194,5,2,0:1:0:0:
102,62,54488,1,0,0:0:0:0:
240,145,54782,6,0,P|265:226|218:286,1,160,2|0,0:0|0:0,0:0:0:0:
309,316,55665,1,0,0:0:0:0:
121,353,55959,2,0,P|95:268|156:220,1,160
226,384,56841,1,0,0:0:0:0:
268,266,57135,6,0,P|357:300|378:309,1,80
394,284,57577,1,0,0:0:0:0:
377,298,57724,1,0,0:0:0:0:
496,209,58018,1,0,0:0:0:0:
365,154,58312,2,0,L|380:212,2,40
151,327,58900,5,2,0:1:0:0:
176,292,59047,1,0,0:0:0:0:
227,298,59194,1,0,0:0:0:0:
226,211,59488,6,0,B|317:200|280:286|388:261,1,160,2|0,0:0|0:0,0:0:0:0:
512,292,60371,1,0,0:0:0:0:
491,161,60665,2,0,B|475:131|420:118|420:118|399:156|403:191,1,160
407,331,61547,1,0,0:0:0:0:
291,221,61841,6,0,P|270:261|289:309,2,80
344,347,62724,1,0,0:0:0:0:
395,225,63018,2,0,L|466:250,2,40
229,103,63606,5,2,0:1:0:0:
294,185,63900,1,0,0:0:0:0:
416,107,64194,5,2,0:0:0:0:
368,238,64488,1,0,0:0:0:0:
375,218,64635,1,0,0:0:0:0:
382,193,64782,1,0,0:0:0:0:
499,231,65077,1,0,0:0:0:0:
386,331,65371,2,0,P|408:380|409:388,2,40
266,214,65959,2,0,L|373:247,1,80
194,114,66547,5,0,0:0:0:0:
88,255,66841,1,0,0:0:0:0:
117,216,66988,1,0,0:0:0:0:
165,215,67135,1,0,0:0:0:0:
264,277,67429,1,0,0:0:0:0:
326,142,67724,6,0,L|334:103,1,40,4|0,0:0|0:0,0:0:0:0:
264,277,68018,2,0,L|255:239,1,40,8|0,0:0|0:0,0:0:0:0:
115,108,68312,5,4,0:3:0:0:
68,118,68459,1,4,0:3:0:0:
61,166,68606,1,4,0:3:0:0:
110,186,68753,1,4,0:3:0:0:
148,169,68900,6,0,P|163:78|164:60,1,95.9999970703126,4|0,3:2|0:0,0:0:0:0:
242,24,69341,1,0,0:0:0:0:
237,35,69488,2,0,P|269:57|307:35,1,47.9999985351563
388,82,69782,2,0,P|357:138|360:145,1,47.9999985351563
352,202,70076,2,0,P|413:249|468:212,1,143.999995605469,0|0,3:0|0:0,0:0:0:0:
496,127,70665,2,0,L|474:68,2,47.9999985351563,8|0|0,0:0|0:0|0:0,0:0:0:0:
462,237,71253,6,0,B|407:252|439:301|360:289,1,95.9999970703126,0|0,3:0|0:0,0:0:0:0:
312,284,71694,1,0,0:0:0:0:
303,296,71841,2,0,P|314:215|314:204,1,47.9999985351563,8|0,0:0|0:0,0:0:0:0:
227,151,72135,2,0,L|245:237,1,47.9999985351563
84,265,72429,2,0,P|193:279|217:239,1,143.999995605469,0|0,3:0|0:0,0:0:0:0:
316,204,73017,5,10,0:0:0:0:
328,177,73165,1,0,0:0:0:0:
321,152,73312,1,0,0:0:0:0:
211,274,73606,6,0,B|307:260|269:360|402:319,1,191.999994140625,0|8,3:0|0:0,0:0:0:0:
482,257,74488,1,0,0:0:0:0:
321,205,74782,1,0,3:0:0:0:
312,342,75077,1,0,0:0:0:0:
454,177,75371,1,8,0:0:0:0:
394,269,75665,1,0,0:0:0:0:
382,102,75959,6,0,P|492:164|517:181,1,143.999995605469,0|0,3:0|0:0,0:0:0:0:
260,181,76547,2,0,P|401:199|440:207,1,143.999995605469,8|0,0:0|0:0,0:0:0:0:
214,254,77135,2,0,P|170:182|191:150,1,95.9999970703126,0|0,3:0|0:0,0:0:0:0:
210,101,77577,1,0,0:0:0:0:
221,117,77724,1,10,0:0:0:0:
286,199,78018,1,0,0:0:0:0:
398,79,78312,6,0,P|371:194|370:199,1,95.9999970703126,4|0,3:2|0:0,0:0:0:0:
416,251,78753,1,0,0:0:0:0:
420,262,78900,2,0,P|465:253|476:225,1,47.9999985351563,8|0,0:0|0:0,0:0:0:0:
345,329,79194,2,0,P|416:355|427:351,1,47.9999985351563
260,313,79488,2,0,P|215:264|261:211,1,143.999995605469,0|0,3:0|0:0,0:0:0:0:
358,194,80076,2,0,L|413:216,2,47.9999985351563,8|0|0,0:0|0:0|0:0,0:0:0:0:
237,209,80665,6,0,L|217:92,1,95.9999970703126,0|0,3:0|0:0,0:0:0:0:
274,8,81106,1,0,0:0:0:0:
284,5,81253,2,0,P|309:62|319:84,1,47.9999985351563,8|0,0:0|0:0,0:0:0:0:
385,165,81547,2,0,L|405:77,1,47.9999985351563
387,260,81841,2,0,B|310:279|335:194|242:215,1,143.999995605469,0|0,3:0|0:0,0:0:0:0:
224,306,82429,5,10,0:0:0:0:
219,335,82576,1,0,0:0:0:0:
213,359,82723,1,0,0:0:0:0:
376,343,83017,6,0,P|437:270|398:230,1,143.999995605469,0|0,3:0|0:0,0:0:0:0:
330,214,83606,1,8,0:0:0:0:
296,306,83900,1,0,0:0:0:0:
191,176,84194,5,4,3:2:0:0:
318,17,84488,1,0,0:0:0:0:
363,25,84635,1,0,0:0:0:0:
383,67,84782,2,0,P|364:118|354:123,1,47.9999985351563,8|0,0:0|0:0,0:0:0:0:
300,272,85077,2,0,P|279:245|292:190,1,47.9999985351563
278,97,85371,5,4,3:2:0:0:
356,255,85665,5,4,0:3:0:0:
320,219,85812,1,4,0:3:0:0:
272,218,85959,1,4,0:3:0:0:
232,242,86106,1,4,0:3:0:0:
209,286,86253,1,4,0:3:0:0:
165,298,86400,1,4,0:3:0:0:
110,194,86547,6,0,P|98:142|99:101,1,51.999997619629,12|0,0:0|0:0,0:0:0:0:
18,315,86841,2,0,P|28:284|36:240,1,51.999997619629,8|0,0:0|0:0,0:0:0:0:
195,206,87135,5,4,0:3:0:0:
226,241,87283,1,4,0:3:0:0:
276,234,87430,1,4,0:3:0:0:
293,187,87577,1,4,0:3:0:0:
269,147,87724,6,0,B|333:146|316:223|423:197,1,128,4|0,3:2|0:0,0:0:0:0:
498,92,88165,1,0,0:0:0:0:
398,49,88312,2,0,L|390:113,1,64,8|0,0:0|0:0,0:0:0:0:
187,142,88606,1,0,0:0:0:0:
222,117,88753,1,0,0:0:0:0:
259,131,88900,2,0,L|288:285,1,128,0|0,3:0|0:0,0:0:0:0:
425,258,89341,5,0,0:0:0:0:
435,231,89488,1,10,0:0:0:0:
223,374,89782,1,0,0:0:0:0:
292,139,90077,6,0,P|388:168|404:172,1,64,0|0,3:0|0:0,0:0:0:0:
127,230,90371,1,0,0:0:0:0:
88,219,90518,1,0,0:0:0:0:
68,193,90665,2,0,P|71:141|104:118,1,64,8|0,0:0|0:0,0:0:0:0:
86,317,90959,2,0,P|65:340|34:346,1,64
209,286,91253,2,0,B|317:253|278:385|431:319,1,192,0|0,3:0|0:0,0:0:0:0:
470,152,91841,6,0,P|475:233|461:241,1,64,10|0,0:0|0:0,0:0:0:0:
344,264,92135,1,0,0:0:0:0:
329,246,92282,1,0,0:0:0:0:
317,231,92429,2,0,L|270:65,1,128,0|0,3:0|0:0,0:0:0:0:
388,110,92871,1,0,0:0:0:0:
313,1,93018,2,0,P|358:19|401:30,1,64,8|0,0:0|0:0,0:0:0:0:
157,64,93312,2,0,P|235:37|246:30,1,64
56,147,93606,6,0,P|29:88|102:31,1,128,0|0,3:0|0:0,0:0:0:0:
176,150,94047,1,0,0:0:0:0:
172,169,94194,1,10,0:0:0:0:
333,99,94488,1,0,0:0:0:0:
143,269,94782,6,0,P|199:221|148:162,1,128,0|0,3:0|0:0,0:0:0:0:
27,287,95224,1,0,0:0:0:0:
14,280,95371,2,0,B|30:253|32:190|34:182,1,64,8|0,0:0|0:0,0:0:0:0:
243,335,95665,2,0,P|220:275|219:255,1,64
6,324,95959,2,0,L|237:367,1,192,0|0,3:0|0:0,0:0:0:0:
389,281,96547,6,0,P|319:255|309:327,1,128,10|0,0:0|0:0,0:0:0:0:
322,369,96988,1,0,0:0:0:0:
227,253,97135,2,0,P|253:119|262:78,1,128,4|0,3:2|0:0,0:0:0:0:
390,174,97577,1,0,0:0:0:0:
448,85,97724,2,0,P|407:11|404:0,1,64,8|0,0:0|0:0,0:0:0:0:
234,35,98018,2,0,P|316:65|338:61,1,64
471,164,98312,6,0,P|410:182|315:229,1,128,0|0,3:0|0:0,0:0:0:0:
173,309,98753,1,0,0:0:0:0:
187,272,98900,1,10,0:2:0:0:
130,17,99194,1,0,0:0:0:0:
2,208,99488,6,0,P|73:183|81:172,1,64,0|0,3:0|0:0,0:0:0:0:
293,137,99782,2,0,P|215:120|193:124,1,64
65,27,100077,2,0,P|103:95|124:109,1,64,8|0,0:0|0:0,0:0:0:0:
210,216,100371,2,0,P|194:289|173:324,1,64
61,371,100665,2,0,P|189:305|261:350,1,192,0|0,3:0|0:0,0:0:0:0:
474,338,101253,6,0,P|433:355|393:389,1,64,10|0,0:0|0:0,0:0:0:0:
321,213,101547,2,0,P|396:234|417:232,1,64
222,315,101841,2,0,P|206:206|257:185,1,128,0|0,3:0|0:0,0:0:0:0:
327,185,102282,1,0,0:0:0:0:
322,210,102429,1,8,0:0:0:0:
503,65,102724,5,0,0:0:0:0:
496,39,102871,1,0,0:0:0:0:
486,16,103018,2,0,P|452:7|415:35,1,64,0|0,3:0|0:0,0:0:0:0:
207,124,103312,1,0,0:0:0:0:
228,97,103459,1,0,0:0:0:0:
268,103,103606,2,0,P|374:139|376:139,1,64,10|0,0:0|0:0,0:0:0:0:
465,222,103900,2,0,P|441:306|440:322,1,64
320,123,104194,6,0,L|298:37,1,64,4|0,3:2|0:0,0:0:0:0:
145,244,104488,1,0,0:0:0:0:
159,216,104635,1,0,0:0:0:0:
167,189,104782,2,0,P|169:136|164:90,1,64,8|0,0:0|0:0,0:0:0:0:
405,285,105077,2,0,P|403:253|409:193,1,64
127,371,105371,5,4,3:3:0:0:
156,334,105518,1,4,0:3:0:0:
206,347,105665,1,4,0:3:0:0:
353,194,105959,5,6,0:3:0:0:
318,224,106106,1,4,0:3:0:0:
276,188,106253,1,4,0:3:0:0:
295,139,106400,1,4,0:3:0:0:
340,138,106547,6,0,B|420:126|396:224|518:197,1,155.999992858887,4|0,3:2|0:0,0:0:0:0:
507,34,107135,2,0,P|445:39|497:87,1,155.999992858887,8|0,0:0|0:0,0:0:0:0:
340,250,107724,2,0,P|350:185|356:115,1,103.999995239258,0|0,3:0|0:0,0:0:0:0:
274,53,108165,1,0,0:0:0:0:
288,69,108312,1,10,0:0:0:0:
460,164,108606,1,0,0:0:0:0:
404,20,108900,5,0,3:0:0:0:
292,156,109194,1,0,0:0:0:0:
270,168,109292,1,0,0:0:0:0:
282,193,109390,1,0,0:0:0:0:
307,185,109488,2,0,P|337:140|308:80,1,103.999995239258,8|0,0:0|0:0,0:0:0:0:
174,41,109929,1,0,0:0:0:0:
167,30,110077,2,0,L|101:60,2,51.999997619629,0|0|0,3:0|0:0|0:0,0:0:0:0:
168,150,110665,5,10,0:0:0:0:
256,50,110959,1,0,0:0:0:0:
54,130,111253,6,0,P|22:166|94:260,1,155.999992858887,0|0,3:0|0:0,0:0:0:0:
224,342,111841,2,0,B|251:324|238:287|238:287|173:304,1,103.999995239258,8|0,0:0|0:0,0:0:0:0:
58,343,112282,1,0,0:0:0:0:
69,329,112429,2,0,B|140:317|108:413|255:377,1,155.999992858887,0|0,3:0|0:0,0:0:0:0:
411,254,113018,5,10,0:0:0:0:
303,351,113312,1,0,0:0:0:0:
282,136,113606,5,0,3:0:0:0:
415,252,113900,1,0,0:0:0:0:
427,202,114047,1,0,0:0:0:0:
465,237,114194,1,8,0:0:0:0:
495,93,114488,1,0,0:0:0:0:
343,198,114782,2,0,L|367:266,2,51.999997619629,0|0|0,3:0|0:0|0:0,0:0:0:0:
171,50,115371,5,10,0:0:0:0:
183,82,115518,1,0,0:0:0:0:
196,120,115665,1,0,0:0:0:0:
78,249,115959,6,0,P|62:149|123:138,1,155.999992858887,4|0,3:2|0:0,0:0:0:0:
239,185,116547,2,0,P|263:238|215:278,1,103.999995239258,8|0,0:0|0:0,0:0:0:0:
167,224,116988,1,0,0:0:0:0:
155,219,117135,2,0,P|167:125|177:52,1,155.999992858887,0|0,3:0|0:0,0:0:0:0:
279,7,117724,1,10,0:0:0:0:
376,131,118018,1,0,0:0:0:0:
467,32,118312,5,0,3:0:0:0:
362,123,118606,1,0,0:0:0:0:
339,111,118704,1,0,0:0:0:0:
351,86,118802,1,0,0:0:0:0:
378,93,118900,2,0,P|408:139|390:189,1,103.999995239258,8|0,0:0|0:0,0:0:0:0:
250,281,119341,1,0,0:0:0:0:
269,255,119488,2,0,P|344:215|474:275,1,207.999990478516,0|10,3:0|0:0,0:0:0:0:
512,128,120371,1,0,0:0:0:0:
441,271,120665,6,0,L|416:133,1,103.999995239258,0|0,3:0|0:0,0:0:0:0:
296,333,121253,1,8,0:0:0:0:
194,205,121547,1,0,0:2:0:0:
186,228,121694,1,0,0:0:0:0:
180,250,121841,2,0,P|241:260|287:224,1,103.999995239258,0|0,3:0|0:0,0:0:0:0:
307,116,122282,1,0,0:0:0:0:
294,96,122429,2,0,P|220:77|146:163,1,155.999992858887,10|0,0:0|0:0,0:0:0:0:
321,122,123018,6,0,L|306:43,1,51.999997619629,4|0,3:2|0:0,0:0:0:0:
199,257,123312,1,0,0:0:0:0:
208,236,123459,1,0,0:0:0:0:
215,215,123606,2,0,L|229:140,1,51.999997619629,8|0,0:0|0:0,0:0:0:0:
375,288,123900,2,0,L|349:196,1,51.999997619629
266,372,124194,1,4,3:2:0:0:
123,192,124782,5,4,0:3:0:0:
77,174,124929,1,4,0:3:0:0:
79,130,125076,1,4,0:3:0:0:
128,115,125223,1,4,0:3:0:0:
155,149,125370,6,0,P|143:236|135:331,1,160,4|8,3:2|0:0,0:0:0:0:
37,353,126253,1,0,0:0:0:0:
133,299,126547,2,0,B|213:285|191:368|294:336,1,160,0|8,3:0|0:0,0:0:0:0:
362,176,127723,6,0,P|335:238|359:252,2,80,0|0|8,0:0|0:0|0:0,0:0:0:0:
390,296,128606,1,0,0:0:0:0:
441,186,128900,2,0,L|495:216,2,40,0|0|0,3:0|0:0|0:0,0:0:0:0:
245,133,129488,5,10,0:0:0:0:
386,226,129782,1,0,0:0:0:0:
461,150,130076,6,0,B|503:111|473:44|473:44|411:84,1,160,0|8,3:0|0:0,0:0:0:0:
341,211,130959,1,0,0:0:0:0:
244,174,131253,2,0,P|193:137|216:73,1,120,0|0,3:0|0:0,0:0:0:0:
220,17,131841,2,0,P|237:109|209:141,1,120,8|0,0:0|0:0,0:0:0:0:
29,220,132429,6,0,L|138:191,1,80,0|0,3:0|0:0,0:0:0:0:
165,171,132870,1,0,0:0:0:0:
148,196,133018,1,8,0:0:0:0:
210,284,133312,1,0,0:0:0:0:
333,218,133606,2,0,L|323:263,2,40,0|0|0,3:0|0:0|0:0,0:0:0:0:
210,284,134194,5,10,0:0:0:0:
216,312,134341,1,0,0:0:0:0:
223,346,134488,1,0,0:0:0:0:
275,159,134782,6,0,P|328:187|430:135,1,160,0|8,3:0|0:0,0:0:0:0:
504,224,135665,1,0,0:0:0:0:
404,146,135959,2,0,L|442:8,1,120,0|0,3:0|0:0,0:0:0:0:
510,50,136547,2,0,P|479:98|391:90,1,120,8|0,0:0|0:0,0:0:0:0:
287,58,137135,5,0,3:0:0:0:
335,126,137429,1,0,0:0:0:0:
231,197,137723,1,8,0:0:0:0:
256,123,138017,1,0,0:0:0:0:
296,251,138312,2,0,L|286:296,2,40,0|0|0,3:0|0:0|0:0,0:0:0:0:
430,129,138900,5,10,0:0:0:0:
452,241,139194,1,0,0:0:0:0:
309,200,139488,5,0,3:0:0:0:
267,80,139782,1,0,0:0:0:0:
282,68,139929,1,0,0:0:0:0:
300,56,140076,1,8,0:0:0:0:
417,116,140370,1,0,0:0:0:0:
309,200,140665,2,0,B|250:193|278:269|192:256,1,120,0|0,3:0|0:0,0:0:0:0:
146,343,141253,2,0,P|118:264|155:257,1,120,8|0,0:0|0:0,0:0:0:0:
240,169,141841,6,0,L|222:269,1,80,0|0,3:0|0:0,0:0:0:0:
125,288,142282,1,0,0:0:0:0:
137,265,142429,1,8,0:0:0:0:
267,384,142723,1,0,0:0:0:0:
223,228,143017,1,8,0:0:0:0:
116,148,143312,5,0,0:0:0:0:
115,154,143459,1,0,0:0:0:0:
55,106,143606,5,6,0:3:0:0:
89,68,143753,1,4,0:3:0:0:
138,70,143900,1,4,0:3:0:0:
180,103,144047,1,4,0:3:0:0:
190,145,144194,6,0,P|219:104|204:30,1,95.9999970703126,4|0,3:2|0:0,0:0:0:0:
308,0,144635,1,0,0:0:0:0:
305,11,144782,2,0,P|335:58|337:72,1,47.9999985351563,8|0,0:0|0:0,0:0:0:0:
417,103,145076,2,0,P|458:39|468:28,1,47.9999985351563
511,160,145370,2,0,B|437:155|463:231|364:215,1,143.999995605469,0|0,3:0|0:0,0:0:0:0:
317,299,145959,2,0,P|350:347|354:354,2,47.9999985351563,8|0|0,0:0|0:0|0:0,0:0:0:0:
297,131,146547,6,0,P|230:173|246:197,1,95.9999970703126,0|0,3:0|0:0,0:0:0:0:
316,248,146988,1,0,0:0:0:0:
327,256,147135,2,0,P|279:236|261:228,1,47.9999985351563,8|0,0:0|0:0,0:0:0:0:
96,325,147429,2,0,P|143:306|149:305,1,47.9999985351563
230,355,147723,2,0,B|255:276|169:297|216:201,1,143.999995605469,0|0,3:0|0:0,0:0:0:0:
281,77,148312,5,10,0:0:0:0:
302,106,148459,1,0,0:0:0:0:
296,136,148606,1,0,0:0:0:0:
184,221,148900,6,0,B|290:190|254:313|405:250,1,191.999994140625,0|8,3:0|0:0,0:0:0:0:
458,194,149782,1,0,0:0:0:0:
305,83,150076,5,0,3:0:0:0:
376,195,150370,1,0,0:0:0:0:
440,54,150665,1,8,0:0:0:0:
317,152,150959,1,0,0:0:0:0:
127,150,151253,6,0,P|128:42|181:35,1,143.999995605469,0|0,3:0|0:0,0:0:0:0:
95,172,151841,2,0,P|4:149|15:83,1,143.999995605469,8|0,0:0|0:0,0:0:0:0:
128,173,152429,2,0,P|140:260|117:278,1,95.9999970703126,0|0,3:0|0:0,0:0:0:0:
91,335,152870,1,0,0:0:0:0:
73,307,153017,1,10,0:0:0:0:
222,317,153312,1,0,0:0:0:0:
346,248,153606,6,0,P|365:172|371:138,1,95.9999970703126,4|0,3:2|0:0,0:0:0:0:
320,85,154047,1,0,0:0:0:0:
321,73,154194,2,0,P|272:104|250:116,1,47.9999985351563,8|0,0:0|0:0,0:0:0:0:
167,31,154488,2,0,P|189:91|202:109,1,47.9999985351563
67,118,154782,2,0,P|110:167|209:121,1,143.999995605469,0|0,3:0|0:0,0:0:0:0:
224,254,155370,2,0,L|199:308,2,47.9999985351563,8|0|0,0:0|0:0|0:0,0:0:0:0:
454,140,155959,6,0,P|373:173|374:200,1,95.9999970703126,0|0,3:0|0:0,0:0:0:0:
294,128,156400,1,0,0:0:0:0:
287,116,156547,2,0,L|298:42,1,47.9999985351563,8|0,0:0|0:0,0:0:0:0:
211,205,156841,2,0,L|192:132,1,47.9999985351563
78,245,157135,2,0,B|164:228|125:320|241:289,1,143.999995605469,0|0,3:0|0:0,0:0:0:0:
342,357,157723,5,10,0:0:0:0:
364,317,157870,1,0,0:0:0:0:
334,280,158017,1,0,0:0:0:0:
191,303,158312,6,0,L|216:135,1,143.999995605469,0|0,3:0|0:0,0:0:0:0:
353,179,158900,1,8,0:0:0:0:
290,84,159194,1,0,0:0:0:0:
115,135,159488,5,4,2:2:0:0:
375,79,159782,1,0,0:0:0:0:
338,69,159929,1,0,0:0:0:0:
309,77,160076,2,0,B|278:85|241:120|251:115,1,47.9999985351563,8|0,0:0|0:0,0:0:0:0:
255,282,160370,2,0,P|246:212|242:204,1,47.9999985351563
193,70,160665,5,4,3:2:0:0:
32,225,160959,5,4,0:3:0:0:
69,214,161106,1,4,0:3:0:0:
107,241,161253,1,4,0:3:0:0:
132,277,161400,1,4,0:3:0:0:
178,290,161547,1,4,0:3:0:0:
221,266,161694,1,4,0:3:0:0:
260,173,161841,6,0,L|243:99,1,47.9999985351563,12|0,0:2|0:0,0:0:0:0:
305,330,162135,2,0,L|317:256,1,47.9999985351563,8|0,0:0|0:0,0:0:0:0:
443,187,162429,5,4,0:3:0:0:
443,142,162576,1,4,0:3:0:0:
407,110,162723,1,4,0:3:0:0:
365,101,162870,1,4,0:3:0:0:
320,127,163017,6,0,P|298:62|341:0,1,128,4|0,3:2|0:0,0:0:0:0:
415,21,163459,1,0,0:0:0:0:
221,53,163606,2,0,L|194:166,1,64,8|0,0:0|0:0,0:0:0:0:
290,233,163900,1,0,0:0:0:0:
277,208,164047,1,0,0:0:0:0:
262,196,164194,2,0,P|192:194|162:276,1,128,0|0,3:0|0:0,0:0:0:0:
44,331,164635,5,0,0:0:0:0:
54,294,164782,1,10,0:0:0:0:
27,140,165076,1,0,0:0:0:0:
184,247,165370,6,0,P|221:245|301:220,1,64,0|0,3:0|0:0,0:0:0:0:
432,275,165665,1,0,0:0:0:0:
445,241,165812,1,0,0:0:0:0:
445,214,165959,2,0,P|434:151|407:123,1,64,8|0,0:0|0:0,0:0:0:0:
327,36,166253,2,0,L|302:145,1,64
162,136,166547,2,0,B|270:111|225:232|351:179,1,192,0|0,3:0|0:0,0:0:0:0:
506,121,167135,6,0,P|453:162|416:154,1,64,10|0,0:0|0:0,0:0:0:0:
295,241,167429,1,0,0:0:0:0:
296,210,167576,1,0,0:0:0:0:
291,175,167723,2,0,P|365:196|371:271,1,128,0|0,3:0|0:0,0:0:0:0:
364,347,168165,1,0,0:0:0:0:
229,328,168312,2,0,L|168:347,1,64,8|0,0:0|0:0,0:0:0:0:
113,221,168606,2,0,P|139:232|172:245,1,64
0,279,168900,6,0,P|-12:223|58:149,1,128,0|0,3:0|0:0,0:0:0:0:
101,69,169341,1,0,0:0:0:0:
213,38,169488,2,0,P|177:111|163:110,1,64,10|0,0:0|0:0,0:0:0:0:
127,248,169782,2,0,P|131:165|156:157,1,64
193,88,170076,6,0,L|355:133,1,128,0|0,3:0|0:0,0:0:0:0:
429,176,170517,1,0,0:0:0:0:
424,156,170665,2,0,P|397:82|397:71,1,64,8|0,0:0|0:0,0:0:0:0:
512,21,170959,2,0,P|509:88|503:104,1,64
512,249,171253,2,0,B|490:179|400:178|400:178|431:240,1,192,0|0,3:0|0:0,0:0:0:0:
241,381,171841,5,10,0:0:0:0:
249,342,171988,1,0,0:0:0:0:
263,300,172135,1,0,0:0:0:0:
78,194,172429,6,0,B|145:180|121:267|227:236,1,128,4|0,3:2|0:0,0:0:0:0:
292,206,172870,1,0,0:0:0:0:
403,79,173017,2,0,P|397:142|376:173,1,64,8|0,0:0|0:0,0:0:0:0:
357,352,173312,2,0,P|325:269|325:264,1,64
269,217,173606,6,0,P|339:199|398:252,1,128,0|0,3:0|0:0,0:0:0:0:
500,131,174047,1,0,0:0:0:0:
486,104,174194,1,10,0:0:0:0:
512,271,174488,1,0,0:0:0:0:
361,124,174782,6,0,L|392:22,1,64,0|0,3:0|0:0,0:0:0:0:
156,26,175076,2,0,P|199:122|202:126,1,64
360,226,175370,2,0,P|447:259|463:272,1,64,8|0,0:0|0:0,0:0:0:0:
135,197,175665,2,0,P|104:207|79:226,1,64
366,341,175959,2,0,P|366:249|287:200,1,192,0|0,3:0|0:0,0:0:0:0:
58,224,176547,6,0,P|81:153|83:141,1,64,10|0,0:0|0:0,0:0:0:0:
202,109,176841,2,0,P|166:30|162:14,1,64
48,0,177135,2,0,B|106:6|95:56|179:48,1,128,0|0,3:0|0:0,0:0:0:0:
297,43,177576,1,0,0:0:0:0:
288,10,177723,1,8,0:0:0:0:
156,167,178017,5,0,0:0:0:0:
163,141,178164,1,0,0:0:0:0:
173,118,178311,2,0,P|207:109|244:137,1,64,0|0,3:0|0:0,0:0:0:0:
452,226,178605,1,0,0:0:0:0:
431,199,178752,1,0,0:0:0:0:
391,205,178899,2,0,P|285:241|283:241,1,64,10|0,0:0|0:0,0:0:0:0:
194,324,179193,2,0,P|218:408|219:424,1,64
320,123,179487,6,0,L|298:37,1,64,4|0,3:2|0:0,0:0:0:0:
145,244,179781,1,0,0:0:0:0:
159,216,179928,1,0,0:0:0:0:
167,189,180075,2,0,P|169:136|164:90,1,64,8|0,0:0|0:0,0:0:0:0:
405,285,180370,2,0,P|403:253|409:193,1,64
127,371,180664,5,4,3:3:0:0:
156,334,180811,1,4,0:3:0:0:
206,347,180958,1,4,0:3:0:0:
291,183,181253,5,4,0:3:0:0:
259,144,181400,1,4,0:3:0:0:
213,134,181547,1,4,0:3:0:0:
170,154,181694,1,4,0:3:0:0:
151,194,181841,6,0,P|165:142|59:116,2,160,4|0|0,3:2|0:0|0:0,0:0:0:0:
107,372,183606,1,0,0:0:0:0:
38,298,183900,1,0,0:0:0:0:
207,236,184194,6,0,P|233:139|236:131,1,80,2|0,0:0|0:0,0:0:0:0:
160,114,184635,1,0,0:0:0:0:
158,107,184782,2,0,L|75:154,2,80
303,38,185959,5,2,0:1:0:0:
376,96,186253,1,0,0:0:0:0:
182,119,186547,2,0,B|265:97|232:204|353:162,1,160,0|0,3:0|0:0,0:0:0:0:
340,267,187429,1,0,0:0:0:0:
459,187,187723,2,0,L|488:-6,1,160
459,0,188459,5,0,0:0:0:0:
462,14,188606,1,0,0:0:0:0:
387,125,188900,2,0,P|358:152|239:109,2,160,2|0|0,0:0|0:0|0:0,0:0:0:0:
478,215,190370,1,0,0:0:0:0:
287,45,190665,2,0,L|310:91,3,40,2|0|0|0,0:1|0:0|0:0|0:0,0:0:0:0:
207,227,191253,6,0,B|232:309|131:296|180:406,2,160
359,252,193018,1,0,0:0:0:0:
304,171,193312,1,0,0:0:0:0:
136,208,193606,5,0,0:0:0:0:
241,68,193900,1,0,0:0:0:0:
304,171,194194,1,0,0:0:0:0:
156,126,194488,1,0,0:0:0:0:
241,68,194782,1,0,0:0:0:0:
64,265,195371,6,0,L|78:224,3,40,2|0|0|0,0:1|0:0|0:0|0:0,0:0:0:0:
55,279,195959,6,0,P|99:328|202:280,1,160,0|0,3:0|0:0,0:0:0:0:
264,370,196841,1,0,0:0:0:0:
261,242,197135,2,0,B|330:205|330:205|363:243|337:296,1,160
264,370,198017,1,0,0:0:0:0:
92,216,198312,5,4,3:2:0:0:
168,71,198606,5,4,0:3:0:0:
208,48,198753,1,4,0:3:0:0:
256,68,198900,1,4,0:3:0:0:
283,111,199047,1,4,0:3:0:0:
321,133,199194,1,4,0:3:0:0:
362,126,199341,1,4,0:3:0:0:
436,54,199488,6,0,L|449:-18,1,51.999997619629,12|0,0:0|0:0,0:0:0:0:
505,200,199782,2,0,L|483:131,1,51.999997619629,8|0,0:0|0:0,0:0:0:0:
377,355,200077,5,6,0:3:0:0:
418,335,200224,1,4,0:3:0:0:
427,285,200371,1,4,0:3:0:0:
397,244,200518,1,4,0:3:0:0:
354,235,200665,6,0,L|203:284,1,128,4|0,3:2|0:0,0:0:0:0:
159,362,201106,1,0,0:0:0:0:
77,160,201253,2,0,P|105:217|98:257,1,64,8|0,0:0|0:0,0:0:0:0:
7,337,201547,1,0,0:0:0:0:
14,310,201694,1,0,0:0:0:0:
26,289,201841,2,0,P|47:256|142:307,1,128,0|0,3:0|0:0,0:0:0:0:
293,314,202282,5,0,0:0:0:0:
302,289,202429,1,10,0:0:0:0:
42,323,202723,1,0,0:0:0:0:
75,155,203017,5,0,3:0:0:0:
300,250,203312,1,0,0:0:0:0:
315,233,203459,1,0,0:0:0:0:
326,211,203606,2,0,P|321:113|315:104,1,64,8|0,0:0|0:0,0:0:0:0:
376,343,203900,2,0,P|440:332|453:322,1,64
210,224,204194,2,0,P|184:196|47:225,1,192,0|0,3:0|0:0,0:0:0:0:
100,369,204782,6,0,L|115:270,1,64,10|0,0:0|0:0,0:0:0:0:
54,186,205076,1,0,0:0:0:0:
47,206,205223,1,0,0:0:0:0:
42,229,205370,2,0,L|181:209,1,128,0|0,3:0|0:0,0:0:0:0:
195,128,205812,1,0,0:0:0:0:
363,161,205959,2,0,L|347:252,1,64,8|0,0:0|0:0,0:0:0:0:
268,59,206253,2,0,P|279:135|281:155,1,64
224,264,206547,6,0,P|335:315|362:293,1,128,0|0,3:0|0:0,0:0:0:0:
449,202,206988,1,0,0:0:0:0:
443,232,207135,1,10,0:0:0:0:
318,310,207429,1,0,0:0:0:0:
186,147,207723,6,0,P|163:66|224:34,1,128,0|0,3:0|0:0,0:0:0:0:
371,13,208165,1,0,0:0:0:0:
366,22,208312,2,0,L|271:45,1,64,8|0,0:0|0:0,0:0:0:0:
73,153,208606,2,0,L|169:178,1,64
317,127,208900,2,0,P|302:206|226:149,1,192,0|0,3:0|0:0,0:0:0:0:
211,161,209488,6,0,P|228:269|233:293,1,128,10|0,0:0|0:0,0:0:0:0:
148,360,209929,1,0,0:0:0:0:
247,302,210076,2,0,P|330:292|375:362,1,128,4|0,3:2|0:0,0:0:0:0:
468,230,210517,1,0,0:0:0:0:
358,338,210665,2,0,L|368:246,1,64,8|0,0:0|0:0,0:0:0:0:
457,154,210959,2,0,L|479:245,1,64
329,47,211253,6,0,P|286:112|324:173,1,128,0|0,3:0|0:0,0:0:0:0:
195,214,211694,1,0,0:0:0:0:
180,186,211841,1,10,0:0:0:0:
329,335,212135,1,0,0:0:0:0:
395,213,212429,6,0,P|472:229|508:232,1,64,0|0,3:0|0:0,0:0:0:0:
199,280,212723,2,0,P|141:314|115:326,1,64
353,98,213017,2,0,P|372:15|378:-2,1,64,8|0,0:0|0:0,0:0:0:0:
207,205,213312,2,0,P|185:128|161:93,1,64
415,207,213606,2,0,P|386:292|266:271,1,192,0|0,3:0|0:0,0:0:0:0:
135,372,214194,5,10,0:0:0:0:
142,333,214341,1,0,0:0:0:0:
146,294,214488,1,0,0:0:0:0:
5,115,214782,2,0,P|86:161|78:188,1,128,0|0,3:0|0:0,0:0:0:0:
18,304,215223,1,0,0:0:0:0:
27,284,215370,1,8,0:0:0:0:
178,219,215665,5,0,0:0:0:0:
209,195,215812,1,0,0:0:0:0:
238,207,215959,2,0,P|329:233|337:230,1,64,0|0,3:0|0:0,0:0:0:0:
511,163,216253,1,0,0:0:0:0:
490,139,216400,1,0,0:0:0:0:
463,130,216547,2,0,P|465:226|472:234,1,64,10|0,0:0|0:0,0:0:0:0:
361,275,216841,2,0,P|387:348|390:390,1,64
320,123,217135,6,0,L|298:37,1,64,4|0,3:2|0:0,0:0:0:0:
145,244,217429,1,0,0:0:0:0:
159,216,217576,1,0,0:0:0:0:
167,189,217723,2,0,P|169:136|164:90,1,64,8|0,0:0|0:0,0:0:0:0:
405,285,218018,2,0,P|403:253|409:193,1,64
127,371,218312,5,4,3:3:0:0:
156,334,218459,1,4,0:3:0:0:
206,347,218606,1,4,0:3:0:0:
492,245,218900,5,4,0:3:0:0:
469,199,219047,1,4,0:3:0:0:
419,184,219194,1,4,0:3:0:0:
374,204,219341,1,4,0:3:0:0:
358,250,219488,1,4,3:2:0:0:
129,251,219782,5,0,0:0:0:0:
175,239,219929,1,0,0:0:0:0:
206,274,220076,2,0,L|188:356,1,71.9999978027344,8|0,0:0|0:0,0:0:0:0:
276,162,220370,1,0,0:0:0:0:
300,128,220517,1,0,0:0:0:0:
340,117,220665,2,0,B|368:104|400:97|400:97|453:168|373:201,1,143.999995605469,0|0,3:0|0:0,0:0:0:0:
304,242,221106,1,0,0:0:0:0:
154,105,221253,2,0,P|180:200|181:214,1,71.9999978027344,10|0,0:0|0:0,0:0:0:0:
203,345,221547,2,0,P|234:234|233:213,1,71.9999978027344
40,219,221841,6,0,L|169:260,1,71.9999978027344,0|0,3:0|0:0,0:0:0:0:
231,283,222135,2,0,P|321:313|337:319,1,71.9999978027344
343,135,222429,2,0,L|365:14,1,71.9999978027344,8|0,0:0|0:0,0:0:0:0:
444,248,222723,2,0,L|403:125,1,71.9999978027344
255,329,223017,5,0,3:0:0:0:
237,282,223165,1,0,0:0:0:0:
258,242,223312,1,0,0:0:0:0:
417,180,223606,6,0,P|492:199|503:203,1,71.9999978027344,10|0,0:0|0:0,0:0:0:0:
301,58,223900,2,0,P|332:155|337:194,1,71.9999978027344
139,342,224194,5,0,3:0:0:0:
126,297,224341,1,0,0:0:0:0:
168,269,224488,1,0,0:0:0:0:
207,307,224635,1,0,0:0:0:0:
180,348,224782,1,8,0:0:0:0:
148,142,225076,5,0,0:0:0:0:
166,129,225223,1,0,0:0:0:0:
191,117,225370,2,0,B|271:106|235:197|323:172,1,143.999995605469,0|0,3:0|0:0,0:0:0:0:
446,95,225812,1,0,0:0:0:0:
325,173,225959,2,0,P|300:262|300:283,1,71.9999978027344,10|0,0:0|0:0,0:0:0:0:
273,68,226253,2,0,P|255:-26|263:-53,1,71.9999978027344
427,200,226547,6,0,P|489:140|435:101,1,143.999995605469,0|0,3:0|0:0,0:0:0:0:
336,227,226988,1,0,0:0:0:0:
234,45,227135,2,0,P|321:93|330:100,1,71.9999978027344,8|0,0:0|0:0,0:0:0:0:
173,237,227429,2,0,P|268:207|277:202,1,71.9999978027344
406,23,227723,2,0,P|418:111|429:167,1,143.999995605469,0|0,3:0|0:0,0:0:0:0:
499,139,228165,1,0,0:0:0:0:
511,255,228312,6,0,P|452:305|381:268,1,143.999995605469,10|0,0:0|0:0,0:0:0:0:
279,195,228753,1,0,0:0:0:0:
288,224,228900,1,4,3:2:0:0:
77,326,229194,1,0,0:0:0:0:
106,299,229341,1,0,0:0:0:0:
144,289,229488,2,0,P|233:320|239:320,1,71.9999978027344,8|0,0:0|0:0,0:0:0:0:
433,228,229782,5,0,0:0:0:0:
419,191,229929,1,0,0:0:0:0:
399,157,230076,2,0,P|309:180|325:265,1,143.999995605469,0|0,3:0|0:0,0:0:0:0:
319,328,230517,1,0,0:0:0:0:
133,299,230665,2,0,L|174:198,1,71.9999978027344,10|0,0:0|0:0,0:0:0:0:
58,77,230959,2,0,L|97:185,1,71.9999978027344
293,88,231253,6,0,P|191:135|189:136,1,71.9999978027344,0|0,3:0|0:0,0:0:0:0:
249,370,231547,2,0,P|206:296|186:280,1,71.9999978027344
362,134,231841,2,0,P|328:231|309:257,1,71.9999978027344,8|0,0:0|0:0,0:0:0:0:
142,272,232135,2,0,P|37:246|36:246,1,71.9999978027344
388,264,232429,1,0,3:0:0:0:
371,308,232576,1,0,0:0:0:0:
361,347,232723,1,0,0:0:0:0:
173,81,233017,5,10,0:0:0:0:
76,267,233312,1,0,0:0:0:0:
62,121,233606,2,0,B|143:115|119:194|218:168,1,143.999995605469,0|0,3:0|0:0,0:0:0:0:
236,262,234047,1,0,0:0:0:0:
301,129,234194,2,0,P|343:58|287:30,1,143.999995605469,8|0,0:0|0:0,0:0:0:0:
201,87,234635,1,0,0:0:0:0:
375,9,234782,2,0,L|282:47,1,71.9999978027344,0|0,3:0|0:0,0:0:0:0:
161,109,235076,5,0,0:0:0:0:
165,71,235174,1,0,0:0:0:0:
201,87,235272,1,0,0:0:0:0:
195,125,235370,2,0,L|177:243,1,71.9999978027344,10|0,0:0|0:0,0:0:0:0:
55,266,235665,2,0,P|91:368|93:372,1,71.9999978027344
176,118,235959,6,0,L|92:109,1,71.9999978027344,4|0,3:2|0:0,0:0:0:0:
151,318,236253,1,0,0:0:0:0:
130,296,236400,1,0,0:0:0:0:
107,279,236547,2,0,P|57:258|10:249,1,71.9999978027344,8|0,0:0|0:0,0:0:0:0:
345,83,236842,2,0,L|241:121,1,71.9999978027344
117,283,237136,5,4,3:3:0:0:
163,269,237283,1,4,0:3:0:0:
196,309,237430,1,4,0:3:0:0:
435,384,237723,5,4,0:3:0:0:
475,353,237870,1,4,0:3:0:0:
479,310,238017,1,4,0:3:0:0:
448,272,238165,1,4,0:3:0:0:
405,256,238312,6,0,P|362:192|435:122,1,155.999992858887,4|0,3:2|0:0,0:0:0:0:
411,15,238900,2,0,B|400:14|337:6|373:121|251:81,1,155.999992858887,8|0,0:0|0:0,0:0:0:0:
152,107,239488,2,0,P|148:36|192:30,1,103.999995239258,0|0,3:0|0:0,0:0:0:0:
195,34,239929,1,0,0:0:0:0:
208,51,240076,1,10,0:0:0:0:
160,190,240370,1,0,0:0:0:0:
290,70,240665,5,0,3:0:0:0:
59,125,240959,1,0,0:0:0:0:
40,96,241057,1,0,0:0:0:0:
70,78,241155,1,0,0:0:0:0:
90,105,241253,2,0,P|77:208|74:234,1,103.999995239258,8|0,0:0|0:0,0:0:0:0:
103,370,241694,1,0,0:0:0:0:
67,218,241841,2,0,L|23:261,2,51.999997619629,0|0|0,3:0|0:0|0:0,0:0:0:0:
255,326,242429,5,10,0:0:0:0:
269,284,242576,1,0,0:0:0:0:
239,245,242723,1,0,0:0:0:0:
84,186,243017,6,0,B|159:172|158:269|251:245,1,155.999992858887,0|0,3:0|0:0,0:0:0:0:
387,226,243606,2,0,L|414:82,1,103.999995239258,8|0,0:0|0:0,0:0:0:0:
300,39,244047,1,0,0:0:0:0:
300,24,244194,2,0,P|239:78|298:143,1,155.999992858887,0|0,3:0|0:0,0:0:0:0:
420,152,244782,1,10,0:0:0:0:
322,239,245076,1,0,0:0:0:0:
249,98,245370,5,0,3:0:0:0:
191,320,245665,1,0,0:0:0:0:
197,271,245812,1,0,0:0:0:0:
237,307,245959,1,8,0:0:0:0:
220,112,246253,1,0,0:0:0:0:
382,240,246547,2,0,L|360:292,2,51.999997619629,0|0|0,3:0|0:0|3:0,0:0:0:0:
109,199,247135,5,10,0:0:0:0:
149,206,247282,1,0,0:0:0:0:
179,242,247429,1,0,0:0:0:0:
4,363,247723,6,0,P|119:290|168:313,1,155.999992858887,0|0,3:0|0:0,0:0:0:0:
335,320,248312,2,0,P|322:258|278:272,1,103.999995239258,8|0,0:0|0:0,0:0:0:0:
219,305,248753,1,0,0:0:0:0:
215,321,248900,2,0,P|171:240|251:200,1,155.999992858887,0|0,3:0|0:0,0:0:0:0:
367,173,249488,1,10,0:0:0:0:
298,275,249782,1,0,0:0:0:0:
201,105,250076,5,0,3:0:0:0:
389,201,250370,1,0,0:0:0:0:
403,169,250468,1,0,0:0:0:0:
364,152,250567,1,0,0:0:0:0:
347,183,250665,2,0,P|383:227|460:218,1,103.999995239258,8|0,0:0|0:0,0:0:0:0:
508,322,251106,1,0,0:0:0:0:
506,305,251253,2,0,B|404:300|432:405|280:370,1,207.999990478516,0|10,3:0|0:0,0:0:0:0:
152,286,252135,1,0,0:0:0:0:
288,166,252429,6,0,P|262:284|261:301,1,103.999995239258,0|0,3:0|0:0,0:0:0:0:
58,356,253017,1,8,0:0:0:0:
154,179,253312,1,0,0:0:0:0:
166,194,253459,1,0,0:0:0:0:
179,204,253606,2,0,P|252:216|301:174,1,103.999995239258,0|0,3:0|0:0,0:0:0:0:
307,125,254047,1,0,0:0:0:0:
294,115,254194,2,0,P|229:80|130:129,1,155.999992858887,10|0,0:0|0:0,0:0:0:0:
306,116,254782,6,0,L|291:37,1,51.999997619629,4|0,3:2|0:0,0:0:0:0:
184,251,255076,1,0,0:0:0:0:
193,230,255223,1,0,0:0:0:0:
200,209,255370,2,0,L|214:134,1,51.999997619629,8|0,0:0|0:0,0:0:0:0:
360,282,255664,2,0,L|334:190,1,51.999997619629
249,368,255958,1,4,3:3:0:0:
201,370,256106,1,4,0:3:0:0:
169,332,256253,1,4,0:3:0:0:
159,95,256547,5,4,0:3:0:0:
202,85,256694,1,4,0:3:0:0:
236,115,256841,1,4,0:3:0:0:
271,143,256988,1,4,0:3:0:0:
309,141,257135,6,0,B|223:167|258:260|154:242,1,155.999992858887,4|0,3:2|0:0,0:0:0:0:
86,354,257723,2,0,P|105:265|134:285,1,155.999992858887,8|0,0:0|0:0,0:0:0:0:
213,216,258312,2,0,P|204:306|198:344,1,103.999995239258,0|0,3:0|0:0,0:0:0:0:
99,380,258753,1,0,0:0:0:0:
92,358,258900,1,2,0:0:0:0:
110,211,259194,1,0,0:0:0:0:
284,273,259488,5,0,3:0:0:0:
110,211,259782,1,0,0:0:0:0:
98,183,259880,1,0,0:0:0:0:
128,164,259978,1,0,0:0:0:0:
145,200,260076,2,0,L|117:319,1,103.999995239258,8|0,0:0|0:0,0:0:0:0:
196,373,260517,1,0,0:0:0:0:
286,273,260665,2,0,L|343:244,2,51.999997619629,0|0|0,3:0|0:0|0:0,0:0:0:0:
263,125,261253,5,2,0:0:0:0:
392,183,261547,1,0,0:0:0:0:
183,141,261841,6,0,P|147:71|191:44,1,103.999995239258,0|0,3:0|0:0,0:0:0:0:
232,40,262282,1,0,0:0:0:0:
232,28,262429,2,0,B|313:21|298:112|388:82,1,155.999992858887,8|0,0:0|0:0,0:0:0:0:
481,100,263017,2,0,L|449:-26,1,103.999995239258,0|0,3:0|0:0,0:0:0:0:
298,179,263606,5,2,0:0:0:0:
357,68,263900,1,0,0:0:0:0:
470,237,264194,1,0,3:0:0:0:
302,161,264488,1,0,0:0:0:0:
318,208,264635,1,0,0:0:0:0:
350,168,264782,1,8,0:0:0:0:
470,237,265076,1,0,0:0:0:0:
474,81,265370,2,0,L|491:151,2,51.999997619629,0|0|0,3:0|0:0|0:0,0:0:0:0:
362,182,265959,5,2,0:0:0:0:
354,216,266106,1,0,0:0:0:0:
344,252,266253,1,0,0:0:0:0:
123,126,266547,6,0,P|166:179|229:153,1,120,4|0,3:2|0:0,0:0:0:0:
327,237,267135,2,0,P|322:195|265:167,1,80
202,176,267576,1,0,0:0:0:0:
196,184,267723,2,0,P|175:215|198:326,1,120,0|0,3:0|0:0,0:0:0:0:
300,355,268312,1,2,0:0:0:0:
204,293,268606,1,0,0:0:0:0:
117,384,268900,5,0,3:0:0:0:
253,288,269194,1,0,0:0:0:0:
240,254,269292,1,0,0:0:0:0:
207,273,269390,1,0,0:0:0:0:
220,302,269488,2,0,P|254:334|316:319,1,80
376,334,269929,1,0,0:0:0:0:
388,342,270076,2,0,L|369:154,1,160,0|2,3:0|0:0,0:0:0:0:
256,203,270959,1,0,0:0:0:0:
322,87,271253,5,0,0:0:0:0:
